999
DXF file: korpus_classic_250_650.dxf
999
Pro/ENGINEER 2009400 by Parametric Technology Corporation
  0
SECTION
  2
HEADER
  9
$ACADVER
  1
AC1015
  9
$DWGCODEPAGE
  3
ANSI_1252
  9
$EXTMAX
 10
594.0
 20
420.0
 30
0.0
  9
$EXTMIN
 10
0.0
 20
0.0
 30
0.0
  9
$LIMMIN
 10
0.0
 20
0.0
  9
$LIMMAX
 10
594.0
 20
420.0
  9
$VIEWCTR
 10
297.0
 20
210.0
  9
$VIEWSIZE
 40
420.0
  9
$CLAYER
  8
0
  9
$LTSCALE
 40
32.67
  9
$CELTYPE
  6
BYLAYER
  9
$DIMSCALE
 40
1.0
  9
$DIMASZ
 40
2.5
  9
$DIMEXO
 40
3.7125
  9
$DIMDLI
 40
22.572
  9
$DIMEXE
 40
10.692
  9
$DIMCEN
 40
5.346
  9
$DIMLFAC
 40
1.0
  9
$DIMBLK
  1
_FILLED
  9
$DIMTXT
 40
2.5
  9
$DIMTOL
 70
1
  9
$DIMLIM
 70
0
  9
$DIMTFAC
 40
1.0
  9
$DIMTP
 40
0.01
  9
$DIMTM
 40
0.01
  9
$PDMODE
 70
3
  9
$PDSIZE
 40
0.5
  9
$HANDSEED
  5
46A
  9
$MEASUREMENT
 70
1
  9
$INSUNITS
 70
4
  0
ENDSEC
  0
SECTION
  2
CLASSES
  0
CLASS
  1
ACDBDICTIONARYWDFLT
  2
AcDbDictionaryWithDefault
  3
AutoCAD 2000
 90
0
280
0
281
0
  0
CLASS
  1
ACDBPLACEHOLDER
  2
AcDbPlaceHolder
  3
AutoCAD 2000
 90
0
280
0
281
0
  0
CLASS
  1
LAYOUT
  2
AcDbLayout
  3
AutoCAD 2000
 90
0
280
0
281
0
  0
ENDSEC
  0
SECTION
  2
TABLES
  0
TABLE
  2
VPORT
  5
8
100
AcDbSymbolTable
 70
2
  0
VPORT
  5
1F4
100
AcDbSymbolTableRecord
100
AcDbViewportTableRecord
  2
*ACTIVE
 70
0
 10
0.0
 20
0.0
 11
1.0
 21
1.0
 12
297.0
 22
210.0
 13
0.0
 23
0.0
 14
1.0
 24
1.0
 15
0.0
 25
0.0
 16
0.0
 26
0.0
 36
1.0
 17
0.0
 27
0.0
 37
0.0
 40
420.0
 41
1.4142857143
 42
50.0
 43
0.0
 44
0.0
 50
0.0
 51
0.0
 71
0
 72
100
 73
1
 74
1
 75
0
 76
0
 77
0
 78
0
  0
ENDTAB
  0
TABLE
  2
LTYPE
  5
5
100
AcDbSymbolTable
 70
6
  0
LTYPE
  5
14
100
AcDbSymbolTableRecord
100
AcDbLinetypeTableRecord
  2
BYBLOCK
 70
0
  3

 72
65
 73
0
 40
0.0
  0
LTYPE
  5
15
100
AcDbSymbolTableRecord
100
AcDbLinetypeTableRecord
  2
BYLAYER
 70
0
  3

 72
65
 73
0
 40
0.0
  0
LTYPE
  5
16
100
AcDbSymbolTableRecord
100
AcDbLinetypeTableRecord
  2
CONTINUOUS
 70
64
  3
Solid line
 72
65
 73
0
 40
0.0
  0
LTYPE
  5
1F5
100
AcDbSymbolTableRecord
100
AcDbLinetypeTableRecord
  2
CENTER
 70
64
  3
____ _ ____ _ ____ _ ____ _ ____ _ ____ _ ____
 72
65
 73
4
 40
0.6
 49
0.375
 74
0
 49
-0.075
 74
0
 49
0.075
 74
0
 49
-0.075
 74
0
  0
LTYPE
  5
1F6
100
AcDbSymbolTableRecord
100
AcDbLinetypeTableRecord
  2
HIDDEN
 70
64
  3
- - - - - - - - - - - - - - - - - - - -
 72
65
 73
2
 40
0.2
 49
0.1
 74
0
 49
-0.1
 74
0
  0
LTYPE
  5
1F7
100
AcDbSymbolTableRecord
100
AcDbLinetypeTableRecord
  2
PHANTOM
 70
64
  3
_____ _ _ _____ _ _ _____ _ _ _____
 72
65
 73
6
 40
0.8
 49
0.45
 74
0
 49
-0.05
 74
0
 49
0.1
 74
0
 49
-0.05
 74
0
 49
0.1
 74
0
 49
-0.05
 74
0
  0
LTYPE
  5
1F8
100
AcDbSymbolTableRecord
100
AcDbLinetypeTableRecord
  2
DOT
 70
64
  3
. . . . . . . . . . . . . . . . . . . .
 72
65
 73
2
 40
0.2
 49
0.1
 74
0
 49
-0.1
 74
0
  0
LTYPE
  5
1F9
100
AcDbSymbolTableRecord
100
AcDbLinetypeTableRecord
  2
DASHED
 70
64
  3
- - - - - - - - - - - - - - - - - - - -
 72
65
 73
2
 40
0.2
 49
0.1
 74
0
 49
-0.1
 74
0
  0
ENDTAB
  0
TABLE
  2
LAYER
  5
2
100
AcDbSymbolTable
 70
36
  0
LAYER
  5
10
100
AcDbSymbolTableRecord
100
AcDbLayerTableRecord
  2
0
 70
0
 62
7
  6
CONTINUOUS
370
-3
390
F
  0
LAYER
  5
1FA
100
AcDbSymbolTableRecord
100
AcDbLayerTableRecord
  2
DEFAULT_1
 70
0
 62
7
  6
CENTER
370
-3
390
F
  0
LAYER
  5
1FB
100
AcDbSymbolTableRecord
100
AcDbLayerTableRecord
  2
DEFAULT_2
 70
0
 62
8
  6
HIDDEN
370
-3
390
F
  0
LAYER
  5
1FC
100
AcDbSymbolTableRecord
100
AcDbLayerTableRecord
  2
DEFAULT_3
 70
0
 62
7
  6
PHANTOM
370
-3
390
F
  0
LAYER
  5
1FD
100
AcDbSymbolTableRecord
100
AcDbLayerTableRecord
  2
_2D_DELETED_OBJS
 70
0
 62
7
  6
CONTINUOUS
370
-3
390
F
  0
LAYER
  5
1FE
100
AcDbSymbolTableRecord
100
AcDbLayerTableRecord
  2
_BLACK_HOLE
 70
0
 62
7
  6
CONTINUOUS
370
-3
390
F
  0
LAYER
  5
1FF
100
AcDbSymbolTableRecord
100
AcDbLayerTableRecord
  2
ACHSEN
 70
0
 62
7
  6
CONTINUOUS
370
-3
390
F
  0
LAYER
  5
200
100
AcDbSymbolTableRecord
100
AcDbLayerTableRecord
  2
AXIS
 70
0
 62
7
  6
CONTINUOUS
370
-3
390
F
  0
LAYER
  5
201
100
AcDbSymbolTableRecord
100
AcDbLayerTableRecord
  2
DIMENSIONS
 70
0
 62
7
  6
CONTINUOUS
370
-3
390
F
  0
LAYER
  5
202
100
AcDbSymbolTableRecord
100
AcDbLayerTableRecord
  2
EBENEN
 70
0
 62
7
  6
CONTINUOUS
370
-3
390
F
  0
LAYER
  5
203
100
AcDbSymbolTableRecord
100
AcDbLayerTableRecord
  2
FASEN
 70
0
 62
7
  6
CONTINUOUS
370
-3
390
F
  0
LAYER
  5
204
100
AcDbSymbolTableRecord
100
AcDbLayerTableRecord
  2
FLAECHEN
 70
0
 62
7
  6
CONTINUOUS
370
-3
390
F
  0
LAYER
  5
205
100
AcDbSymbolTableRecord
100
AcDbLayerTableRecord
  2
HOLES
 70
0
 62
7
  6
CONTINUOUS
370
-3
390
F
  0
LAYER
  5
206
100
AcDbSymbolTableRecord
100
AcDbLayerTableRecord
  2
KOERPER
 70
0
 62
7
  6
CONTINUOUS
370
-3
390
F
  0
LAYER
  5
207
100
AcDbSymbolTableRecord
100
AcDbLayerTableRecord
  2
KURVEN
 70
0
 62
7
  6
CONTINUOUS
370
-3
390
F
  0
LAYER
  5
208
100
AcDbSymbolTableRecord
100
AcDbLayerTableRecord
  2
ORI_FL
 70
0
 62
7
  6
CONTINUOUS
370
-3
390
F
  0
LAYER
  5
209
100
AcDbSymbolTableRecord
100
AcDbLayerTableRecord
  2
PUNKTE
 70
0
 62
7
  6
CONTINUOUS
370
-3
390
F
  0
LAYER
  5
20A
100
AcDbSymbolTableRecord
100
AcDbLayerTableRecord
  2
QUILTS
 70
0
 62
7
  6
CONTINUOUS
370
-3
390
F
  0
LAYER
  5
20B
100
AcDbSymbolTableRecord
100
AcDbLayerTableRecord
  2
ROUNDS
 70
0
 62
7
  6
CONTINUOUS
370
-3
390
F
  0
LAYER
  5
20C
100
AcDbSymbolTableRecord
100
AcDbLayerTableRecord
  2
SAMMELFLAECHEN
 70
0
 62
7
  6
CONTINUOUS
370
-3
390
F
  0
LAYER
  5
20D
100
AcDbSymbolTableRecord
100
AcDbLayerTableRecord
  2
SKETCH
 70
0
 62
7
  6
CONTINUOUS
370
-3
390
F
  0
LAYER
  5
20E
100
AcDbSymbolTableRecord
100
AcDbLayerTableRecord
  2
SOLIDS
 70
0
 62
7
  6
CONTINUOUS
370
-3
390
F
  0
ENDTAB
  0
TABLE
  2
STYLE
  5
3
100
AcDbSymbolTable
 70
1
  0
STYLE
  5
11
100
AcDbSymbolTableRecord
100
AcDbTextStyleTableRecord
  2
STANDARD
 70
0
 40
0.0
 41
0.8
 50
0.0
 71
0
 42
0.2
  3
txt
  4

  0
ENDTAB
  0
TABLE
  2
VIEW
  5
6
100
AcDbSymbolTable
 70
0
  0
ENDTAB
  0
TABLE
  2
UCS
  5
7
100
AcDbSymbolTable
 70
0
  0
ENDTAB
  0
TABLE
  2
APPID
  5
9
100
AcDbSymbolTable
 70
1
  0
APPID
  5
20F
100
AcDbSymbolTableRecord
100
AcDbRegAppTableRecord
  2
ACAD
 70
0
  0
ENDTAB
  0
TABLE
  2
BLOCK_RECORD
  5
1
100
AcDbSymbolTable
 70
0
  0
BLOCK_RECORD
  5
1F
100
AcDbSymbolTableRecord
100
AcDbBlockTableRecord
  2
*MODEL_SPACE
  0
BLOCK_RECORD
  5
1B
100
AcDbSymbolTableRecord
100
AcDbBlockTableRecord
  2
*PAPER_SPACE
  0
BLOCK_RECORD
  5
210
100
AcDbSymbolTableRecord
100
AcDbBlockTableRecord
  2
_FILLED
  0
BLOCK_RECORD
  5
211
100
AcDbSymbolTableRecord
100
AcDbBlockTableRecord
  2
*D0
  0
BLOCK_RECORD
  5
212
100
AcDbSymbolTableRecord
100
AcDbBlockTableRecord
  2
*D1
  0
BLOCK_RECORD
  5
213
100
AcDbSymbolTableRecord
100
AcDbBlockTableRecord
  2
*D2
  0
ENDTAB
  0
TABLE
  2
DIMSTYLE
  5
A
100
AcDbSymbolTable
 70
1
100
AcDbDimStyleTable
 71
0
  0
DIMSTYLE
105
214
100
AcDbSymbolTableRecord
100
AcDbDimStyleTableRecord
  2
STANDARD
 70
0
  3

  4

 40
1.0
 41
2.5
 42
0.0625
 43
0.38
 44
0.18
 45
0.0
 46
0.0
 47
0.01
 48
0.01
140
2.5
141
0.09
142
0.0
143
25.4
144
1.0
145
0.0
146
1.0
147
0.09
 71
1.0
 72
0.0
 73
0
 74
0
 75
0
 76
0
 77
1
 78
8
170
0
171
2
172
0
173
0
174
0
175
0
176
0
177
0
178
5
270
2
271
2
272
2
273
2
274
2
275
0
280
0
281
0
282
0
283
1
284
8
285
0
286
0
287
3
288
0
340
11
341
210
342
210
343
210
344
210
  0
DIMSTYLE
105
215
100
AcDbSymbolTableRecord
100
AcDbDimStyleTableRecord
  2
DIMSTYLE_1
 70
0
  3

  4

 40
1.0
 41
2.5
 42
0.0625
 43
0.38
 44
0.18
 45
0.0
 46
0.0
 47
0.3
 48
0.3
140
2.5
141
0.09
142
0.0
143
25.4
144
1.0
145
0.0
146
1.0
147
0.09
 71
0.0
 72
0.0
 73
0
 74
0
 75
0
 76
0
 77
1
 78
8
170
0
171
2
172
0
173
0
174
0
175
0
176
0
177
0
178
5
270
2
271
2
272
2
273
2
274
2
275
0
280
0
281
0
282
0
283
1
284
8
285
0
286
0
287
3
288
0
340
11
341
210
342
210
343
210
344
210
  0
DIMSTYLE
105
216
100
AcDbSymbolTableRecord
100
AcDbDimStyleTableRecord
  2
DIMSTYLE_2
 70
0
  3

  4

 40
1.0
 41
2.5
 42
0.0625
 43
0.38
 44
0.18
 45
0.0
 46
0.0
 47
0.2
 48
0.2
140
2.5
141
0.09
142
0.0
143
25.4
144
1.0
145
0.0
146
1.0
147
0.09
 71
0.0
 72
0.0
 73
0
 74
0
 75
0
 76
0
 77
1
 78
8
170
0
171
2
172
0
173
0
174
0
175
0
176
0
177
0
178
5
270
2
271
2
272
2
273
2
274
2
275
0
280
0
281
0
282
0
283
1
284
8
285
0
286
0
287
3
288
0
340
11
341
210
342
210
343
210
344
210
  0
ENDTAB
  0
ENDSEC
  0
SECTION
  2
BLOCKS
  0
BLOCK
  5
20
100
AcDbEntity
  8
0
100
AcDbBlockBegin
  2
*MODEL_SPACE
 70
0
 10
0.0
 20
0.0
 30
0.0
  3
*MODEL_SPACE
  1

  0
ENDBLK
  5
21
100
AcDbEntity
  8
0
100
AcDbBlockEnd
  0
BLOCK
  5
1C
100
AcDbEntity
  8
0
100
AcDbBlockBegin
  2
*PAPER_SPACE
 70
0
 10
0.0
 20
0.0
 30
0.0
  3
*PAPER_SPACE
  1

  0
ENDBLK
  5
1D
100
AcDbEntity
  8
0
100
AcDbBlockEnd
  0
BLOCK
  5
217
100
AcDbEntity
  8
DIMENSIONS
100
AcDbBlockBegin
 62
2
  6
CONTINUOUS
  2
*D0
 70
65
 10
0.0
 20
0.0
  3
*D0
  1

  0
LINE
  5
218
100
AcDbEntity
  8
DIMENSIONS
100
AcDbLine
 62
2
  6
CONTINUOUS
 10
440.6511758119
 20
294.1364431691
 11
452.3059779185
 21
294.1364431691
  0
LINE
  5
219
100
AcDbEntity
  8
DIMENSIONS
100
AcDbLine
 62
2
  6
CONTINUOUS
 10
440.6511758119
 20
193.1364431691
 11
452.3059779185
 21
193.1364431691
  0
LINE
  5
21A
100
AcDbEntity
  8
DIMENSIONS
100
AcDbLine
 62
2
  6
CONTINUOUS
 10
451.3059779185
 20
294.1364431691
 11
451.3059779185
 21
243.6364431691
  0
LINE
  5
21B
100
AcDbEntity
  8
DIMENSIONS
100
AcDbLine
 62
2
  6
CONTINUOUS
 10
451.3059779185
 20
193.1364431691
 11
451.3059779185
 21
243.6364431691
  0
INSERT
  5
21C
100
AcDbEntity
  8
DIMENSIONS
100
AcDbBlockReference
 62
2
  6
CONTINUOUS
  2
_FILLED
 10
451.3059779185
 20
294.1364431691
 41
2.5
 42
2.5
 43
2.5
 50
90.0
  0
INSERT
  5
21D
100
AcDbEntity
  8
DIMENSIONS
100
AcDbBlockReference
 62
2
  6
CONTINUOUS
  2
_FILLED
 10
451.3059779185
 20
193.1364431691
 41
2.5
 42
2.5
 43
2.5
 50
270.0
  0
ENDBLK
  5
21E
100
AcDbEntity
  8
0
  6
BYBLOCK
 62
0
100
AcDbBlockEnd
  0
BLOCK
  5
21F
100
AcDbEntity
  8
DIMENSIONS
100
AcDbBlockBegin
 62
2
  6
CONTINUOUS
  2
*D1
 70
65
 10
0.0
 20
0.0
  3
*D1
  1

  0
LINE
  5
220
100
AcDbEntity
  8
DIMENSIONS
100
AcDbLine
 62
2
  6
CONTINUOUS
 10
40.6511758119
 20
12.1364431691
 11
40.6511758119
 21
-3.2959084742
  0
LINE
  5
221
100
AcDbEntity
  8
DIMENSIONS
100
AcDbLine
 62
2
  6
CONTINUOUS
 10
29.6511758119
 20
12.1364431691
 11
29.6511758119
 21
-3.2959084742
  0
LINE
  5
222
100
AcDbEntity
  8
DIMENSIONS
100
AcDbLine
 62
2
  6
CONTINUOUS
 10
40.6511758119
 20
-2.2959084742
 11
48.1511758119
 21
-2.2959084742
  0
LINE
  5
223
100
AcDbEntity
  8
DIMENSIONS
100
AcDbLine
 62
2
  6
CONTINUOUS
 10
48.1511758119
 20
-2.2959084742
 11
35.1511758119
 21
-2.2959084742
  0
LINE
  5
224
100
AcDbEntity
  8
DIMENSIONS
100
AcDbLine
 62
2
  6
CONTINUOUS
 10
29.6511758119
 20
-2.2959084742
 11
22.1511758119
 21
-2.2959084742
  0
LINE
  5
225
100
AcDbEntity
  8
DIMENSIONS
100
AcDbLine
 62
2
  6
CONTINUOUS
 10
22.1511758119
 20
-2.2959084742
 11
35.1511758119
 21
-2.2959084742
  0
INSERT
  5
226
100
AcDbEntity
  8
DIMENSIONS
100
AcDbBlockReference
 62
2
  6
CONTINUOUS
  2
_FILLED
 10
40.6511758119
 20
-2.2959084742
 41
2.5
 42
2.5
 43
2.5
 50
180.0
  0
INSERT
  5
227
100
AcDbEntity
  8
DIMENSIONS
100
AcDbBlockReference
 62
2
  6
CONTINUOUS
  2
_FILLED
 10
29.6511758119
 20
-2.2959084742
 41
2.5
 42
2.5
 43
2.5
  0
ENDBLK
  5
228
100
AcDbEntity
  8
0
  6
BYBLOCK
 62
0
100
AcDbBlockEnd
  0
BLOCK
  5
229
100
AcDbEntity
  8
DIMENSIONS
100
AcDbBlockBegin
 62
2
  6
CONTINUOUS
  2
*D2
 70
65
 10
0.0
 20
0.0
  3
*D2
  1

  0
LINE
  5
22A
100
AcDbEntity
  8
DIMENSIONS
100
AcDbLine
 62
2
  6
CONTINUOUS
 10
28.6511758119
 20
391.4784672343
 11
1.4199556051
 21
391.4784672343
  0
LINE
  5
22B
100
AcDbEntity
  8
DIMENSIONS
100
AcDbLine
 62
2
  6
CONTINUOUS
 10
28.6511758119
 20
382.4784672343
 11
1.4199556051
 21
382.4784672343
  0
LINE
  5
22C
100
AcDbEntity
  8
DIMENSIONS
100
AcDbLine
 62
2
  6
CONTINUOUS
 10
2.4199556051
 20
391.4784672343
 11
2.4199556051
 21
398.9784672343
  0
LINE
  5
22D
100
AcDbEntity
  8
DIMENSIONS
100
AcDbLine
 62
2
  6
CONTINUOUS
 10
2.4199556051
 20
398.9784672343
 11
2.4199556051
 21
386.9784672343
  0
LINE
  5
22E
100
AcDbEntity
  8
DIMENSIONS
100
AcDbLine
 62
2
  6
CONTINUOUS
 10
2.4199556051
 20
382.4784672343
 11
2.4199556051
 21
374.9784672343
  0
LINE
  5
22F
100
AcDbEntity
  8
DIMENSIONS
100
AcDbLine
 62
2
  6
CONTINUOUS
 10
2.4199556051
 20
374.9784672343
 11
2.4199556051
 21
386.9784672343
  0
INSERT
  5
230
100
AcDbEntity
  8
DIMENSIONS
100
AcDbBlockReference
 62
2
  6
CONTINUOUS
  2
_FILLED
 10
2.4199556051
 20
391.4784672343
 41
2.5
 42
2.5
 43
2.5
 50
270.0
  0
INSERT
  5
231
100
AcDbEntity
  8
DIMENSIONS
100
AcDbBlockReference
 62
2
  6
CONTINUOUS
  2
_FILLED
 10
2.4199556051
 20
382.4784672343
 41
2.5
 42
2.5
 43
2.5
 50
90.0
  0
ENDBLK
  5
232
100
AcDbEntity
  8
0
  6
BYBLOCK
 62
0
100
AcDbBlockEnd
  0
BLOCK
  5
233
100
AcDbEntity
  8
0
100
AcDbBlockBegin
  2
_FILLED
 70
64
 10
0.0
 20
0.0
  3
_FILLED
  1

  0
SOLID
  5
234
100
AcDbEntity
  8
0
  6
BYBLOCK
 62
0
100
AcDbTrace
 10
0.0
 20
0.0
 11
-1.0
 21
0.15
 12
-1.0
 22
-0.15
 13
-1.0
 23
-0.15
  0
ENDBLK
  5
235
100
AcDbEntity
  8
0
  6
BYBLOCK
 62
0
100
AcDbBlockEnd
  0
ENDSEC
  0
SECTION
  2
ENTITIES
  0
DIMENSION
  5
236
100
AcDbEntity
  8
DIMENSIONS
100
AcDbDimension
 62
2
  6
CONTINUOUS
  2
*D0
 10
451.3059779185
 20
193.1364431691
 11
450.6809779185
 21
241.2257288834
 70
160
 42
101.0
  3
DIMSTYLE_1
100
AcDbAlignedDimension
 13
440.6511758119
 23
294.1364431691
 14
440.6511758119
 24
193.1364431691
 50
270.0
100
AcDbRotatedDimension
  0
DIMENSION
  5
237
100
AcDbEntity
  8
DIMENSIONS
100
AcDbDimension
 62
2
  6
CONTINUOUS
  2
*D1
 10
29.6511758119
 20
-2.2959084742
 11
33.7226043833
 21
-1.6709084742
 70
160
 42
11.0
  3
DIMSTYLE_2
100
AcDbAlignedDimension
 13
40.6511758119
 23
12.1364431691
 14
29.6511758119
 24
12.1364431691
 50
180.0
100
AcDbRotatedDimension
  0
DIMENSION
  5
238
100
AcDbEntity
  8
DIMENSIONS
100
AcDbDimension
 62
2
  6
CONTINUOUS
  2
*D2
 10
2.4199556051
 20
382.4784672343
 11
1.7949556051
 21
385.9963243772
 70
160
 42
9.0
  3
DIMSTYLE_2
100
AcDbAlignedDimension
 13
28.6511758119
 23
391.4784672343
 14
28.6511758119
 24
382.4784672343
 50
270.0
100
AcDbRotatedDimension
  0
SOLID
  5
239
100
AcDbEntity
  8
0
100
AcDbTrace
 62
5
  6
CONTINUOUS
 10
180.0057079756
 20
242.1460802231
 11
180.6723746423
 21
242.220149776
 12
181.3390413089
 22
242.1460802231
 13
181.3390413089
 23
242.1460802231
  0
SOLID
  5
23A
100
AcDbEntity
  8
0
100
AcDbTrace
 62
5
  6
CONTINUOUS
 10
181.3390413089
 20
242.1460802231
 11
179.413115383
 21
241.9979298144
 12
180.0057079756
 22
242.1460802231
 13
180.0057079756
 23
242.1460802231
  0
SOLID
  5
23B
100
AcDbEntity
  8
0
100
AcDbTrace
 62
5
  6
CONTINUOUS
 10
179.413115383
 20
241.9979298144
 11
181.3390413089
 21
242.1460802231
 12
181.9316339015
 22
241.9979298144
 13
181.9316339015
 23
241.9979298144
  0
SOLID
  5
23C
100
AcDbEntity
  8
0
100
AcDbTrace
 62
5
  6
CONTINUOUS
 10
181.9316339015
 20
241.9979298144
 11
178.8945968645
 21
241.7757098527
 12
179.413115383
 22
241.9979298144
 13
179.413115383
 23
241.9979298144
  0
SOLID
  5
23D
100
AcDbEntity
  8
0
100
AcDbTrace
 62
5
  6
CONTINUOUS
 10
178.8945968645
 20
241.7757098527
 11
181.9316339015
 21
241.9979298144
 12
182.4501524201
 22
241.7757098527
 13
182.4501524201
 23
241.7757098527
  0
SOLID
  5
23E
100
AcDbEntity
  8
0
100
AcDbTrace
 62
5
  6
CONTINUOUS
 10
182.4501524201
 20
241.7757098527
 11
178.4501524201
 21
241.4794090353
 12
178.8945968645
 22
241.7757098527
 13
178.8945968645
 23
241.7757098527
  0
SOLID
  5
23F
100
AcDbEntity
  8
0
100
AcDbTrace
 62
5
  6
CONTINUOUS
 10
178.4501524201
 20
241.4794090353
 11
182.4501524201
 21
241.7757098527
 12
182.8945968645
 22
241.4053349612
 13
182.8945968645
 23
241.4053349612
  0
SOLID
  5
240
100
AcDbEntity
  8
0
100
AcDbTrace
 62
5
  6
CONTINUOUS
 10
180.6723746423
 20
241.183112739
 11
180.2279301978
 21
241.1090397952
 12
178.0797820497
 22
241.0349595046
 13
178.0797820497
 23
241.0349595046
  0
SOLID
  5
241
100
AcDbEntity
  8
0
100
AcDbTrace
 62
5
  6
CONTINUOUS
 10
182.8945968645
 20
241.4053349612
 11
180.6723746423
 21
241.183112739
 12
178.0797820497
 22
241.0349595046
 13
178.0797820497
 23
241.0349595046
  0
SOLID
  5
242
100
AcDbEntity
  8
0
100
AcDbTrace
 62
5
  6
CONTINUOUS
 10
182.8945968645
 20
241.4053349612
 11
178.0797820497
 21
241.0349595046
 12
178.4501524201
 22
241.4794090353
 13
178.4501524201
 23
241.4794090353
  0
SOLID
  5
243
100
AcDbEntity
  8
0
100
AcDbTrace
 62
5
  6
CONTINUOUS
 10
178.0797820497
 20
241.0349595046
 11
180.2279301978
 21
241.1090397952
 12
179.8575598275
 22
241.0349595046
 13
179.8575598275
 23
241.0349595046
  0
SOLID
  5
244
100
AcDbEntity
  8
0
100
AcDbTrace
 62
5
  6
CONTINUOUS
 10
181.0427450126
 20
241.1090397952
 11
180.6723746423
 21
241.183112739
 12
182.8945968645
 22
241.4053349612
 13
182.8945968645
 23
241.4053349612
  0
SOLID
  5
245
100
AcDbEntity
  8
0
100
AcDbTrace
 62
5
  6
CONTINUOUS
 10
181.413115383
 20
241.0349595046
 11
181.0427450126
 21
241.1090397952
 12
182.8945968645
 22
241.4053349612
 13
182.8945968645
 23
241.4053349612
  0
SOLID
  5
246
100
AcDbEntity
  8
0
100
AcDbTrace
 62
5
  6
CONTINUOUS
 10
181.413115383
 20
241.0349595046
 11
182.8945968645
 21
241.4053349612
 12
183.2649672349
 22
240.9608905168
 13
183.2649672349
 23
240.9608905168
  0
SOLID
  5
247
100
AcDbEntity
  8
0
100
AcDbTrace
 62
5
  6
CONTINUOUS
 10
183.2649672349
 20
240.9608905168
 11
181.7094116793
 21
240.8868164427
 12
181.413115383
 22
241.0349595046
 13
181.413115383
 23
241.0349595046
  0
SOLID
  5
248
100
AcDbEntity
  8
0
100
AcDbTrace
 62
5
  6
CONTINUOUS
 10
179.4871894571
 20
240.8127423686
 11
179.2649672349
 21
240.5905201464
 12
177.7834857534
 22
240.5164500283
 13
177.7834857534
 23
240.5164500283
  0
SOLID
  5
249
100
AcDbEntity
  8
0
100
AcDbTrace
 62
5
  6
CONTINUOUS
 10
179.8575598275
 20
241.0349595046
 11
179.4871894571
 21
240.8127423686
 12
177.7834857534
 22
240.5164500283
 13
177.7834857534
 23
240.5164500283
  0
SOLID
  5
24A
100
AcDbEntity
  8
0
100
AcDbTrace
 62
5
  6
CONTINUOUS
 10
179.8575598275
 20
241.0349595046
 11
177.7834857534
 21
240.5164500283
 12
178.0797820497
 22
241.0349595046
 13
178.0797820497
 23
241.0349595046
  0
SOLID
  5
24B
100
AcDbEntity
  8
0
100
AcDbTrace
 62
5
  6
CONTINUOUS
 10
182.0057079756
 20
240.6645942205
 11
181.7094116793
 21
240.8868164427
 12
183.2649672349
 22
240.9608905168
 13
183.2649672349
 23
240.9608905168
  0
SOLID
  5
24C
100
AcDbEntity
  8
0
100
AcDbTrace
 62
5
  6
CONTINUOUS
 10
182.0057079756
 20
240.6645942205
 11
183.2649672349
 21
240.9608905168
 12
183.5612635312
 22
240.5164500283
 13
183.5612635312
 23
240.5164500283
  0
SOLID
  5
24D
100
AcDbEntity
  8
0
100
AcDbTrace
 62
5
  6
CONTINUOUS
 10
183.5612635312
 20
240.5164500283
 11
182.2279301978
 21
240.4423719983
 12
182.0057079756
 22
240.6645942205
 13
182.0057079756
 23
240.6645942205
  0
SOLID
  5
24E
100
AcDbEntity
  8
0
100
AcDbTrace
 62
5
  6
CONTINUOUS
 10
177.7834857534
 20
240.5164500283
 11
179.2649672349
 21
240.5905201464
 12
179.0427450126
 22
240.2942238501
 13
179.0427450126
 23
240.2942238501
  0
SOLID
  5
24F
100
AcDbEntity
  8
0
100
AcDbTrace
 62
5
  6
CONTINUOUS
 10
182.376078346
 20
240.146075702
 11
182.2279301978
 21
240.4423719983
 12
183.5612635312
 22
240.5164500283
 13
183.5612635312
 23
240.5164500283
  0
SOLID
  5
250
100
AcDbEntity
  8
0
100
AcDbTrace
 62
5
  6
CONTINUOUS
 10
182.376078346
 20
240.146075702
 11
183.5612635312
 21
240.5164500283
 12
183.7094116793
 22
239.9979298144
 13
183.7094116793
 23
239.9979298144
  0
SOLID
  5
251
100
AcDbEntity
  8
0
100
AcDbTrace
 62
5
  6
CONTINUOUS
 10
179.0427450126
 20
240.2942238501
 11
178.8205227904
 21
239.9979298144
 12
177.5612635312
 22
239.9238534797
 13
177.5612635312
 23
239.9238534797
  0
SOLID
  5
252
100
AcDbEntity
  8
0
100
AcDbTrace
 62
5
  6
CONTINUOUS
 10
179.0427450126
 20
240.2942238501
 11
177.5612635312
 21
239.9238534797
 12
177.7834857534
 22
240.5164500283
 13
177.7834857534
 23
240.5164500283
  0
SOLID
  5
253
100
AcDbEntity
  8
0
100
AcDbTrace
 62
5
  6
CONTINUOUS
 10
183.7094116793
 20
239.9979298144
 11
182.4501524201
 21
239.8497794057
 12
182.376078346
 22
240.146075702
 13
182.376078346
 23
240.146075702
  0
SOLID
  5
254
100
AcDbEntity
  8
0
100
AcDbTrace
 62
5
  6
CONTINUOUS
 10
177.5612635312
 20
239.9238534797
 11
178.8205227904
 21
239.9979298144
 12
178.7464487164
 22
239.6275571834
 13
178.7464487164
 23
239.6275571834
  0
SOLID
  5
255
100
AcDbEntity
  8
0
100
AcDbTrace
 62
5
  6
CONTINUOUS
 10
182.5242264941
 20
239.4794090353
 11
182.4501524201
 21
239.8497794057
 12
183.7094116793
 22
239.9979298144
 13
183.7094116793
 23
239.9979298144
  0
SOLID
  5
256
100
AcDbEntity
  8
0
100
AcDbTrace
 62
5
  6
CONTINUOUS
 10
182.5242264941
 20
239.4794090353
 11
183.7094116793
 21
239.9979298144
 12
183.7834857534
 22
239.4053349612
 13
183.7834857534
 23
239.4053349612
  0
SOLID
  5
257
100
AcDbEntity
  8
0
100
AcDbTrace
 62
5
  6
CONTINUOUS
 10
178.7464487164
 20
239.6275571834
 11
177.4871894571
 21
239.3312608871
 12
177.5612635312
 22
239.9238534797
 13
177.5612635312
 23
239.9238534797
  0
SOLID
  5
258
100
AcDbEntity
  8
0
100
AcDbTrace
 62
5
  6
CONTINUOUS
 10
177.4871894571
 20
239.3312608871
 11
178.7464487164
 21
239.6275571834
 12
178.7464487164
 22
239.183112739
 13
178.7464487164
 23
239.183112739
  0
SOLID
  5
259
100
AcDbEntity
  8
0
100
AcDbTrace
 62
5
  6
CONTINUOUS
 10
183.7834857534
 20
239.4053349612
 11
182.4501524201
 21
239.1090386649
 12
182.5242264941
 22
239.4794090353
 13
182.5242264941
 23
239.4794090353
  0
SOLID
  5
25A
100
AcDbEntity
  8
0
100
AcDbTrace
 62
5
  6
CONTINUOUS
 10
182.4501524201
 20
239.1090386649
 11
183.7834857534
 21
239.4053349612
 12
183.7094116793
 22
238.8868164427
 13
183.7094116793
 23
238.8868164427
  0
SOLID
  5
25B
100
AcDbEntity
  8
0
100
AcDbTrace
 62
5
  6
CONTINUOUS
 10
183.7094116793
 20
238.8868164427
 11
182.376078346
 21
238.8127423686
 12
182.4501524201
 22
239.1090386649
 13
182.4501524201
 23
239.1090386649
  0
SOLID
  5
25C
100
AcDbEntity
  8
0
100
AcDbTrace
 62
5
  6
CONTINUOUS
 10
182.1538561238
 20
238.4423719983
 11
182.376078346
 21
238.8127423686
 12
183.7094116793
 22
238.8868164427
 13
183.7094116793
 23
238.8868164427
  0
SOLID
  5
25D
100
AcDbEntity
  8
0
100
AcDbTrace
 62
5
  6
CONTINUOUS
 10
182.1538561238
 20
238.4423719983
 11
183.7094116793
 21
238.8868164427
 12
183.4871894571
 22
238.2942238501
 13
183.4871894571
 23
238.2942238501
  0
SOLID
  5
25E
100
AcDbEntity
  8
0
100
AcDbTrace
 62
5
  6
CONTINUOUS
 10
183.4871894571
 20
238.2942238501
 11
181.9316339015
 21
238.0720016279
 12
182.1538561238
 22
238.4423719983
 13
182.1538561238
 23
238.4423719983
  0
SOLID
  5
25F
100
AcDbEntity
  8
0
100
AcDbTrace
 62
5
  6
CONTINUOUS
 10
181.9316339015
 20
238.0720016279
 11
183.4871894571
 21
238.2942238501
 12
183.413115383
 22
237.9979275538
 13
183.413115383
 23
237.9979275538
  0
SOLID
  5
260
100
AcDbEntity
  8
0
100
AcDbTrace
 62
5
  6
CONTINUOUS
 10
183.413115383
 20
237.9979275538
 11
181.7834857534
 21
237.8497794057
 12
181.9316339015
 22
238.0720016279
 13
181.9316339015
 23
238.0720016279
  0
SOLID
  5
261
100
AcDbEntity
  8
0
100
AcDbTrace
 62
5
  6
CONTINUOUS
 10
181.7834857534
 20
237.8497794057
 11
183.413115383
 21
237.9979275538
 12
183.1908931608
 22
237.7016312575
 13
183.1908931608
 23
237.7016312575
  0
SOLID
  5
262
100
AcDbEntity
  8
0
100
AcDbTrace
 62
5
  6
CONTINUOUS
 10
183.1908931608
 20
237.7016312575
 11
181.5612635312
 21
237.6275571834
 12
181.7834857534
 22
237.8497794057
 13
181.7834857534
 23
237.8497794057
  0
SOLID
  5
263
100
AcDbEntity
  8
0
100
AcDbTrace
 62
5
  6
CONTINUOUS
 10
181.3390413089
 20
237.4053400475
 11
181.5612635312
 21
237.6275571834
 12
183.1908931608
 22
237.7016312575
 13
183.1908931608
 23
237.7016312575
  0
SOLID
  5
264
100
AcDbEntity
  8
0
100
AcDbTrace
 62
5
  6
CONTINUOUS
 10
181.3390413089
 20
237.4053400475
 11
183.1908931608
 21
237.7016312575
 12
182.9686709386
 22
237.4053400475
 13
182.9686709386
 23
237.4053400475
  0
SOLID
  5
265
100
AcDbEntity
  8
0
100
AcDbTrace
 62
5
  6
CONTINUOUS
 10
182.9686709386
 20
237.4053400475
 11
181.1168190867
 21
237.183112739
 12
181.3390413089
 22
237.4053400475
 13
181.3390413089
 23
237.4053400475
  0
SOLID
  5
266
100
AcDbEntity
  8
0
100
AcDbTrace
 62
5
  6
CONTINUOUS
 10
181.1168190867
 20
237.183112739
 11
182.9686709386
 21
237.4053400475
 12
182.7464487164
 22
237.0349645909
 13
182.7464487164
 23
237.0349645909
  0
SOLID
  5
267
100
AcDbEntity
  8
0
100
AcDbTrace
 62
5
  6
CONTINUOUS
 10
182.7464487164
 20
237.0349645909
 11
180.8205227904
 21
236.8868164427
 12
181.1168190867
 22
237.183112739
 13
181.1168190867
 23
237.183112739
  0
SOLID
  5
268
100
AcDbEntity
  8
0
100
AcDbTrace
 62
5
  6
CONTINUOUS
 10
180.8205227904
 20
236.8868164427
 11
182.7464487164
 21
237.0349645909
 12
182.4501524201
 22
236.7386682946
 13
182.4501524201
 23
236.7386682946
  0
SOLID
  5
269
100
AcDbEntity
  8
0
100
AcDbTrace
 62
5
  6
CONTINUOUS
 10
182.4501524201
 20
236.7386682946
 11
180.4501524201
 21
236.5905201464
 12
180.8205227904
 22
236.8868164427
 13
180.8205227904
 23
236.8868164427
  0
SOLID
  5
26A
100
AcDbEntity
  8
0
100
AcDbTrace
 62
5
  6
CONTINUOUS
 10
180.1538561238
 20
236.2942198941
 11
180.4501524201
 21
236.5905201464
 12
182.4501524201
 22
236.7386682946
 13
182.4501524201
 23
236.7386682946
  0
SOLID
  5
26B
100
AcDbEntity
  8
0
100
AcDbTrace
 62
5
  6
CONTINUOUS
 10
180.1538561238
 20
236.2942198941
 11
182.4501524201
 21
236.7386682946
 12
182.0057079756
 22
236.2942198941
 13
182.0057079756
 23
236.2942198941
  0
SOLID
  5
26C
100
AcDbEntity
  8
0
100
AcDbTrace
 62
5
  6
CONTINUOUS
 10
182.0057079756
 20
236.2942198941
 11
179.7094116793
 21
235.9238534797
 12
180.1538561238
 22
236.2942198941
 13
180.1538561238
 23
236.2942198941
  0
SOLID
  5
26D
100
AcDbEntity
  8
0
100
AcDbTrace
 62
5
  6
CONTINUOUS
 10
179.7094116793
 20
235.9238534797
 11
182.0057079756
 21
236.2942198941
 12
181.4871894571
 22
235.8497794057
 13
181.4871894571
 23
235.8497794057
  0
SOLID
  5
26E
100
AcDbEntity
  8
0
100
AcDbTrace
 62
5
  6
CONTINUOUS
 10
181.4871894571
 20
235.8497794057
 11
179.2649672349
 21
235.5534831094
 12
179.7094116793
 22
235.9238534797
 13
179.7094116793
 23
235.9238534797
  0
SOLID
  5
26F
100
AcDbEntity
  8
0
100
AcDbTrace
 62
5
  6
CONTINUOUS
 10
179.2649672349
 20
235.5534831094
 11
181.4871894571
 21
235.8497794057
 12
180.8945968645
 22
235.3312608871
 13
180.8945968645
 23
235.3312608871
  0
SOLID
  5
270
100
AcDbEntity
  8
0
100
AcDbTrace
 62
5
  6
CONTINUOUS
 10
180.8945968645
 20
235.3312608871
 11
178.8205227904
 21
235.1090386649
 12
179.2649672349
 22
235.5534831094
 13
179.2649672349
 23
235.5534831094
  0
SOLID
  5
271
100
AcDbEntity
  8
0
100
AcDbTrace
 62
5
  6
CONTINUOUS
 10
178.8205227904
 20
235.1090386649
 11
180.8945968645
 21
235.3312608871
 12
180.4501524201
 22
234.8868164427
 13
180.4501524201
 23
234.8868164427
  0
SOLID
  5
272
100
AcDbEntity
  8
0
100
AcDbTrace
 62
5
  6
CONTINUOUS
 10
180.4501524201
 20
234.8868164427
 11
178.4501524201
 21
234.7386682946
 12
178.8205227904
 22
235.1090386649
 13
178.8205227904
 23
235.1090386649
  0
SOLID
  5
273
100
AcDbEntity
  8
0
100
AcDbTrace
 62
5
  6
CONTINUOUS
 10
178.4501524201
 20
234.7386682946
 11
180.4501524201
 21
234.8868164427
 12
180.0057079756
 22
234.5905201464
 13
180.0057079756
 23
234.5905201464
  0
SOLID
  5
274
100
AcDbEntity
  8
0
100
AcDbTrace
 62
5
  6
CONTINUOUS
 10
180.0057079756
 20
234.5905201464
 11
178.1538561238
 21
234.4423719983
 12
178.4501524201
 22
234.7386682946
 13
178.4501524201
 23
234.7386682946
  0
SOLID
  5
275
100
AcDbEntity
  8
0
100
AcDbTrace
 62
5
  6
CONTINUOUS
 10
178.1538561238
 20
234.4423719983
 11
180.0057079756
 21
234.5905201464
 12
179.7094116793
 22
234.2942238501
 13
179.7094116793
 23
234.2942238501
  0
SOLID
  5
276
100
AcDbEntity
  8
0
100
AcDbTrace
 62
5
  6
CONTINUOUS
 10
179.7094116793
 20
234.2942238501
 11
179.4871894571
 21
234.0720016279
 12
177.7094116793
 22
233.7757097114
 13
177.7094116793
 23
233.7757097114
  0
SOLID
  5
277
100
AcDbEntity
  8
0
100
AcDbTrace
 62
5
  6
CONTINUOUS
 10
179.7094116793
 20
234.2942238501
 11
177.7094116793
 21
233.7757097114
 12
178.1538561238
 22
234.4423719983
 13
178.1538561238
 23
234.4423719983
  0
SOLID
  5
278
100
AcDbEntity
  8
0
100
AcDbTrace
 62
5
  6
CONTINUOUS
 10
177.7094116793
 20
233.7757097114
 11
179.4871894571
 21
234.0720016279
 12
179.1908931608
 22
233.7757097114
 13
179.1908931608
 23
233.7757097114
  0
SOLID
  5
279
100
AcDbEntity
  8
0
100
AcDbTrace
 62
5
  6
CONTINUOUS
 10
178.9686709386
 20
233.4794097417
 11
183.8575598275
 21
233.4794097417
 12
177.413115383
 22
233.0349645909
 13
177.413115383
 23
233.0349645909
  0
SOLID
  5
27A
100
AcDbEntity
  8
0
100
AcDbTrace
 62
5
  6
CONTINUOUS
 10
179.1908931608
 20
233.7757097114
 11
178.9686709386
 21
233.4794097417
 12
177.413115383
 22
233.0349645909
 13
177.413115383
 23
233.0349645909
  0
SOLID
  5
27B
100
AcDbEntity
  8
0
100
AcDbTrace
 62
5
  6
CONTINUOUS
 10
179.1908931608
 20
233.7757097114
 11
177.413115383
 21
233.0349645909
 12
177.7094116793
 22
233.7757097114
 13
177.7094116793
 23
233.7757097114
  0
SOLID
  5
27C
100
AcDbEntity
  8
0
100
AcDbTrace
 62
5
  6
CONTINUOUS
 10
177.3390413089
 20
232.6645942205
 11
177.413115383
 21
233.0349645909
 12
183.8575598275
 22
233.4794097417
 13
183.8575598275
 23
233.4794097417
  0
SOLID
  5
27D
100
AcDbEntity
  8
0
100
AcDbTrace
 62
5
  6
CONTINUOUS
 10
177.3390413089
 20
232.220149776
 11
177.3390413089
 21
232.6645942205
 12
183.8575598275
 22
233.4794097417
 13
183.8575598275
 23
233.4794097417
  0
SOLID
  5
27E
100
AcDbEntity
  8
0
100
AcDbTrace
 62
5
  6
CONTINUOUS
 10
177.3390413089
 20
232.220149776
 11
183.8575598275
 21
233.4794097417
 12
183.8575598275
 22
232.220149776
 13
183.8575598275
 23
232.220149776
  0
SOLID
  5
27F
100
AcDbEntity
  8
0
100
AcDbTrace
 62
5
  6
CONTINUOUS
 10
187.3390413089
 20
240.8127395429
 11
191.1908931608
 21
242.0719993673
 12
191.1908931608
 22
240.8127395429
 13
191.1908931608
 23
240.8127395429
  0
SOLID
  5
280
100
AcDbEntity
  8
0
100
AcDbTrace
 62
5
  6
CONTINUOUS
 10
188.1538561238
 20
238.8127395429
 11
188.6723746423
 21
238.8868164427
 12
189.2649672349
 22
238.8127395429
 13
189.2649672349
 23
238.8127395429
  0
SOLID
  5
281
100
AcDbEntity
  8
0
100
AcDbTrace
 62
5
  6
CONTINUOUS
 10
189.2649672349
 20
238.8127395429
 11
187.7094116793
 21
238.6645942205
 12
188.1538561238
 22
238.8127395429
 13
188.1538561238
 23
238.8127395429
  0
SOLID
  5
282
100
AcDbEntity
  8
0
100
AcDbTrace
 62
5
  6
CONTINUOUS
 10
187.7094116793
 20
238.6645942205
 11
189.2649672349
 21
238.8127395429
 12
189.8575598275
 22
238.5905201464
 13
189.8575598275
 23
238.5905201464
  0
SOLID
  5
283
100
AcDbEntity
  8
0
100
AcDbTrace
 62
5
  6
CONTINUOUS
 10
189.8575598275
 20
238.5905201464
 11
187.2649672349
 21
238.4423719983
 12
187.7094116793
 22
238.6645942205
 13
187.7094116793
 23
238.6645942205
  0
SOLID
  5
284
100
AcDbEntity
  8
0
100
AcDbTrace
 62
5
  6
CONTINUOUS
 10
187.2649672349
 20
238.4423719983
 11
189.8575598275
 21
238.5905201464
 12
190.3020042719
 22
238.3682979242
 13
190.3020042719
 23
238.3682979242
  0
SOLID
  5
285
100
AcDbEntity
  8
0
100
AcDbTrace
 62
5
  6
CONTINUOUS
 10
190.3020042719
 20
238.3682979242
 11
186.8205227904
 21
238.146075702
 12
187.2649672349
 22
238.4423719983
 13
187.2649672349
 23
238.4423719983
  0
SOLID
  5
286
100
AcDbEntity
  8
0
100
AcDbTrace
 62
5
  6
CONTINUOUS
 10
186.8205227904
 20
238.146075702
 11
190.3020042719
 21
238.3682979242
 12
190.8205227904
 22
237.9238534797
 13
190.8205227904
 23
237.9238534797
  0
SOLID
  5
287
100
AcDbEntity
  8
0
100
AcDbTrace
 62
5
  6
CONTINUOUS
 10
187.7834857534
 20
237.6275600091
 11
188.376078346
 21
237.7016312575
 12
188.0797820497
 22
237.6275600091
 13
188.0797820497
 23
237.6275600091
  0
SOLID
  5
288
100
AcDbEntity
  8
0
100
AcDbTrace
 62
5
  6
CONTINUOUS
 10
188.8205227904
 20
237.6275600091
 11
188.376078346
 21
237.7016312575
 12
190.8205227904
 22
237.9238534797
 13
190.8205227904
 23
237.9238534797
  0
SOLID
  5
289
100
AcDbEntity
  8
0
100
AcDbTrace
 62
5
  6
CONTINUOUS
 10
189.2649672349
 20
237.5534797185
 11
188.8205227904
 21
237.6275600091
 12
190.8205227904
 22
237.9238534797
 13
190.8205227904
 23
237.9238534797
  0
SOLID
  5
28A
100
AcDbEntity
  8
0
100
AcDbTrace
 62
5
  6
CONTINUOUS
 10
189.2649672349
 20
237.5534797185
 11
190.8205227904
 21
237.9238534797
 12
191.1908931608
 22
237.4794090353
 13
191.1908931608
 23
237.4794090353
  0
SOLID
  5
28B
100
AcDbEntity
  8
0
100
AcDbTrace
 62
5
  6
CONTINUOUS
 10
191.1908931608
 20
237.4794090353
 11
189.5612635312
 21
237.3312608871
 12
189.2649672349
 22
237.5534797185
 13
189.2649672349
 23
237.5534797185
  0
SOLID
  5
28C
100
AcDbEntity
  8
0
100
AcDbTrace
 62
5
  6
CONTINUOUS
 10
187.3390413089
 20
237.4053349612
 11
186.9686709386
 21
237.1090397952
 12
185.413115383
 22
236.9608905168
 13
185.413115383
 23
236.9608905168
  0
SOLID
  5
28D
100
AcDbEntity
  8
0
100
AcDbTrace
 62
5
  6
CONTINUOUS
 10
187.5612635312
 20
237.5534797185
 11
187.3390413089
 21
237.4053349612
 12
185.413115383
 22
236.9608905168
 13
185.413115383
 23
236.9608905168
  0
SOLID
  5
28E
100
AcDbEntity
  8
0
100
AcDbTrace
 62
5
  6
CONTINUOUS
 10
187.7834857534
 20
237.6275600091
 11
187.5612635312
 21
237.5534797185
 12
185.413115383
 22
236.9608905168
 13
185.413115383
 23
236.9608905168
  0
SOLID
  5
28F
100
AcDbEntity
  8
0
100
AcDbTrace
 62
5
  6
CONTINUOUS
 10
186.8205227904
 20
238.146075702
 11
190.8205227904
 21
237.9238534797
 12
188.376078346
 22
237.7016312575
 13
188.376078346
 23
237.7016312575
  0
SOLID
  5
290
100
AcDbEntity
  8
0
100
AcDbTrace
 62
5
  6
CONTINUOUS
 10
186.8205227904
 20
238.146075702
 11
188.376078346
 21
237.7016312575
 12
187.7834857534
 22
237.6275600091
 13
187.7834857534
 23
237.6275600091
  0
SOLID
  5
291
100
AcDbEntity
  8
0
100
AcDbTrace
 62
5
  6
CONTINUOUS
 10
186.8205227904
 20
238.146075702
 11
187.7834857534
 21
237.6275600091
 12
185.413115383
 22
236.9608905168
 13
185.413115383
 23
236.9608905168
  0
SOLID
  5
292
100
AcDbEntity
  8
0
100
AcDbTrace
 62
5
  6
CONTINUOUS
 10
187.3390413089
 20
240.8127395429
 11
186.8205227904
 21
238.146075702
 12
185.413115383
 22
236.9608905168
 13
185.413115383
 23
236.9608905168
  0
SOLID
  5
293
100
AcDbEntity
  8
0
100
AcDbTrace
 62
5
  6
CONTINUOUS
 10
186.4501524201
 20
242.0719993673
 11
191.1908931608
 21
242.0719993673
 12
187.3390413089
 22
240.8127395429
 13
187.3390413089
 23
240.8127395429
  0
SOLID
  5
294
100
AcDbEntity
  8
0
100
AcDbTrace
 62
5
  6
CONTINUOUS
 10
187.3390413089
 20
240.8127395429
 11
185.413115383
 21
236.9608905168
 12
186.4501524201
 22
242.0719993673
 13
186.4501524201
 23
242.0719993673
  0
SOLID
  5
295
100
AcDbEntity
  8
0
100
AcDbTrace
 62
5
  6
CONTINUOUS
 10
189.8575598275
 20
237.1090397952
 11
189.5612635312
 21
237.3312608871
 12
191.1908931608
 22
237.4794090353
 13
191.1908931608
 23
237.4794090353
  0
SOLID
  5
296
100
AcDbEntity
  8
0
100
AcDbTrace
 62
5
  6
CONTINUOUS
 10
189.8575598275
 20
237.1090397952
 11
191.1908931608
 21
237.4794090353
 12
191.4871894571
 22
236.8868164427
 13
191.4871894571
 23
236.8868164427
  0
SOLID
  5
297
100
AcDbEntity
  8
0
100
AcDbTrace
 62
5
  6
CONTINUOUS
 10
185.413115383
 20
236.9608905168
 11
186.9686709386
 21
237.1090397952
 12
186.6723746423
 22
236.8127423686
 13
186.6723746423
 23
236.8127423686
  0
SOLID
  5
298
100
AcDbEntity
  8
0
100
AcDbTrace
 62
5
  6
CONTINUOUS
 10
191.4871894571
 20
236.8868164427
 11
190.0797820497
 21
236.7386682946
 12
189.8575598275
 22
237.1090397952
 13
189.8575598275
 23
237.1090397952
  0
SOLID
  5
299
100
AcDbEntity
  8
0
100
AcDbTrace
 62
5
  6
CONTINUOUS
 10
190.3020042719
 20
236.3682979242
 11
190.0797820497
 21
236.7386682946
 12
191.4871894571
 22
236.8868164427
 13
191.4871894571
 23
236.8868164427
  0
SOLID
  5
29A
100
AcDbEntity
  8
0
100
AcDbTrace
 62
5
  6
CONTINUOUS
 10
190.3020042719
 20
236.3682979242
 11
191.4871894571
 21
236.8868164427
 12
191.6353376052
 22
236.2942238501
 13
191.6353376052
 23
236.2942238501
  0
SOLID
  5
29B
100
AcDbEntity
  8
0
100
AcDbTrace
 62
5
  6
CONTINUOUS
 10
191.6353376052
 20
236.2942238501
 11
190.376078346
 21
235.9238534797
 12
190.3020042719
 22
236.3682979242
 13
190.3020042719
 23
236.3682979242
  0
SOLID
  5
29C
100
AcDbEntity
  8
0
100
AcDbTrace
 62
5
  6
CONTINUOUS
 10
190.376078346
 20
235.9238534797
 11
191.6353376052
 21
236.2942238501
 12
191.7094116793
 22
235.6275571834
 13
191.7094116793
 23
235.6275571834
  0
SOLID
  5
29D
100
AcDbEntity
  8
0
100
AcDbTrace
 62
5
  6
CONTINUOUS
 10
191.7094116793
 20
235.6275571834
 11
190.4501524201
 21
235.4794090353
 12
190.376078346
 22
235.9238534797
 13
190.376078346
 23
235.9238534797
  0
SOLID
  5
29E
100
AcDbEntity
  8
0
100
AcDbTrace
 62
5
  6
CONTINUOUS
 10
190.376078346
 20
234.9608896691
 11
190.4501524201
 21
235.4794090353
 12
191.7094116793
 22
235.6275571834
 13
191.7094116793
 23
235.6275571834
  0
SOLID
  5
29F
100
AcDbEntity
  8
0
100
AcDbTrace
 62
5
  6
CONTINUOUS
 10
190.376078346
 20
234.9608896691
 11
191.7094116793
 21
235.6275571834
 12
191.6353376052
 22
234.9608896691
 13
191.6353376052
 23
234.9608896691
  0
SOLID
  5
2A0
100
AcDbEntity
  8
0
100
AcDbTrace
 62
5
  6
CONTINUOUS
 10
185.2649672349
 20
234.8868164427
 11
186.5242264941
 21
234.9608896691
 12
186.5983005682
 22
234.5164497457
 13
186.5983005682
 23
234.5164497457
  0
SOLID
  5
2A1
100
AcDbEntity
  8
0
100
AcDbTrace
 62
5
  6
CONTINUOUS
 10
191.6353376052
 20
234.9608896691
 11
190.3020042719
 21
234.5164497457
 12
190.376078346
 22
234.9608896691
 13
190.376078346
 23
234.9608896691
  0
SOLID
  5
2A2
100
AcDbEntity
  8
0
100
AcDbTrace
 62
5
  6
CONTINUOUS
 10
190.3020042719
 20
234.5164497457
 11
191.6353376052
 21
234.9608896691
 12
191.4871894571
 22
234.3682979242
 13
191.4871894571
 23
234.3682979242
  0
SOLID
  5
2A3
100
AcDbEntity
  8
0
100
AcDbTrace
 62
5
  6
CONTINUOUS
 10
186.5983005682
 20
234.5164497457
 11
185.3390413089
 21
234.220149776
 12
185.2649672349
 22
234.8868164427
 13
185.2649672349
 23
234.8868164427
  0
SOLID
  5
2A4
100
AcDbEntity
  8
0
100
AcDbTrace
 62
5
  6
CONTINUOUS
 10
185.3390413089
 20
234.220149776
 11
186.5983005682
 21
234.5164497457
 12
186.7464487164
 22
234.146075702
 13
186.7464487164
 23
234.146075702
  0
SOLID
  5
2A5
100
AcDbEntity
  8
0
100
AcDbTrace
 62
5
  6
CONTINUOUS
 10
191.4871894571
 20
234.3682979242
 11
190.0797820497
 21
234.0720016279
 12
190.3020042719
 22
234.5164497457
 13
190.3020042719
 23
234.5164497457
  0
SOLID
  5
2A6
100
AcDbEntity
  8
0
100
AcDbTrace
 62
5
  6
CONTINUOUS
 10
190.0797820497
 20
234.0720016279
 11
191.4871894571
 21
234.3682979242
 12
191.2649672349
 22
233.7757097114
 13
191.2649672349
 23
233.7757097114
  0
SOLID
  5
2A7
100
AcDbEntity
  8
0
100
AcDbTrace
 62
5
  6
CONTINUOUS
 10
186.7464487164
 20
234.146075702
 11
186.8945968645
 21
233.7757097114
 12
185.5612635312
 22
233.7016298447
 13
185.5612635312
 23
233.7016298447
  0
SOLID
  5
2A8
100
AcDbEntity
  8
0
100
AcDbTrace
 62
5
  6
CONTINUOUS
 10
186.7464487164
 20
234.146075702
 11
185.5612635312
 21
233.7016298447
 12
185.3390413089
 22
234.220149776
 13
185.3390413089
 23
234.220149776
  0
SOLID
  5
2A9
100
AcDbEntity
  8
0
100
AcDbTrace
 62
5
  6
CONTINUOUS
 10
191.2649672349
 20
233.7757097114
 11
189.8575598275
 21
233.7016298447
 12
190.0797820497
 22
234.0720016279
 13
190.0797820497
 23
234.0720016279
  0
SOLID
  5
2AA
100
AcDbEntity
  8
0
100
AcDbTrace
 62
5
  6
CONTINUOUS
 10
185.5612635312
 20
233.7016298447
 11
186.8945968645
 21
233.7757097114
 12
187.1168190867
 22
233.5534831094
 13
187.1168190867
 23
233.5534831094
  0
SOLID
  5
2AB
100
AcDbEntity
  8
0
100
AcDbTrace
 62
5
  6
CONTINUOUS
 10
187.1168190867
 20
233.5534831094
 11
187.413115383
 21
233.3312608871
 12
185.7834857534
 22
233.2571897801
 13
185.7834857534
 23
233.2571897801
  0
SOLID
  5
2AC
100
AcDbEntity
  8
0
100
AcDbTrace
 62
5
  6
CONTINUOUS
 10
187.1168190867
 20
233.5534831094
 11
185.7834857534
 21
233.2571897801
 12
185.5612635312
 22
233.7016298447
 13
185.5612635312
 23
233.7016298447
  0
SOLID
  5
2AD
100
AcDbEntity
  8
0
100
AcDbTrace
 62
5
  6
CONTINUOUS
 10
189.5612635312
 20
233.4053349612
 11
189.8575598275
 21
233.7016298447
 12
191.2649672349
 22
233.7757097114
 13
191.2649672349
 23
233.7757097114
  0
SOLID
  5
2AE
100
AcDbEntity
  8
0
100
AcDbTrace
 62
5
  6
CONTINUOUS
 10
189.1908931608
 20
233.2571897801
 11
189.5612635312
 21
233.4053349612
 12
191.2649672349
 22
233.7757097114
 13
191.2649672349
 23
233.7757097114
  0
SOLID
  5
2AF
100
AcDbEntity
  8
0
100
AcDbTrace
 62
5
  6
CONTINUOUS
 10
189.1908931608
 20
233.2571897801
 11
191.2649672349
 21
233.7757097114
 12
190.8945968645
 22
233.2571897801
 13
190.8945968645
 23
233.2571897801
  0
SOLID
  5
2B0
100
AcDbEntity
  8
0
100
AcDbTrace
 62
5
  6
CONTINUOUS
 10
185.7834857534
 20
233.2571897801
 11
187.413115383
 21
233.3312608871
 12
187.6353376052
 22
233.183112739
 13
187.6353376052
 23
233.183112739
  0
SOLID
  5
2B1
100
AcDbEntity
  8
0
100
AcDbTrace
 62
5
  6
CONTINUOUS
 10
190.8945968645
 20
233.2571897801
 11
188.8205227904
 21
233.1090397952
 12
189.1908931608
 22
233.2571897801
 13
189.1908931608
 23
233.2571897801
  0
SOLID
  5
2B2
100
AcDbEntity
  8
0
100
AcDbTrace
 62
5
  6
CONTINUOUS
 10
188.8205227904
 20
233.1090397952
 11
190.8945968645
 21
233.2571897801
 12
190.6723746423
 22
232.9608905168
 13
190.6723746423
 23
232.9608905168
  0
SOLID
  5
2B3
100
AcDbEntity
  8
0
100
AcDbTrace
 62
5
  6
CONTINUOUS
 10
188.8205227904
 20
233.1090397952
 11
190.6723746423
 21
232.9608905168
 12
186.1538561238
 22
232.8127423686
 13
186.1538561238
 23
232.8127423686
  0
SOLID
  5
2B4
100
AcDbEntity
  8
0
100
AcDbTrace
 62
5
  6
CONTINUOUS
 10
188.376078346
 20
233.1090397952
 11
188.8205227904
 21
233.1090397952
 12
186.1538561238
 22
232.8127423686
 13
186.1538561238
 23
232.8127423686
  0
SOLID
  5
2B5
100
AcDbEntity
  8
0
100
AcDbTrace
 62
5
  6
CONTINUOUS
 10
188.0057079756
 20
233.1090397952
 11
188.376078346
 21
233.1090397952
 12
186.1538561238
 22
232.8127423686
 13
186.1538561238
 23
232.8127423686
  0
SOLID
  5
2B6
100
AcDbEntity
  8
0
100
AcDbTrace
 62
5
  6
CONTINUOUS
 10
187.6353376052
 20
233.183112739
 11
188.0057079756
 21
233.1090397952
 12
186.1538561238
 22
232.8127423686
 13
186.1538561238
 23
232.8127423686
  0
SOLID
  5
2B7
100
AcDbEntity
  8
0
100
AcDbTrace
 62
5
  6
CONTINUOUS
 10
187.6353376052
 20
233.183112739
 11
186.1538561238
 21
232.8127423686
 12
185.7834857534
 22
233.2571897801
 13
185.7834857534
 23
233.2571897801
  0
SOLID
  5
2B8
100
AcDbEntity
  8
0
100
AcDbTrace
 62
5
  6
CONTINUOUS
 10
186.1538561238
 20
232.8127423686
 11
190.6723746423
 21
232.9608905168
 12
190.376078346
 22
232.7386682946
 13
190.376078346
 23
232.7386682946
  0
SOLID
  5
2B9
100
AcDbEntity
  8
0
100
AcDbTrace
 62
5
  6
CONTINUOUS
 10
190.376078346
 20
232.7386682946
 11
190.0797820497
 21
232.5164460723
 12
186.6723746423
 22
232.4423719983
 13
186.6723746423
 23
232.4423719983
  0
SOLID
  5
2BA
100
AcDbEntity
  8
0
100
AcDbTrace
 62
5
  6
CONTINUOUS
 10
190.376078346
 20
232.7386682946
 11
186.6723746423
 21
232.4423719983
 12
186.1538561238
 22
232.8127423686
 13
186.1538561238
 23
232.8127423686
  0
SOLID
  5
2BB
100
AcDbEntity
  8
0
100
AcDbTrace
 62
5
  6
CONTINUOUS
 10
186.6723746423
 20
232.4423719983
 11
190.0797820497
 21
232.5164460723
 12
189.7834857534
 22
232.3682979242
 13
189.7834857534
 23
232.3682979242
  0
SOLID
  5
2BC
100
AcDbEntity
  8
0
100
AcDbTrace
 62
5
  6
CONTINUOUS
 10
189.7834857534
 20
232.3682979242
 11
187.1168190867
 21
232.220149776
 12
186.6723746423
 22
232.4423719983
 13
186.6723746423
 23
232.4423719983
  0
SOLID
  5
2BD
100
AcDbEntity
  8
0
100
AcDbTrace
 62
5
  6
CONTINUOUS
 10
189.1168190867
 20
232.220149776
 11
187.1168190867
 21
232.220149776
 12
189.7834857534
 22
232.3682979242
 13
189.7834857534
 23
232.3682979242
  0
SOLID
  5
2BE
100
AcDbEntity
  8
0
100
AcDbTrace
 62
5
  6
CONTINUOUS
 10
189.1168190867
 20
232.220149776
 11
189.7834857534
 21
232.3682979242
 12
189.4871894571
 22
232.220149776
 13
189.4871894571
 23
232.220149776
  0
SOLID
  5
2BF
100
AcDbEntity
  8
0
100
AcDbTrace
 62
5
  6
CONTINUOUS
 10
189.1168190867
 20
232.220149776
 11
187.7094116793
 21
232.1460797772
 12
187.1168190867
 22
232.220149776
 13
187.1168190867
 23
232.220149776
  0
SOLID
  5
2C0
100
AcDbEntity
  8
0
100
AcDbTrace
 62
5
  6
CONTINUOUS
 10
187.7094116793
 20
232.1460797772
 11
189.1168190867
 21
232.220149776
 12
188.7464487164
 22
232.1460797772
 13
188.7464487164
 23
232.1460797772
  0
SOLID
  5
2C1
100
AcDbEntity
  8
0
100
AcDbTrace
 62
5
  6
CONTINUOUS
 10
188.7464487164
 20
232.1460797772
 11
188.376078346
 21
232.0720016279
 12
187.7094116793
 22
232.1460797772
 13
187.7094116793
 23
232.1460797772
  0
SOLID
  5
2C2
100
AcDbEntity
  8
0
100
AcDbTrace
 62
5
  6
CONTINUOUS
 10
195.6353376052
 20
242.1460734414
 11
196.1538561238
 21
242.220149776
 12
196.5242264941
 22
242.1460734414
 13
196.5242264941
 23
242.1460734414
  0
SOLID
  5
2C3
100
AcDbEntity
  8
0
100
AcDbTrace
 62
5
  6
CONTINUOUS
 10
196.5242264941
 20
242.1460734414
 11
195.1908931608
 21
242.0720027582
 12
195.6353376052
 22
242.1460734414
 13
195.6353376052
 23
242.1460734414
  0
SOLID
  5
2C4
100
AcDbEntity
  8
0
100
AcDbTrace
 62
5
  6
CONTINUOUS
 10
195.1908931608
 20
242.0720027582
 11
196.5242264941
 21
242.1460734414
 12
196.8945968645
 22
242.0720027582
 13
196.8945968645
 23
242.0720027582
  0
SOLID
  5
2C5
100
AcDbEntity
  8
0
100
AcDbTrace
 62
5
  6
CONTINUOUS
 10
196.8945968645
 20
242.0720027582
 11
197.2649672349
 21
241.9979275538
 12
194.7464487164
 22
241.8497782754
 13
194.7464487164
 23
241.8497782754
  0
SOLID
  5
2C6
100
AcDbEntity
  8
0
100
AcDbTrace
 62
5
  6
CONTINUOUS
 10
196.8945968645
 20
242.0720027582
 11
194.7464487164
 21
241.8497782754
 12
195.1908931608
 22
242.0720027582
 13
195.1908931608
 23
242.0720027582
  0
SOLID
  5
2C7
100
AcDbEntity
  8
0
100
AcDbTrace
 62
5
  6
CONTINUOUS
 10
194.7464487164
 20
241.8497782754
 11
197.2649672349
 21
241.9979275538
 12
197.5612635312
 22
241.8497782754
 13
197.5612635312
 23
241.8497782754
  0
SOLID
  5
2C8
100
AcDbEntity
  8
0
100
AcDbTrace
 62
5
  6
CONTINUOUS
 10
197.5612635312
 20
241.8497782754
 11
197.8575598275
 21
241.7016312575
 12
194.376078346
 22
241.6275571834
 13
194.376078346
 23
241.6275571834
  0
SOLID
  5
2C9
100
AcDbEntity
  8
0
100
AcDbTrace
 62
5
  6
CONTINUOUS
 10
197.5612635312
 20
241.8497782754
 11
194.376078346
 21
241.6275571834
 12
194.7464487164
 22
241.8497782754
 13
194.7464487164
 23
241.8497782754
  0
SOLID
  5
2CA
100
AcDbEntity
  8
0
100
AcDbTrace
 62
5
  6
CONTINUOUS
 10
194.376078346
 20
241.6275571834
 11
197.8575598275
 21
241.7016312575
 12
198.1538561238
 22
241.4794090353
 13
198.1538561238
 23
241.4794090353
  0
SOLID
  5
2CB
100
AcDbEntity
  8
0
100
AcDbTrace
 62
5
  6
CONTINUOUS
 10
198.1538561238
 20
241.4794090353
 11
194.0057079756
 21
241.3312608871
 12
194.376078346
 22
241.6275571834
 13
194.376078346
 23
241.6275571834
  0
SOLID
  5
2CC
100
AcDbEntity
  8
0
100
AcDbTrace
 62
5
  6
CONTINUOUS
 10
196.1538561238
 20
241.1831161298
 11
194.0057079756
 21
241.3312608871
 12
198.1538561238
 22
241.4794090353
 13
198.1538561238
 23
241.4794090353
  0
SOLID
  5
2CD
100
AcDbEntity
  8
0
100
AcDbTrace
 62
5
  6
CONTINUOUS
 10
196.1538561238
 20
241.1831161298
 11
198.1538561238
 21
241.4794090353
 12
198.376078346
 22
241.1831161298
 13
198.376078346
 23
241.1831161298
  0
SOLID
  5
2CE
100
AcDbEntity
  8
0
100
AcDbTrace
 62
5
  6
CONTINUOUS
 10
198.376078346
 20
241.1831161298
 11
196.5242264941
 21
241.1090347089
 12
196.1538561238
 22
241.1831161298
 13
196.1538561238
 23
241.1831161298
  0
SOLID
  5
2CF
100
AcDbEntity
  8
0
100
AcDbTrace
 62
5
  6
CONTINUOUS
 10
196.8945968645
 20
240.9608916471
 11
196.5242264941
 21
241.1090347089
 12
198.376078346
 22
241.1831161298
 13
198.376078346
 23
241.1831161298
  0
SOLID
  5
2D0
100
AcDbEntity
  8
0
100
AcDbTrace
 62
5
  6
CONTINUOUS
 10
196.8945968645
 20
240.9608916471
 11
198.376078346
 21
241.1831161298
 12
198.5242264941
 22
240.9608916471
 13
198.5242264941
 23
240.9608916471
  0
SOLID
  5
2D1
100
AcDbEntity
  8
0
100
AcDbTrace
 62
5
  6
CONTINUOUS
 10
195.7094116793
 20
241.1090347089
 11
195.413115383
 21
240.9608916471
 12
193.7094116793
 22
240.8868164427
 13
193.7094116793
 23
240.8868164427
  0
SOLID
  5
2D2
100
AcDbEntity
  8
0
100
AcDbTrace
 62
5
  6
CONTINUOUS
 10
196.1538561238
 20
241.1831161298
 11
195.7094116793
 21
241.1090347089
 12
193.7094116793
 22
240.8868164427
 13
193.7094116793
 23
240.8868164427
  0
SOLID
  5
2D3
100
AcDbEntity
  8
0
100
AcDbTrace
 62
5
  6
CONTINUOUS
 10
196.1538561238
 20
241.1831161298
 11
193.7094116793
 21
240.8868164427
 12
194.0057079756
 22
241.3312608871
 13
194.0057079756
 23
241.3312608871
  0
SOLID
  5
2D4
100
AcDbEntity
  8
0
100
AcDbTrace
 62
5
  6
CONTINUOUS
 10
193.7094116793
 20
240.8868164427
 11
195.413115383
 21
240.9608916471
 12
195.0427450126
 22
240.7386682946
 13
195.0427450126
 23
240.7386682946
  0
SOLID
  5
2D5
100
AcDbEntity
  8
0
100
AcDbTrace
 62
5
  6
CONTINUOUS
 10
198.5242264941
 20
240.9608916471
 11
197.2649672349
 21
240.6645942205
 12
196.8945968645
 22
240.9608916471
 13
196.8945968645
 23
240.9608916471
  0
SOLID
  5
2D6
100
AcDbEntity
  8
0
100
AcDbTrace
 62
5
  6
CONTINUOUS
 10
197.2649672349
 20
240.6645942205
 11
198.5242264941
 21
240.9608916471
 12
198.7464487164
 22
240.5905201464
 13
198.7464487164
 23
240.5905201464
  0
SOLID
  5
2D7
100
AcDbEntity
  8
0
100
AcDbTrace
 62
5
  6
CONTINUOUS
 10
195.0427450126
 20
240.7386682946
 11
193.4871894571
 21
240.4423719983
 12
193.7094116793
 22
240.8868164427
 13
193.7094116793
 23
240.8868164427
  0
SOLID
  5
2D8
100
AcDbEntity
  8
0
100
AcDbTrace
 62
5
  6
CONTINUOUS
 10
193.4871894571
 20
240.4423719983
 11
195.0427450126
 21
240.7386682946
 12
194.8205227904
 22
240.4423719983
 13
194.8205227904
 23
240.4423719983
  0
SOLID
  5
2D9
100
AcDbEntity
  8
0
100
AcDbTrace
 62
5
  6
CONTINUOUS
 10
198.7464487164
 20
240.5905201464
 11
197.5612635312
 21
240.3682979242
 12
197.2649672349
 22
240.6645942205
 13
197.2649672349
 23
240.6645942205
  0
SOLID
  5
2DA
100
AcDbEntity
  8
0
100
AcDbTrace
 62
5
  6
CONTINUOUS
 10
197.5612635312
 20
240.3682979242
 11
198.7464487164
 21
240.5905201464
 12
198.8945968645
 22
240.2942238501
 13
198.8945968645
 23
240.2942238501
  0
SOLID
  5
2DB
100
AcDbEntity
  8
0
100
AcDbTrace
 62
5
  6
CONTINUOUS
 10
198.8945968645
 20
240.2942238501
 11
197.7094116793
 21
240.146075702
 12
197.5612635312
 22
240.3682979242
 13
197.5612635312
 23
240.3682979242
  0
SOLID
  5
2DC
100
AcDbEntity
  8
0
100
AcDbTrace
 62
5
  6
CONTINUOUS
 10
194.8205227904
 20
240.4423719983
 11
194.6723746423
 21
240.220149776
 12
193.2649672349
 22
239.9979275538
 13
193.2649672349
 23
239.9979275538
  0
SOLID
  5
2DD
100
AcDbEntity
  8
0
100
AcDbTrace
 62
5
  6
CONTINUOUS
 10
194.8205227904
 20
240.4423719983
 11
193.2649672349
 21
239.9979275538
 12
193.4871894571
 22
240.4423719983
 13
193.4871894571
 23
240.4423719983
  0
SOLID
  5
2DE
100
AcDbEntity
  8
0
100
AcDbTrace
 62
5
  6
CONTINUOUS
 10
193.2649672349
 20
239.9979275538
 11
194.6723746423
 21
240.220149776
 12
194.5242264941
 22
239.9238534797
 13
194.5242264941
 23
239.9238534797
  0
SOLID
  5
2DF
100
AcDbEntity
  8
0
100
AcDbTrace
 62
5
  6
CONTINUOUS
 10
197.7834857534
 20
239.8497811011
 11
197.7094116793
 21
240.146075702
 12
198.8945968645
 22
240.2942238501
 13
198.8945968645
 23
240.2942238501
  0
SOLID
  5
2E0
100
AcDbEntity
  8
0
100
AcDbTrace
 62
5
  6
CONTINUOUS
 10
197.7834857534
 20
239.8497811011
 11
198.8945968645
 21
240.2942238501
 12
199.0427450126
 22
239.8497811011
 13
199.0427450126
 23
239.8497811011
  0
SOLID
  5
2E1
100
AcDbEntity
  8
0
100
AcDbTrace
 62
5
  6
CONTINUOUS
 10
199.0427450126
 20
239.8497811011
 11
197.9316339015
 21
239.4794045142
 12
197.7834857534
 22
239.8497811011
 13
197.7834857534
 23
239.8497811011
  0
SOLID
  5
2E2
100
AcDbEntity
  8
0
100
AcDbTrace
 62
5
  6
CONTINUOUS
 10
197.9316339015
 20
239.4794045142
 11
199.0427450126
 21
239.8497811011
 12
199.1908931608
 22
239.4794045142
 13
199.1908931608
 23
239.4794045142
  0
SOLID
  5
2E3
100
AcDbEntity
  8
0
100
AcDbTrace
 62
5
  6
CONTINUOUS
 10
194.5242264941
 20
239.9238534797
 11
194.4501524201
 21
239.5534831094
 12
193.1168190867
 22
239.4053349612
 13
193.1168190867
 23
239.4053349612
  0
SOLID
  5
2E4
100
AcDbEntity
  8
0
100
AcDbTrace
 62
5
  6
CONTINUOUS
 10
194.5242264941
 20
239.9238534797
 11
193.1168190867
 21
239.4053349612
 12
193.2649672349
 22
239.9979275538
 13
193.2649672349
 23
239.9979275538
  0
SOLID
  5
2E5
100
AcDbEntity
  8
0
100
AcDbTrace
 62
5
  6
CONTINUOUS
 10
193.1168190867
 20
239.4053349612
 11
194.4501524201
 21
239.5534831094
 12
194.376078346
 22
239.183112739
 13
194.376078346
 23
239.183112739
  0
SOLID
  5
2E6
100
AcDbEntity
  8
0
100
AcDbTrace
 62
5
  6
CONTINUOUS
 10
199.1908931608
 20
239.4794045142
 11
198.0057079756
 21
239.1090386649
 12
197.9316339015
 22
239.4794045142
 13
197.9316339015
 23
239.4794045142
  0
SOLID
  5
2E7
100
AcDbEntity
  8
0
100
AcDbTrace
 62
5
  6
CONTINUOUS
 10
198.0057079756
 20
239.1090386649
 11
199.1908931608
 21
239.4794045142
 12
199.2649672349
 22
238.9608905168
 13
199.2649672349
 23
238.9608905168
  0
SOLID
  5
2E8
100
AcDbEntity
  8
0
100
AcDbTrace
 62
5
  6
CONTINUOUS
 10
194.376078346
 20
239.183112739
 11
193.0427450126
 21
238.7386705551
 12
193.1168190867
 22
239.4053349612
 13
193.1168190867
 23
239.4053349612
  0
SOLID
  5
2E9
100
AcDbEntity
  8
0
100
AcDbTrace
 62
5
  6
CONTINUOUS
 10
193.0427450126
 20
238.7386705551
 11
194.376078346
 21
239.183112739
 12
194.3020042719
 22
238.7386705551
 13
194.3020042719
 23
238.7386705551
  0
SOLID
  5
2EA
100
AcDbEntity
  8
0
100
AcDbTrace
 62
5
  6
CONTINUOUS
 10
199.2649672349
 20
238.9608905168
 11
198.0057079756
 21
238.7386705551
 12
198.0057079756
 22
239.1090386649
 13
198.0057079756
 23
239.1090386649
  0
SOLID
  5
2EB
100
AcDbEntity
  8
0
100
AcDbTrace
 62
5
  6
CONTINUOUS
 10
198.0057079756
 20
238.7386705551
 11
199.2649672349
 21
238.9608905168
 12
199.3390413089
 22
238.4423719983
 13
199.3390413089
 23
238.4423719983
  0
SOLID
  5
2EC
100
AcDbEntity
  8
0
100
AcDbTrace
 62
5
  6
CONTINUOUS
 10
199.3390413089
 20
238.4423719983
 11
198.0797820497
 21
238.2201509063
 12
198.0057079756
 22
238.7386705551
 13
198.0057079756
 23
238.7386705551
  0
SOLID
  5
2ED
100
AcDbEntity
  8
0
100
AcDbTrace
 62
5
  6
CONTINUOUS
 10
194.3020042719
 20
238.7386705551
 11
194.2279301978
 21
238.2201509063
 12
192.9686709386
 22
237.9238534797
 13
192.9686709386
 23
237.9238534797
  0
SOLID
  5
2EE
100
AcDbEntity
  8
0
100
AcDbTrace
 62
5
  6
CONTINUOUS
 10
194.3020042719
 20
238.7386705551
 11
192.9686709386
 21
237.9238534797
 12
193.0427450126
 22
238.7386705551
 13
193.0427450126
 23
238.7386705551
  0
SOLID
  5
2EF
100
AcDbEntity
  8
0
100
AcDbTrace
 62
5
  6
CONTINUOUS
 10
198.0797820497
 20
238.2201509063
 11
199.3390413089
 21
238.4423719983
 12
199.3390413089
 22
237.7757053316
 13
199.3390413089
 23
237.7757053316
  0
SOLID
  5
2F0
100
AcDbEntity
  8
0
100
AcDbTrace
 62
5
  6
CONTINUOUS
 10
192.9686709386
 20
237.9238534797
 11
194.2279301978
 21
238.2201509063
 12
194.2279301978
 22
237.7016312575
 13
194.2279301978
 23
237.7016312575
  0
SOLID
  5
2F1
100
AcDbEntity
  8
0
100
AcDbTrace
 62
5
  6
CONTINUOUS
 10
199.3390413089
 20
237.7757053316
 11
198.0797820497
 21
237.7016312575
 12
198.0797820497
 22
238.2201509063
 13
198.0797820497
 23
238.2201509063
  0
SOLID
  5
2F2
100
AcDbEntity
  8
0
100
AcDbTrace
 62
5
  6
CONTINUOUS
 10
194.2279301978
 20
237.7016312575
 11
192.9686709386
 21
237.1090403603
 12
192.9686709386
 22
237.9238534797
 13
192.9686709386
 23
237.9238534797
  0
SOLID
  5
2F3
100
AcDbEntity
  8
0
100
AcDbTrace
 62
5
  6
CONTINUOUS
 10
192.9686709386
 20
237.1090403603
 11
194.2279301978
 21
237.7016312575
 12
194.2279301978
 22
237.1090403603
 13
194.2279301978
 23
237.1090403603
  0
SOLID
  5
2F4
100
AcDbEntity
  8
0
100
AcDbTrace
 62
5
  6
CONTINUOUS
 10
198.1538561238
 20
237.1090403603
 11
198.0797820497
 21
237.7016312575
 12
199.3390413089
 22
237.7757053316
 13
199.3390413089
 23
237.7757053316
  0
SOLID
  5
2F5
100
AcDbEntity
  8
0
100
AcDbTrace
 62
5
  6
CONTINUOUS
 10
198.1538561238
 20
237.1090403603
 11
199.3390413089
 21
237.7757053316
 12
199.413115383
 22
237.1090403603
 13
199.413115383
 23
237.1090403603
  0
SOLID
  5
2F6
100
AcDbEntity
  8
0
100
AcDbTrace
 62
5
  6
CONTINUOUS
 10
199.413115383
 20
237.1090403603
 11
198.0797820497
 21
236.5164494632
 12
198.1538561238
 22
237.1090403603
 13
198.1538561238
 23
237.1090403603
  0
SOLID
  5
2F7
100
AcDbEntity
  8
0
100
AcDbTrace
 62
5
  6
CONTINUOUS
 10
194.2279301978
 20
237.1090403603
 11
194.2279301978
 21
236.5164494632
 12
192.9686709386
 22
236.4423719983
 13
192.9686709386
 23
236.4423719983
  0
SOLID
  5
2F8
100
AcDbEntity
  8
0
100
AcDbTrace
 62
5
  6
CONTINUOUS
 10
194.2279301978
 20
237.1090403603
 11
192.9686709386
 21
236.4423719983
 12
192.9686709386
 22
237.1090403603
 13
192.9686709386
 23
237.1090403603
  0
SOLID
  5
2F9
100
AcDbEntity
  8
0
100
AcDbTrace
 62
5
  6
CONTINUOUS
 10
198.0797820497
 20
236.5164494632
 11
199.413115383
 21
237.1090403603
 12
199.3390413089
 22
236.2942238501
 13
199.3390413089
 23
236.2942238501
  0
SOLID
  5
2FA
100
AcDbEntity
  8
0
100
AcDbTrace
 62
5
  6
CONTINUOUS
 10
192.9686709386
 20
236.4423719983
 11
194.2279301978
 21
236.5164494632
 12
194.2279301978
 22
235.9979298144
 13
194.2279301978
 23
235.9979298144
  0
SOLID
  5
2FB
100
AcDbEntity
  8
0
100
AcDbTrace
 62
5
  6
CONTINUOUS
 10
199.3390413089
 20
236.2942238501
 11
198.0797820497
 21
235.9979298144
 12
198.0797820497
 22
236.5164494632
 13
198.0797820497
 23
236.5164494632
  0
SOLID
  5
2FC
100
AcDbEntity
  8
0
100
AcDbTrace
 62
5
  6
CONTINUOUS
 10
194.2279301978
 20
235.9979298144
 11
192.9686709386
 21
235.7757053316
 12
192.9686709386
 22
236.4423719983
 13
192.9686709386
 23
236.4423719983
  0
SOLID
  5
2FD
100
AcDbEntity
  8
0
100
AcDbTrace
 62
5
  6
CONTINUOUS
 10
198.0797820497
 20
235.9979298144
 11
199.3390413089
 21
236.2942238501
 12
199.2649672349
 22
235.5534831094
 13
199.2649672349
 23
235.5534831094
  0
SOLID
  5
2FE
100
AcDbEntity
  8
0
100
AcDbTrace
 62
5
  6
CONTINUOUS
 10
192.9686709386
 20
235.7757053316
 11
194.2279301978
 21
235.9979298144
 12
194.3020042719
 22
235.4794101656
 13
194.3020042719
 23
235.4794101656
  0
SOLID
  5
2FF
100
AcDbEntity
  8
0
100
AcDbTrace
 62
5
  6
CONTINUOUS
 10
199.2649672349
 20
235.5534831094
 11
198.0057079756
 21
235.4794101656
 12
198.0797820497
 22
235.9979298144
 13
198.0797820497
 23
235.9979298144
  0
SOLID
  5
300
100
AcDbEntity
  8
0
100
AcDbTrace
 62
5
  6
CONTINUOUS
 10
194.3020042719
 20
235.4794101656
 11
193.0427450126
 21
235.2571868131
 12
192.9686709386
 22
235.7757053316
 13
192.9686709386
 23
235.7757053316
  0
SOLID
  5
301
100
AcDbEntity
  8
0
100
AcDbTrace
 62
5
  6
CONTINUOUS
 10
193.0427450126
 20
235.2571868131
 11
194.3020042719
 21
235.4794101656
 12
194.3020042719
 22
235.0349620477
 13
194.3020042719
 23
235.0349620477
  0
SOLID
  5
302
100
AcDbEntity
  8
0
100
AcDbTrace
 62
5
  6
CONTINUOUS
 10
198.0057079756
 20
235.0349620477
 11
198.0057079756
 21
235.4794101656
 12
199.2649672349
 22
235.5534831094
 13
199.2649672349
 23
235.5534831094
  0
SOLID
  5
303
100
AcDbEntity
  8
0
100
AcDbTrace
 62
5
  6
CONTINUOUS
 10
198.0057079756
 20
235.0349620477
 11
199.2649672349
 21
235.5534831094
 12
199.1908931608
 22
234.8868164427
 13
199.1908931608
 23
234.8868164427
  0
SOLID
  5
304
100
AcDbEntity
  8
0
100
AcDbTrace
 62
5
  6
CONTINUOUS
 10
194.3020042719
 20
235.0349620477
 11
193.1908931608
 21
234.6645950682
 12
193.0427450126
 22
235.2571868131
 13
193.0427450126
 23
235.2571868131
  0
SOLID
  5
305
100
AcDbEntity
  8
0
100
AcDbTrace
 62
5
  6
CONTINUOUS
 10
193.1908931608
 20
234.6645950682
 11
194.3020042719
 21
235.0349620477
 12
194.4501524201
 22
234.6645950682
 13
194.4501524201
 23
234.6645950682
  0
SOLID
  5
306
100
AcDbEntity
  8
0
100
AcDbTrace
 62
5
  6
CONTINUOUS
 10
199.1908931608
 20
234.8868164427
 11
197.9316339015
 21
234.6645950682
 12
198.0057079756
 22
235.0349620477
 13
198.0057079756
 23
235.0349620477
  0
SOLID
  5
307
100
AcDbEntity
  8
0
100
AcDbTrace
 62
5
  6
CONTINUOUS
 10
197.7834857534
 20
234.3682996196
 11
197.9316339015
 21
234.6645950682
 12
199.1908931608
 22
234.8868164427
 13
199.1908931608
 23
234.8868164427
  0
SOLID
  5
308
100
AcDbEntity
  8
0
100
AcDbTrace
 62
5
  6
CONTINUOUS
 10
197.7834857534
 20
234.3682996196
 11
199.1908931608
 21
234.8868164427
 12
199.0427450126
 22
234.2942238501
 13
199.0427450126
 23
234.2942238501
  0
SOLID
  5
309
100
AcDbEntity
  8
0
100
AcDbTrace
 62
5
  6
CONTINUOUS
 10
194.4501524201
 20
234.6645950682
 11
194.5242264941
 21
234.3682996196
 12
193.3390413089
 22
234.220149776
 13
193.3390413089
 23
234.220149776
  0
SOLID
  5
30A
100
AcDbEntity
  8
0
100
AcDbTrace
 62
5
  6
CONTINUOUS
 10
194.4501524201
 20
234.6645950682
 11
193.3390413089
 21
234.220149776
 12
193.1908931608
 22
234.6645950682
 13
193.1908931608
 23
234.6645950682
  0
SOLID
  5
30B
100
AcDbEntity
  8
0
100
AcDbTrace
 62
5
  6
CONTINUOUS
 10
193.3390413089
 20
234.220149776
 11
194.5242264941
 21
234.3682996196
 12
194.5983005682
 22
234.072004171
 13
194.5983005682
 23
234.072004171
  0
SOLID
  5
30C
100
AcDbEntity
  8
0
100
AcDbTrace
 62
5
  6
CONTINUOUS
 10
199.0427450126
 20
234.2942238501
 11
197.7094116793
 21
234.072004171
 12
197.7834857534
 22
234.3682996196
 13
197.7834857534
 23
234.3682996196
  0
SOLID
  5
30D
100
AcDbEntity
  8
0
100
AcDbTrace
 62
5
  6
CONTINUOUS
 10
194.5983005682
 20
234.072004171
 11
194.7464487164
 21
233.8497799708
 12
193.4871894571
 22
233.7757087224
 13
193.4871894571
 23
233.7757087224
  0
SOLID
  5
30E
100
AcDbEntity
  8
0
100
AcDbTrace
 62
5
  6
CONTINUOUS
 10
194.5983005682
 20
234.072004171
 11
193.4871894571
 21
233.7757087224
 12
193.3390413089
 22
234.220149776
 13
193.3390413089
 23
234.220149776
  0
SOLID
  5
30F
100
AcDbEntity
  8
0
100
AcDbTrace
 62
5
  6
CONTINUOUS
 10
197.5612635312
 20
233.8497799708
 11
197.7094116793
 21
234.072004171
 12
199.0427450126
 22
234.2942238501
 13
199.0427450126
 23
234.2942238501
  0
SOLID
  5
310
100
AcDbEntity
  8
0
100
AcDbTrace
 62
5
  6
CONTINUOUS
 10
197.5612635312
 20
233.8497799708
 11
199.0427450126
 21
234.2942238501
 12
198.8205227904
 22
233.7757087224
 13
198.8205227904
 23
233.7757087224
  0
SOLID
  5
311
100
AcDbEntity
  8
0
100
AcDbTrace
 62
5
  6
CONTINUOUS
 10
198.8205227904
 20
233.7757087224
 11
197.2649672349
 21
233.5534831094
 12
197.5612635312
 22
233.8497799708
 13
197.5612635312
 23
233.8497799708
  0
SOLID
  5
312
100
AcDbEntity
  8
0
100
AcDbTrace
 62
5
  6
CONTINUOUS
 10
193.4871894571
 20
233.7757087224
 11
194.7464487164
 21
233.8497799708
 12
195.0427450126
 22
233.4794090353
 13
195.0427450126
 23
233.4794090353
  0
SOLID
  5
313
100
AcDbEntity
  8
0
100
AcDbTrace
 62
5
  6
CONTINUOUS
 10
195.0427450126
 20
233.4794090353
 11
193.7094116793
 21
233.4053349612
 12
193.4871894571
 22
233.7757087224
 13
193.4871894571
 23
233.7757087224
  0
SOLID
  5
314
100
AcDbEntity
  8
0
100
AcDbTrace
 62
5
  6
CONTINUOUS
 10
197.2649672349
 20
233.5534831094
 11
198.8205227904
 21
233.7757087224
 12
198.5983005682
 22
233.3312608871
 13
198.5983005682
 23
233.3312608871
  0
SOLID
  5
315
100
AcDbEntity
  8
0
100
AcDbTrace
 62
5
  6
CONTINUOUS
 10
193.7094116793
 20
233.4053349612
 11
195.0427450126
 21
233.4794090353
 12
195.413115383
 22
233.257189003
 13
195.413115383
 23
233.257189003
  0
SOLID
  5
316
100
AcDbEntity
  8
0
100
AcDbTrace
 62
5
  6
CONTINUOUS
 10
198.5983005682
 20
233.3312608871
 11
196.8945968645
 21
233.257189003
 12
197.2649672349
 22
233.5534831094
 13
197.2649672349
 23
233.5534831094
  0
SOLID
  5
317
100
AcDbEntity
  8
0
100
AcDbTrace
 62
5
  6
CONTINUOUS
 10
196.1538561238
 20
233.1090361924
 11
196.5242264941
 21
233.1090361924
 12
193.9316339015
 22
233.0349645909
 13
193.9316339015
 23
233.0349645909
  0
SOLID
  5
318
100
AcDbEntity
  8
0
100
AcDbTrace
 62
5
  6
CONTINUOUS
 10
195.7834857534
 20
233.1090361924
 11
196.1538561238
 21
233.1090361924
 12
193.9316339015
 22
233.0349645909
 13
193.9316339015
 23
233.0349645909
  0
SOLID
  5
319
100
AcDbEntity
  8
0
100
AcDbTrace
 62
5
  6
CONTINUOUS
 10
195.413115383
 20
233.257189003
 11
195.7834857534
 21
233.1090361924
 12
193.9316339015
 22
233.0349645909
 13
193.9316339015
 23
233.0349645909
  0
SOLID
  5
31A
100
AcDbEntity
  8
0
100
AcDbTrace
 62
5
  6
CONTINUOUS
 10
195.413115383
 20
233.257189003
 11
193.9316339015
 21
233.0349645909
 12
193.7094116793
 22
233.4053349612
 13
193.7094116793
 23
233.4053349612
  0
SOLID
  5
31B
100
AcDbEntity
  8
0
100
AcDbTrace
 62
5
  6
CONTINUOUS
 10
196.5242264941
 20
233.1090361924
 11
196.8945968645
 21
233.257189003
 12
198.5983005682
 22
233.3312608871
 13
198.5983005682
 23
233.3312608871
  0
SOLID
  5
31C
100
AcDbEntity
  8
0
100
AcDbTrace
 62
5
  6
CONTINUOUS
 10
198.3020042719
 20
232.8868164427
 11
193.9316339015
 21
233.0349645909
 12
196.5242264941
 22
233.1090361924
 13
196.5242264941
 23
233.1090361924
  0
SOLID
  5
31D
100
AcDbEntity
  8
0
100
AcDbTrace
 62
5
  6
CONTINUOUS
 10
196.5242264941
 20
233.1090361924
 11
198.5983005682
 21
233.3312608871
 12
198.3020042719
 22
232.8868164427
 13
198.3020042719
 23
232.8868164427
  0
SOLID
  5
31E
100
AcDbEntity
  8
0
100
AcDbTrace
 62
5
  6
CONTINUOUS
 10
198.3020042719
 20
232.8868164427
 11
194.1538561238
 21
232.8127423686
 12
193.9316339015
 22
233.0349645909
 13
193.9316339015
 23
233.0349645909
  0
SOLID
  5
31F
100
AcDbEntity
  8
0
100
AcDbTrace
 62
5
  6
CONTINUOUS
 10
194.376078346
 20
232.590516579
 11
194.1538561238
 21
232.8127423686
 12
198.3020042719
 22
232.8868164427
 13
198.3020042719
 23
232.8868164427
  0
SOLID
  5
320
100
AcDbEntity
  8
0
100
AcDbTrace
 62
5
  6
CONTINUOUS
 10
194.376078346
 20
232.590516579
 11
198.3020042719
 21
232.8868164427
 12
197.9316339015
 22
232.590516579
 13
197.9316339015
 23
232.590516579
  0
SOLID
  5
321
100
AcDbEntity
  8
0
100
AcDbTrace
 62
5
  6
CONTINUOUS
 10
197.9316339015
 20
232.590516579
 11
194.5983005682
 21
232.4423719983
 12
194.376078346
 22
232.590516579
 13
194.376078346
 23
232.590516579
  0
SOLID
  5
322
100
AcDbEntity
  8
0
100
AcDbTrace
 62
5
  6
CONTINUOUS
 10
194.5983005682
 20
232.4423719983
 11
197.9316339015
 21
232.590516579
 12
197.5612635312
 22
232.3682979242
 13
197.5612635312
 23
232.3682979242
  0
SOLID
  5
323
100
AcDbEntity
  8
0
100
AcDbTrace
 62
5
  6
CONTINUOUS
 10
197.5612635312
 20
232.3682979242
 11
194.8945968645
 21
232.2942238501
 12
194.5983005682
 22
232.4423719983
 13
194.5983005682
 23
232.4423719983
  0
SOLID
  5
324
100
AcDbEntity
  8
0
100
AcDbTrace
 62
5
  6
CONTINUOUS
 10
195.1908931608
 20
232.220149776
 11
194.8945968645
 21
232.2942238501
 12
197.5612635312
 22
232.3682979242
 13
197.5612635312
 23
232.3682979242
  0
SOLID
  5
325
100
AcDbEntity
  8
0
100
AcDbTrace
 62
5
  6
CONTINUOUS
 10
195.1908931608
 20
232.220149776
 11
197.5612635312
 21
232.3682979242
 12
197.1168190867
 22
232.220149776
 13
197.1168190867
 23
232.220149776
  0
SOLID
  5
326
100
AcDbEntity
  8
0
100
AcDbTrace
 62
5
  6
CONTINUOUS
 10
197.1168190867
 20
232.220149776
 11
195.4871894571
 21
232.1460784438
 12
195.1908931608
 22
232.220149776
 13
195.1908931608
 23
232.220149776
  0
SOLID
  5
327
100
AcDbEntity
  8
0
100
AcDbTrace
 62
5
  6
CONTINUOUS
 10
195.7834857534
 20
232.1460784438
 11
195.4871894571
 21
232.1460784438
 12
197.1168190867
 22
232.220149776
 13
197.1168190867
 23
232.220149776
  0
SOLID
  5
328
100
AcDbEntity
  8
0
100
AcDbTrace
 62
5
  6
CONTINUOUS
 10
195.7834857534
 20
232.1460784438
 11
197.1168190867
 21
232.220149776
 12
196.6723746423
 22
232.1460784438
 13
196.6723746423
 23
232.1460784438
  0
SOLID
  5
329
100
AcDbEntity
  8
0
100
AcDbTrace
 62
5
  6
CONTINUOUS
 10
196.6723746423
 20
232.1460784438
 11
196.1538561238
 21
232.0720016279
 12
195.7834857534
 22
232.1460784438
 13
195.7834857534
 23
232.1460784438
  0
SOLID
  5
32A
100
AcDbEntity
  8
0
100
AcDbTrace
 62
5
  6
CONTINUOUS
 10
204.2279301978
 20
236.3682979242
 11
200.376078346
 21
235.183112739
 12
200.376078346
 22
236.3682979242
 13
200.376078346
 23
236.3682979242
  0
SOLID
  5
32B
100
AcDbEntity
  8
0
100
AcDbTrace
 62
5
  6
CONTINUOUS
 10
200.376078346
 20
235.183112739
 11
204.2279301978
 21
236.3682979242
 12
204.2279301978
 22
235.183112739
 13
204.2279301978
 23
235.183112739
  0
SOLID
  5
32C
100
AcDbEntity
  8
0
100
AcDbTrace
 62
5
  6
CONTINUOUS
 10
208.3020042719
 20
242.1460734414
 11
208.6723746423
 21
242.220149776
 12
209.2649672349
 22
242.1460734414
 13
209.2649672349
 23
242.1460734414
  0
SOLID
  5
32D
100
AcDbEntity
  8
0
100
AcDbTrace
 62
5
  6
CONTINUOUS
 10
208.3020042719
 20
242.1460734414
 11
209.2649672349
 21
242.1460734414
 12
207.5612635312
 22
241.9979309447
 13
207.5612635312
 23
241.9979309447
  0
SOLID
  5
32E
100
AcDbEntity
  8
0
100
AcDbTrace
 62
5
  6
CONTINUOUS
 10
208.3020042719
 20
242.1460734414
 11
207.5612635312
 21
241.9979309447
 12
207.9316339015
 22
242.1460734414
 13
207.9316339015
 23
242.1460734414
  0
SOLID
  5
32F
100
AcDbEntity
  8
0
100
AcDbTrace
 62
5
  6
CONTINUOUS
 10
207.5612635312
 20
241.9979309447
 11
209.2649672349
 21
242.1460734414
 12
209.7834857534
 22
241.9979309447
 13
209.7834857534
 23
241.9979309447
  0
SOLID
  5
330
100
AcDbEntity
  8
0
100
AcDbTrace
 62
5
  6
CONTINUOUS
 10
209.7834857534
 20
241.9979309447
 11
207.2649672349
 21
241.9238534797
 12
207.5612635312
 22
241.9979309447
 13
207.5612635312
 23
241.9979309447
  0
SOLID
  5
331
100
AcDbEntity
  8
0
100
AcDbTrace
 62
5
  6
CONTINUOUS
 10
206.9686709386
 20
241.7757064619
 11
207.2649672349
 21
241.9238534797
 12
209.7834857534
 22
241.9979309447
 13
209.7834857534
 23
241.9979309447
  0
SOLID
  5
332
100
AcDbEntity
  8
0
100
AcDbTrace
 62
5
  6
CONTINUOUS
 10
206.9686709386
 20
241.7757064619
 11
209.7834857534
 21
241.9979309447
 12
210.2279301978
 22
241.7757064619
 13
210.2279301978
 23
241.7757064619
  0
SOLID
  5
333
100
AcDbEntity
  8
0
100
AcDbTrace
 62
5
  6
CONTINUOUS
 10
210.2279301978
 20
241.7757064619
 11
206.6723746423
 21
241.5534831094
 12
206.9686709386
 22
241.7757064619
 13
206.9686709386
 23
241.7757064619
  0
SOLID
  5
334
100
AcDbEntity
  8
0
100
AcDbTrace
 62
5
  6
CONTINUOUS
 10
206.6723746423
 20
241.5534831094
 11
210.2279301978
 21
241.7757064619
 12
210.5983005682
 22
241.4794090353
 13
210.5983005682
 23
241.4794090353
  0
SOLID
  5
335
100
AcDbEntity
  8
0
100
AcDbTrace
 62
5
  6
CONTINUOUS
 10
210.5983005682
 20
241.4794090353
 11
206.376078346
 21
241.3312608871
 12
206.6723746423
 22
241.5534831094
 13
206.6723746423
 23
241.5534831094
  0
SOLID
  5
336
100
AcDbEntity
  8
0
100
AcDbTrace
 62
5
  6
CONTINUOUS
 10
208.5983005682
 20
241.1831161298
 11
206.376078346
 21
241.3312608871
 12
210.5983005682
 22
241.4794090353
 13
210.5983005682
 23
241.4794090353
  0
SOLID
  5
337
100
AcDbEntity
  8
0
100
AcDbTrace
 62
5
  6
CONTINUOUS
 10
208.5983005682
 20
241.1831161298
 11
210.5983005682
 21
241.4794090353
 12
210.9686709386
 22
241.1831161298
 13
210.9686709386
 23
241.1831161298
  0
SOLID
  5
338
100
AcDbEntity
  8
0
100
AcDbTrace
 62
5
  6
CONTINUOUS
 10
210.9686709386
 20
241.1831161298
 11
208.9686709386
 21
241.1090347089
 12
208.5983005682
 22
241.1831161298
 13
208.5983005682
 23
241.1831161298
  0
SOLID
  5
339
100
AcDbEntity
  8
0
100
AcDbTrace
 62
5
  6
CONTINUOUS
 10
208.5983005682
 20
241.1831161298
 11
208.3020042719
 21
241.1090347089
 12
206.1538561238
 22
241.0349634606
 13
206.1538561238
 23
241.0349634606
  0
SOLID
  5
33A
100
AcDbEntity
  8
0
100
AcDbTrace
 62
5
  6
CONTINUOUS
 10
208.5983005682
 20
241.1831161298
 11
206.1538561238
 21
241.0349634606
 12
206.376078346
 22
241.3312608871
 13
206.376078346
 23
241.3312608871
  0
SOLID
  5
33B
100
AcDbEntity
  8
0
100
AcDbTrace
 62
5
  6
CONTINUOUS
 10
206.1538561238
 20
241.0349634606
 11
208.3020042719
 21
241.1090347089
 12
208.0797820497
 22
241.0349634606
 13
208.0797820497
 23
241.0349634606
  0
SOLID
  5
33C
100
AcDbEntity
  8
0
100
AcDbTrace
 62
5
  6
CONTINUOUS
 10
209.2649672349
 20
241.0349634606
 11
208.9686709386
 21
241.1090347089
 12
210.9686709386
 22
241.1831161298
 13
210.9686709386
 23
241.1831161298
  0
SOLID
  5
33D
100
AcDbEntity
  8
0
100
AcDbTrace
 62
5
  6
CONTINUOUS
 10
209.5612635312
 20
240.8868164427
 11
209.2649672349
 21
241.0349634606
 12
210.9686709386
 22
241.1831161298
 13
210.9686709386
 23
241.1831161298
  0
SOLID
  5
33E
100
AcDbEntity
  8
0
100
AcDbTrace
 62
5
  6
CONTINUOUS
 10
209.5612635312
 20
240.8868164427
 11
210.9686709386
 21
241.1831161298
 12
211.1908931608
 22
240.7386682946
 13
211.1908931608
 23
240.7386682946
  0
SOLID
  5
33F
100
AcDbEntity
  8
0
100
AcDbTrace
 62
5
  6
CONTINUOUS
 10
207.7834857534
 20
240.9608905168
 11
207.5612635312
 21
240.8127423686
 12
205.9316339015
 22
240.664596481
 13
205.9316339015
 23
240.664596481
  0
SOLID
  5
340
100
AcDbEntity
  8
0
100
AcDbTrace
 62
5
  6
CONTINUOUS
 10
208.0797820497
 20
241.0349634606
 11
207.7834857534
 21
240.9608905168
 12
205.9316339015
 22
240.664596481
 13
205.9316339015
 23
240.664596481
  0
SOLID
  5
341
100
AcDbEntity
  8
0
100
AcDbTrace
 62
5
  6
CONTINUOUS
 10
208.0797820497
 20
241.0349634606
 11
205.9316339015
 21
240.664596481
 12
206.1538561238
 22
241.0349634606
 13
206.1538561238
 23
241.0349634606
  0
SOLID
  5
342
100
AcDbEntity
  8
0
100
AcDbTrace
 62
5
  6
CONTINUOUS
 10
211.1908931608
 20
240.7386682946
 11
209.7834857534
 21
240.664596481
 12
209.5612635312
 22
240.8868164427
 13
209.5612635312
 23
240.8868164427
  0
SOLID
  5
343
100
AcDbEntity
  8
0
100
AcDbTrace
 62
5
  6
CONTINUOUS
 10
205.9316339015
 20
240.664596481
 11
207.5612635312
 21
240.8127423686
 12
207.2649672349
 22
240.5905201464
 13
207.2649672349
 23
240.5905201464
  0
SOLID
  5
344
100
AcDbEntity
  8
0
100
AcDbTrace
 62
5
  6
CONTINUOUS
 10
207.2649672349
 20
240.5905201464
 11
205.7094116793
 21
240.294219329
 12
205.9316339015
 22
240.664596481
 13
205.9316339015
 23
240.664596481
  0
SOLID
  5
345
100
AcDbEntity
  8
0
100
AcDbTrace
 62
5
  6
CONTINUOUS
 10
205.7094116793
 20
240.294219329
 11
207.2649672349
 21
240.5905201464
 12
207.0427450126
 22
240.294219329
 13
207.0427450126
 23
240.294219329
  0
SOLID
  5
346
100
AcDbEntity
  8
0
100
AcDbTrace
 62
5
  6
CONTINUOUS
 10
209.9316339015
 20
240.4423719983
 11
209.7834857534
 21
240.664596481
 12
211.1908931608
 22
240.7386682946
 13
211.1908931608
 23
240.7386682946
  0
SOLID
  5
347
100
AcDbEntity
  8
0
100
AcDbTrace
 62
5
  6
CONTINUOUS
 10
210.0797820497
 20
240.2201480806
 11
209.9316339015
 21
240.4423719983
 12
211.1908931608
 22
240.7386682946
 13
211.1908931608
 23
240.7386682946
  0
SOLID
  5
348
100
AcDbEntity
  8
0
100
AcDbTrace
 62
5
  6
CONTINUOUS
 10
210.0797820497
 20
240.2201480806
 11
211.1908931608
 21
240.7386682946
 12
211.413115383
 22
240.2201480806
 13
211.413115383
 23
240.2201480806
  0
SOLID
  5
349
100
AcDbEntity
  8
0
100
AcDbTrace
 62
5
  6
CONTINUOUS
 10
211.413115383
 20
240.2201480806
 11
210.1538561238
 21
239.9238534797
 12
210.0797820497
 22
240.2201480806
 13
210.0797820497
 23
240.2201480806
  0
SOLID
  5
34A
100
AcDbEntity
  8
0
100
AcDbTrace
 62
5
  6
CONTINUOUS
 10
207.0427450126
 20
240.294219329
 11
206.8945968645
 21
239.9979275538
 12
205.4871894571
 22
239.8497794057
 13
205.4871894571
 23
239.8497794057
  0
SOLID
  5
34B
100
AcDbEntity
  8
0
100
AcDbTrace
 62
5
  6
CONTINUOUS
 10
207.0427450126
 20
240.294219329
 11
205.4871894571
 21
239.8497794057
 12
205.7094116793
 22
240.294219329
 13
205.7094116793
 23
240.294219329
  0
SOLID
  5
34C
100
AcDbEntity
  8
0
100
AcDbTrace
 62
5
  6
CONTINUOUS
 10
210.1538561238
 20
239.9238534797
 11
211.413115383
 21
240.2201480806
 12
211.5612635312
 22
239.7016312575
 13
211.5612635312
 23
239.7016312575
  0
SOLID
  5
34D
100
AcDbEntity
  8
0
100
AcDbTrace
 62
5
  6
CONTINUOUS
 10
205.4871894571
 20
239.8497794057
 11
206.8945968645
 21
239.9979275538
 12
206.6723746423
 22
239.6275571834
 13
206.6723746423
 23
239.6275571834
  0
SOLID
  5
34E
100
AcDbEntity
  8
0
100
AcDbTrace
 62
5
  6
CONTINUOUS
 10
211.5612635312
 20
239.7016312575
 11
210.3020042719
 21
239.6275571834
 12
210.1538561238
 22
239.9238534797
 13
210.1538561238
 23
239.9238534797
  0
SOLID
  5
34F
100
AcDbEntity
  8
0
100
AcDbTrace
 62
5
  6
CONTINUOUS
 10
206.6723746423
 20
239.6275571834
 11
205.3390413089
 21
239.3312608871
 12
205.4871894571
 22
239.8497794057
 13
205.4871894571
 23
239.8497794057
  0
SOLID
  5
350
100
AcDbEntity
  8
0
100
AcDbTrace
 62
5
  6
CONTINUOUS
 10
205.3390413089
 20
239.3312608871
 11
206.6723746423
 21
239.6275571834
 12
206.5242264941
 22
239.183112739
 13
206.5242264941
 23
239.183112739
  0
SOLID
  5
351
100
AcDbEntity
  8
0
100
AcDbTrace
 62
5
  6
CONTINUOUS
 10
206.5242264941
 20
239.183112739
 11
205.2649672349
 21
238.8127423686
 12
205.3390413089
 22
239.3312608871
 13
205.3390413089
 23
239.3312608871
  0
SOLID
  5
352
100
AcDbEntity
  8
0
100
AcDbTrace
 62
5
  6
CONTINUOUS
 10
205.2649672349
 20
238.8127423686
 11
206.5242264941
 21
239.183112739
 12
206.4501524201
 22
238.5905178858
 13
206.4501524201
 23
238.5905178858
  0
SOLID
  5
353
100
AcDbEntity
  8
0
100
AcDbTrace
 62
5
  6
CONTINUOUS
 10
208.376078346
 20
238.5905178858
 11
208.7464487164
 21
238.6645942205
 12
209.3390413089
 22
238.5905178858
 13
209.3390413089
 23
238.5905178858
  0
SOLID
  5
354
100
AcDbEntity
  8
0
100
AcDbTrace
 62
5
  6
CONTINUOUS
 10
209.3390413089
 20
238.5905178858
 11
208.0797820497
 21
238.5164460723
 12
208.376078346
 22
238.5905178858
 13
208.376078346
 23
238.5905178858
  0
SOLID
  5
355
100
AcDbEntity
  8
0
100
AcDbTrace
 62
5
  6
CONTINUOUS
 10
207.7094116793
 20
238.4423719983
 11
208.0797820497
 21
238.5164460723
 12
209.3390413089
 22
238.5905178858
 13
209.3390413089
 23
238.5905178858
  0
SOLID
  5
356
100
AcDbEntity
  8
0
100
AcDbTrace
 62
5
  6
CONTINUOUS
 10
207.7094116793
 20
238.4423719983
 11
209.3390413089
 21
238.5905178858
 12
209.8575598275
 22
238.3682979242
 13
209.8575598275
 23
238.3682979242
  0
SOLID
  5
357
100
AcDbEntity
  8
0
100
AcDbTrace
 62
5
  6
CONTINUOUS
 10
209.8575598275
 20
238.3682979242
 11
207.413115383
 21
238.2942238501
 12
207.7094116793
 22
238.4423719983
 13
207.7094116793
 23
238.4423719983
  0
SOLID
  5
358
100
AcDbEntity
  8
0
100
AcDbTrace
 62
5
  6
CONTINUOUS
 10
206.4501524201
 20
238.5905178858
 11
205.1168190867
 21
238.220149776
 12
205.2649672349
 22
238.8127423686
 13
205.2649672349
 23
238.8127423686
  0
SOLID
  5
359
100
AcDbEntity
  8
0
100
AcDbTrace
 62
5
  6
CONTINUOUS
 10
207.1168190867
 20
238.1460796579
 11
207.413115383
 21
238.2942238501
 12
209.8575598275
 22
238.3682979242
 13
209.8575598275
 23
238.3682979242
  0
SOLID
  5
35A
100
AcDbEntity
  8
0
100
AcDbTrace
 62
5
  6
CONTINUOUS
 10
207.1168190867
 20
238.1460796579
 11
209.8575598275
 21
238.3682979242
 12
210.376078346
 22
238.1460796579
 13
210.376078346
 23
238.1460796579
  0
SOLID
  5
35B
100
AcDbEntity
  8
0
100
AcDbTrace
 62
5
  6
CONTINUOUS
 10
205.1168190867
 20
238.220149776
 11
206.4501524201
 21
238.5905178858
 12
206.376078346
 22
237.9979275538
 13
206.376078346
 23
237.9979275538
  0
SOLID
  5
35C
100
AcDbEntity
  8
0
100
AcDbTrace
 62
5
  6
CONTINUOUS
 10
210.376078346
 20
238.1460796579
 11
206.8205227904
 21
237.9238534797
 12
207.1168190867
 22
238.1460796579
 13
207.1168190867
 23
238.1460796579
  0
SOLID
  5
35D
100
AcDbEntity
  8
0
100
AcDbTrace
 62
5
  6
CONTINUOUS
 10
206.8205227904
 20
237.9238534797
 11
210.376078346
 21
238.1460796579
 12
210.8205227904
 22
237.7016312575
 13
210.8205227904
 23
237.7016312575
  0
SOLID
  5
35E
100
AcDbEntity
  8
0
100
AcDbTrace
 62
5
  6
CONTINUOUS
 10
210.8205227904
 20
237.7016312575
 11
206.5983005682
 21
237.6275571834
 12
206.8205227904
 22
237.9238534797
 13
206.8205227904
 23
237.9238534797
  0
SOLID
  5
35F
100
AcDbEntity
  8
0
100
AcDbTrace
 62
5
  6
CONTINUOUS
 10
206.376078346
 20
237.9979275538
 11
205.1168190867
 21
237.5534831094
 12
205.1168190867
 22
238.220149776
 13
205.1168190867
 23
238.220149776
  0
SOLID
  5
360
100
AcDbEntity
  8
0
100
AcDbTrace
 62
5
  6
CONTINUOUS
 10
205.1168190867
 20
237.5534831094
 11
206.376078346
 21
237.9979275538
 12
206.376078346
 22
237.3312648431
 13
206.376078346
 23
237.3312648431
  0
SOLID
  5
361
100
AcDbEntity
  8
0
100
AcDbTrace
 62
5
  6
CONTINUOUS
 10
208.4501524201
 20
237.4794090353
 11
208.0057079756
 21
237.4053360915
 12
206.376078346
 22
237.3312648431
 13
206.376078346
 23
237.3312648431
  0
SOLID
  5
362
100
AcDbEntity
  8
0
100
AcDbTrace
 62
5
  6
CONTINUOUS
 10
208.4501524201
 20
237.4794090353
 11
206.376078346
 21
237.3312648431
 12
206.5983005682
 22
237.6275571834
 13
206.5983005682
 23
237.6275571834
  0
SOLID
  5
363
100
AcDbEntity
  8
0
100
AcDbTrace
 62
5
  6
CONTINUOUS
 10
206.376078346
 20
237.3312648431
 11
208.0057079756
 21
237.4053360915
 12
207.6353376052
 22
237.3312648431
 13
207.6353376052
 23
237.3312648431
  0
SOLID
  5
364
100
AcDbEntity
  8
0
100
AcDbTrace
 62
5
  6
CONTINUOUS
 10
208.4501524201
 20
237.4794090353
 11
206.5983005682
 21
237.6275571834
 12
210.8205227904
 22
237.7016312575
 13
210.8205227904
 23
237.7016312575
  0
SOLID
  5
365
100
AcDbEntity
  8
0
100
AcDbTrace
 62
5
  6
CONTINUOUS
 10
208.8945968645
 20
237.4053360915
 11
208.4501524201
 21
237.4794090353
 12
210.8205227904
 22
237.7016312575
 13
210.8205227904
 23
237.7016312575
  0
SOLID
  5
366
100
AcDbEntity
  8
0
100
AcDbTrace
 62
5
  6
CONTINUOUS
 10
209.2649672349
 20
237.3312648431
 11
208.8945968645
 21
237.4053360915
 12
210.8205227904
 22
237.7016312575
 13
210.8205227904
 23
237.7016312575
  0
SOLID
  5
367
100
AcDbEntity
  8
0
100
AcDbTrace
 62
5
  6
CONTINUOUS
 10
209.2649672349
 20
237.3312648431
 11
210.8205227904
 21
237.7016312575
 12
211.1908931608
 22
237.2571868131
 13
211.1908931608
 23
237.2571868131
  0
SOLID
  5
368
100
AcDbEntity
  8
0
100
AcDbTrace
 62
5
  6
CONTINUOUS
 10
211.1908931608
 20
237.2571868131
 11
209.5612635312
 21
237.1090403603
 12
209.2649672349
 22
237.3312648431
 13
209.2649672349
 23
237.3312648431
  0
SOLID
  5
369
100
AcDbEntity
  8
0
100
AcDbTrace
 62
5
  6
CONTINUOUS
 10
207.6353376052
 20
237.3312648431
 11
207.3390413089
 21
237.1090403603
 12
205.1168190867
 22
236.8868161601
 13
205.1168190867
 23
236.8868161601
  0
SOLID
  5
36A
100
AcDbEntity
  8
0
100
AcDbTrace
 62
5
  6
CONTINUOUS
 10
206.376078346
 20
237.3312648431
 11
207.6353376052
 21
237.3312648431
 12
205.1168190867
 22
236.8868161601
 13
205.1168190867
 23
236.8868161601
  0
SOLID
  5
36B
100
AcDbEntity
  8
0
100
AcDbTrace
 62
5
  6
CONTINUOUS
 10
206.376078346
 20
237.3312648431
 11
205.1168190867
 21
236.8868161601
 12
205.1168190867
 22
237.5534831094
 13
205.1168190867
 23
237.5534831094
  0
SOLID
  5
36C
100
AcDbEntity
  8
0
100
AcDbTrace
 62
5
  6
CONTINUOUS
 10
205.1168190867
 20
236.8868161601
 11
207.3390413089
 21
237.1090403603
 12
206.9686709386
 22
236.8868161601
 13
206.9686709386
 23
236.8868161601
  0
SOLID
  5
36D
100
AcDbEntity
  8
0
100
AcDbTrace
 62
5
  6
CONTINUOUS
 10
209.8575598275
 20
236.8868161601
 11
209.5612635312
 21
237.1090403603
 12
211.1908931608
 22
237.2571868131
 13
211.1908931608
 23
237.2571868131
  0
SOLID
  5
36E
100
AcDbEntity
  8
0
100
AcDbTrace
 62
5
  6
CONTINUOUS
 10
209.8575598275
 20
236.8868161601
 11
211.1908931608
 21
237.2571868131
 12
211.4871894571
 22
236.7386682946
 13
211.4871894571
 23
236.7386682946
  0
SOLID
  5
36F
100
AcDbEntity
  8
0
100
AcDbTrace
 62
5
  6
CONTINUOUS
 10
211.4871894571
 20
236.7386682946
 11
210.0797820497
 21
236.5905207115
 12
209.8575598275
 22
236.8868161601
 13
209.8575598275
 23
236.8868161601
  0
SOLID
  5
370
100
AcDbEntity
  8
0
100
AcDbTrace
 62
5
  6
CONTINUOUS
 10
206.9686709386
 20
236.8868161601
 11
206.7464487164
 21
236.5905207115
 12
205.1168190867
 22
236.2201540146
 13
205.1168190867
 23
236.2201540146
  0
SOLID
  5
371
100
AcDbEntity
  8
0
100
AcDbTrace
 62
5
  6
CONTINUOUS
 10
206.9686709386
 20
236.8868161601
 11
205.1168190867
 21
236.2201540146
 12
205.1168190867
 22
236.8868161601
 13
205.1168190867
 23
236.8868161601
  0
SOLID
  5
372
100
AcDbEntity
  8
0
100
AcDbTrace
 62
5
  6
CONTINUOUS
 10
205.1168190867
 20
236.2201540146
 11
206.7464487164
 21
236.5905207115
 12
206.5983005682
 22
236.2201540146
 13
206.5983005682
 23
236.2201540146
  0
SOLID
  5
373
100
AcDbEntity
  8
0
100
AcDbTrace
 62
5
  6
CONTINUOUS
 10
210.3020042719
 20
236.2201540146
 11
210.0797820497
 21
236.5905207115
 12
211.4871894571
 22
236.7386682946
 13
211.4871894571
 23
236.7386682946
  0
SOLID
  5
374
100
AcDbEntity
  8
0
100
AcDbTrace
 62
5
  6
CONTINUOUS
 10
210.3020042719
 20
236.2201540146
 11
211.4871894571
 21
236.7386682946
 12
211.6353376052
 22
236.0720016279
 13
211.6353376052
 23
236.0720016279
  0
SOLID
  5
375
100
AcDbEntity
  8
0
100
AcDbTrace
 62
5
  6
CONTINUOUS
 10
211.6353376052
 20
236.0720016279
 11
210.376078346
 21
235.7757053316
 12
210.3020042719
 22
236.2201540146
 13
210.3020042719
 23
236.2201540146
  0
SOLID
  5
376
100
AcDbEntity
  8
0
100
AcDbTrace
 62
5
  6
CONTINUOUS
 10
206.5983005682
 20
236.2201540146
 11
206.4501524201
 21
235.8497794057
 12
205.1168190867
 22
235.6275571834
 13
205.1168190867
 23
235.6275571834
  0
SOLID
  5
377
100
AcDbEntity
  8
0
100
AcDbTrace
 62
5
  6
CONTINUOUS
 10
206.5983005682
 20
236.2201540146
 11
205.1168190867
 21
235.6275571834
 12
205.1168190867
 22
236.2201540146
 13
205.1168190867
 23
236.2201540146
  0
SOLID
  5
378
100
AcDbEntity
  8
0
100
AcDbTrace
 62
5
  6
CONTINUOUS
 10
205.1168190867
 20
235.6275571834
 11
206.4501524201
 21
235.8497794057
 12
206.4501524201
 22
235.4053389172
 13
206.4501524201
 23
235.4053389172
  0
SOLID
  5
379
100
AcDbEntity
  8
0
100
AcDbTrace
 62
5
  6
CONTINUOUS
 10
210.376078346
 20
235.7757053316
 11
211.6353376052
 21
236.0720016279
 12
211.7094116793
 22
235.4053389172
 13
211.7094116793
 23
235.4053389172
  0
SOLID
  5
37A
100
AcDbEntity
  8
0
100
AcDbTrace
 62
5
  6
CONTINUOUS
 10
211.7094116793
 20
235.4053389172
 11
210.4501524201
 21
235.3312608871
 12
210.376078346
 22
235.7757053316
 13
210.376078346
 23
235.7757053316
  0
SOLID
  5
37B
100
AcDbEntity
  8
0
100
AcDbTrace
 62
5
  6
CONTINUOUS
 10
206.4501524201
 20
235.4053389172
 11
205.1908931608
 21
235.1090434686
 12
205.1168190867
 22
235.6275571834
 13
205.1168190867
 23
235.6275571834
  0
SOLID
  5
37C
100
AcDbEntity
  8
0
100
AcDbTrace
 62
5
  6
CONTINUOUS
 10
205.1908931608
 20
235.1090434686
 11
206.4501524201
 21
235.4053389172
 12
206.4501524201
 22
235.1090434686
 13
206.4501524201
 23
235.1090434686
  0
SOLID
  5
37D
100
AcDbEntity
  8
0
100
AcDbTrace
 62
5
  6
CONTINUOUS
 10
210.4501524201
 20
235.3312608871
 11
211.7094116793
 21
235.4053389172
 12
211.6353376052
 22
234.9608905168
 13
211.6353376052
 23
234.9608905168
  0
SOLID
  5
37E
100
AcDbEntity
  8
0
100
AcDbTrace
 62
5
  6
CONTINUOUS
 10
211.6353376052
 20
234.9608905168
 11
210.376078346
 21
234.8127378475
 12
210.4501524201
 22
235.3312608871
 13
210.4501524201
 23
235.3312608871
  0
SOLID
  5
37F
100
AcDbEntity
  8
0
100
AcDbTrace
 62
5
  6
CONTINUOUS
 10
206.4501524201
 20
235.1090434686
 11
206.4501524201
 21
234.8127378475
 12
205.3390413089
 22
234.6645942205
 13
205.3390413089
 23
234.6645942205
  0
SOLID
  5
380
100
AcDbEntity
  8
0
100
AcDbTrace
 62
5
  6
CONTINUOUS
 10
206.4501524201
 20
235.1090434686
 11
205.3390413089
 21
234.6645942205
 12
205.1908931608
 22
235.1090434686
 13
205.1908931608
 23
235.1090434686
  0
SOLID
  5
381
100
AcDbEntity
  8
0
100
AcDbTrace
 62
5
  6
CONTINUOUS
 10
205.3390413089
 20
234.6645942205
 11
206.4501524201
 21
234.8127378475
 12
206.5983005682
 22
234.5164422576
 13
206.5983005682
 23
234.5164422576
  0
SOLID
  5
382
100
AcDbEntity
  8
0
100
AcDbTrace
 62
5
  6
CONTINUOUS
 10
210.376078346
 20
234.8127378475
 11
211.6353376052
 21
234.9608905168
 12
211.5612635312
 22
234.5164422576
 13
211.5612635312
 23
234.5164422576
  0
SOLID
  5
383
100
AcDbEntity
  8
0
100
AcDbTrace
 62
5
  6
CONTINUOUS
 10
211.5612635312
 20
234.5164422576
 11
210.3020042719
 21
234.3682979242
 12
210.376078346
 22
234.8127378475
 13
210.376078346
 23
234.8127378475
  0
SOLID
  5
384
100
AcDbEntity
  8
0
100
AcDbTrace
 62
5
  6
CONTINUOUS
 10
206.5983005682
 20
234.5164422576
 11
205.4871894571
 21
234.220146809
 12
205.3390413089
 22
234.6645942205
 13
205.3390413089
 23
234.6645942205
  0
SOLID
  5
385
100
AcDbEntity
  8
0
100
AcDbTrace
 62
5
  6
CONTINUOUS
 10
205.4871894571
 20
234.220146809
 11
206.5983005682
 21
234.5164422576
 12
206.6723746423
 22
234.220146809
 13
206.6723746423
 23
234.220146809
  0
SOLID
  5
386
100
AcDbEntity
  8
0
100
AcDbTrace
 62
5
  6
CONTINUOUS
 10
210.3020042719
 20
234.3682979242
 11
211.5612635312
 21
234.5164422576
 12
211.413115383
 22
234.0720016279
 13
211.413115383
 23
234.0720016279
  0
SOLID
  5
387
100
AcDbEntity
  8
0
100
AcDbTrace
 62
5
  6
CONTINUOUS
 10
211.413115383
 20
234.0720016279
 11
210.0797820497
 21
233.9979275538
 12
210.3020042719
 22
234.3682979242
 13
210.3020042719
 23
234.3682979242
  0
SOLID
  5
388
100
AcDbEntity
  8
0
100
AcDbTrace
 62
5
  6
CONTINUOUS
 10
206.6723746423
 20
234.220146809
 11
206.8205227904
 21
233.9238534797
 12
205.6353376052
 22
233.7757053316
 13
205.6353376052
 23
233.7757053316
  0
SOLID
  5
389
100
AcDbEntity
  8
0
100
AcDbTrace
 62
5
  6
CONTINUOUS
 10
206.6723746423
 20
234.220146809
 11
205.6353376052
 21
233.7757053316
 12
205.4871894571
 22
234.220146809
 13
205.4871894571
 23
234.220146809
  0
SOLID
  5
38A
100
AcDbEntity
  8
0
100
AcDbTrace
 62
5
  6
CONTINUOUS
 10
205.6353376052
 20
233.7757053316
 11
206.8205227904
 21
233.9238534797
 12
207.0427450126
 22
233.7016271602
 13
207.0427450126
 23
233.7016271602
  0
SOLID
  5
38B
100
AcDbEntity
  8
0
100
AcDbTrace
 62
5
  6
CONTINUOUS
 10
209.8575598275
 20
233.7016271602
 11
210.0797820497
 21
233.9979275538
 12
211.413115383
 22
234.0720016279
 13
211.413115383
 23
234.0720016279
  0
SOLID
  5
38C
100
AcDbEntity
  8
0
100
AcDbTrace
 62
5
  6
CONTINUOUS
 10
209.8575598275
 20
233.7016271602
 11
211.413115383
 21
234.0720016279
 12
211.2649672349
 22
233.7016271602
 13
211.2649672349
 23
233.7016271602
  0
SOLID
  5
38D
100
AcDbEntity
  8
0
100
AcDbTrace
 62
5
  6
CONTINUOUS
 10
207.0427450126
 20
233.7016271602
 11
207.1908931608
 21
233.5534831094
 12
205.8575598275
 22
233.4794090353
 13
205.8575598275
 23
233.4794090353
  0
SOLID
  5
38E
100
AcDbEntity
  8
0
100
AcDbTrace
 62
5
  6
CONTINUOUS
 10
207.0427450126
 20
233.7016271602
 11
205.8575598275
 21
233.4794090353
 12
205.6353376052
 22
233.7757053316
 13
205.6353376052
 23
233.7757053316
  0
SOLID
  5
38F
100
AcDbEntity
  8
0
100
AcDbTrace
 62
5
  6
CONTINUOUS
 10
211.2649672349
 20
233.7016271602
 11
209.5612635312
 21
233.4053349612
 12
209.8575598275
 22
233.7016271602
 13
209.8575598275
 23
233.7016271602
  0
SOLID
  5
390
100
AcDbEntity
  8
0
100
AcDbTrace
 62
5
  6
CONTINUOUS
 10
205.8575598275
 20
233.4794090353
 11
207.1908931608
 21
233.5534831094
 12
207.413115383
 22
233.3312603926
 13
207.413115383
 23
233.3312603926
  0
SOLID
  5
391
100
AcDbEntity
  8
0
100
AcDbTrace
 62
5
  6
CONTINUOUS
 10
209.5612635312
 20
233.4053349612
 11
211.2649672349
 21
233.7016271602
 12
211.0427450126
 22
233.3312603926
 13
211.0427450126
 23
233.3312603926
  0
SOLID
  5
392
100
AcDbEntity
  8
0
100
AcDbTrace
 62
5
  6
CONTINUOUS
 10
211.0427450126
 20
233.3312603926
 11
209.2649672349
 21
233.257189003
 12
209.5612635312
 22
233.4053349612
 13
209.5612635312
 23
233.4053349612
  0
SOLID
  5
393
100
AcDbEntity
  8
0
100
AcDbTrace
 62
5
  6
CONTINUOUS
 10
207.413115383
 20
233.3312603926
 11
207.7094116793
 21
233.257189003
 12
206.0797820497
 22
233.183112739
 13
206.0797820497
 23
233.183112739
  0
SOLID
  5
394
100
AcDbEntity
  8
0
100
AcDbTrace
 62
5
  6
CONTINUOUS
 10
207.413115383
 20
233.3312603926
 11
206.0797820497
 21
233.183112739
 12
205.8575598275
 22
233.4794090353
 13
205.8575598275
 23
233.4794090353
  0
SOLID
  5
395
100
AcDbEntity
  8
0
100
AcDbTrace
 62
5
  6
CONTINUOUS
 10
206.0797820497
 20
233.183112739
 11
207.7094116793
 21
233.257189003
 12
207.9316339015
 22
233.1090361924
 13
207.9316339015
 23
233.1090361924
  0
SOLID
  5
396
100
AcDbEntity
  8
0
100
AcDbTrace
 62
5
  6
CONTINUOUS
 10
208.8945968645
 20
233.1090361924
 11
209.2649672349
 21
233.257189003
 12
211.0427450126
 22
233.3312603926
 13
211.0427450126
 23
233.3312603926
  0
SOLID
  5
397
100
AcDbEntity
  8
0
100
AcDbTrace
 62
5
  6
CONTINUOUS
 10
208.8945968645
 20
233.1090361924
 11
211.0427450126
 21
233.3312603926
 12
210.8205227904
 22
232.9608905168
 13
210.8205227904
 23
232.9608905168
  0
SOLID
  5
398
100
AcDbEntity
  8
0
100
AcDbTrace
 62
5
  6
CONTINUOUS
 10
208.8945968645
 20
233.1090361924
 11
210.8205227904
 21
232.9608905168
 12
206.3020042719
 22
232.8868164427
 13
206.3020042719
 23
232.8868164427
  0
SOLID
  5
399
100
AcDbEntity
  8
0
100
AcDbTrace
 62
5
  6
CONTINUOUS
 10
208.4501524201
 20
233.1090361924
 11
208.8945968645
 21
233.1090361924
 12
206.3020042719
 22
232.8868164427
 13
206.3020042719
 23
232.8868164427
  0
SOLID
  5
39A
100
AcDbEntity
  8
0
100
AcDbTrace
 62
5
  6
CONTINUOUS
 10
208.2279301978
 20
233.1090361924
 11
208.4501524201
 21
233.1090361924
 12
206.3020042719
 22
232.8868164427
 13
206.3020042719
 23
232.8868164427
  0
SOLID
  5
39B
100
AcDbEntity
  8
0
100
AcDbTrace
 62
5
  6
CONTINUOUS
 10
207.9316339015
 20
233.1090361924
 11
208.2279301978
 21
233.1090361924
 12
206.3020042719
 22
232.8868164427
 13
206.3020042719
 23
232.8868164427
  0
SOLID
  5
39C
100
AcDbEntity
  8
0
100
AcDbTrace
 62
5
  6
CONTINUOUS
 10
207.9316339015
 20
233.1090361924
 11
206.3020042719
 21
232.8868164427
 12
206.0797820497
 22
233.183112739
 13
206.0797820497
 23
233.183112739
  0
SOLID
  5
39D
100
AcDbEntity
  8
0
100
AcDbTrace
 62
5
  6
CONTINUOUS
 10
206.5983005682
 20
232.6645980705
 11
206.3020042719
 21
232.8868164427
 12
210.8205227904
 22
232.9608905168
 13
210.8205227904
 23
232.9608905168
  0
SOLID
  5
39E
100
AcDbEntity
  8
0
100
AcDbTrace
 62
5
  6
CONTINUOUS
 10
206.5983005682
 20
232.6645980705
 11
210.8205227904
 21
232.9608905168
 12
210.5242264941
 22
232.6645980705
 13
210.5242264941
 23
232.6645980705
  0
SOLID
  5
39F
100
AcDbEntity
  8
0
100
AcDbTrace
 62
5
  6
CONTINUOUS
 10
210.5242264941
 20
232.6645980705
 11
206.8205227904
 21
232.4423739233
 12
206.5983005682
 22
232.6645980705
 13
206.5983005682
 23
232.6645980705
  0
SOLID
  5
3A0
100
AcDbEntity
  8
0
100
AcDbTrace
 62
5
  6
CONTINUOUS
 10
206.8205227904
 20
232.4423739233
 11
210.5242264941
 21
232.6645980705
 12
210.1538561238
 22
232.4423739233
 13
210.1538561238
 23
232.4423739233
  0
SOLID
  5
3A1
100
AcDbEntity
  8
0
100
AcDbTrace
 62
5
  6
CONTINUOUS
 10
210.1538561238
 20
232.4423739233
 11
207.1908931608
 21
232.2942211083
 12
206.8205227904
 22
232.4423739233
 13
206.8205227904
 23
232.4423739233
  0
SOLID
  5
3A2
100
AcDbEntity
  8
0
100
AcDbTrace
 62
5
  6
CONTINUOUS
 10
207.1908931608
 20
232.2942211083
 11
210.1538561238
 21
232.4423739233
 12
209.7834857534
 22
232.2942211083
 13
209.7834857534
 23
232.2942211083
  0
SOLID
  5
3A3
100
AcDbEntity
  8
0
100
AcDbTrace
 62
5
  6
CONTINUOUS
 10
209.7834857534
 20
232.2942211083
 11
207.4871894571
 21
232.220149776
 12
207.1908931608
 22
232.2942211083
 13
207.1908931608
 23
232.2942211083
  0
SOLID
  5
3A4
100
AcDbEntity
  8
0
100
AcDbTrace
 62
5
  6
CONTINUOUS
 10
207.4871894571
 20
232.220149776
 11
209.7834857534
 21
232.2942211083
 12
209.413115383
 22
232.220149776
 13
209.413115383
 23
232.220149776
  0
SOLID
  5
3A5
100
AcDbEntity
  8
0
100
AcDbTrace
 62
5
  6
CONTINUOUS
 10
209.413115383
 20
232.220149776
 11
207.7834857534
 21
232.1460784438
 12
207.4871894571
 22
232.220149776
 13
207.4871894571
 23
232.220149776
  0
SOLID
  5
3A6
100
AcDbEntity
  8
0
100
AcDbTrace
 62
5
  6
CONTINUOUS
 10
208.1538561238
 20
232.1460784438
 11
207.7834857534
 21
232.1460784438
 12
209.413115383
 22
232.220149776
 13
209.413115383
 23
232.220149776
  0
SOLID
  5
3A7
100
AcDbEntity
  8
0
100
AcDbTrace
 62
5
  6
CONTINUOUS
 10
208.1538561238
 20
232.1460784438
 11
209.413115383
 21
232.220149776
 12
208.9686709386
 22
232.1460784438
 13
208.9686709386
 23
232.1460784438
  0
SOLID
  5
3A8
100
AcDbEntity
  8
0
100
AcDbTrace
 62
5
  6
CONTINUOUS
 10
208.9686709386
 20
232.1460784438
 11
208.5242264941
 21
232.0720016279
 12
208.1538561238
 22
232.1460784438
 13
208.1538561238
 23
232.1460784438
  0
SOLID
  5
3A9
100
AcDbEntity
  8
0
100
AcDbTrace
 62
5
  6
CONTINUOUS
 10
215.0427450126
 20
240.8127395429
 11
218.8945968645
 21
242.0719993673
 12
218.8945968645
 22
240.8127395429
 13
218.8945968645
 23
240.8127395429
  0
SOLID
  5
3AA
100
AcDbEntity
  8
0
100
AcDbTrace
 62
5
  6
CONTINUOUS
 10
215.8575598275
 20
238.8127395429
 11
216.376078346
 21
238.8868164427
 12
216.9686709386
 22
238.8127395429
 13
216.9686709386
 23
238.8127395429
  0
SOLID
  5
3AB
100
AcDbEntity
  8
0
100
AcDbTrace
 62
5
  6
CONTINUOUS
 10
216.9686709386
 20
238.8127395429
 11
215.413115383
 21
238.6645942205
 12
215.8575598275
 22
238.8127395429
 13
215.8575598275
 23
238.8127395429
  0
SOLID
  5
3AC
100
AcDbEntity
  8
0
100
AcDbTrace
 62
5
  6
CONTINUOUS
 10
215.413115383
 20
238.6645942205
 11
216.9686709386
 21
238.8127395429
 12
217.5612635312
 22
238.5905201464
 13
217.5612635312
 23
238.5905201464
  0
SOLID
  5
3AD
100
AcDbEntity
  8
0
100
AcDbTrace
 62
5
  6
CONTINUOUS
 10
217.5612635312
 20
238.5905201464
 11
214.9686709386
 21
238.4423719983
 12
215.413115383
 22
238.6645942205
 13
215.413115383
 23
238.6645942205
  0
SOLID
  5
3AE
100
AcDbEntity
  8
0
100
AcDbTrace
 62
5
  6
CONTINUOUS
 10
214.9686709386
 20
238.4423719983
 11
217.5612635312
 21
238.5905201464
 12
218.0057079756
 22
238.3682979242
 13
218.0057079756
 23
238.3682979242
  0
SOLID
  5
3AF
100
AcDbEntity
  8
0
100
AcDbTrace
 62
5
  6
CONTINUOUS
 10
218.0057079756
 20
238.3682979242
 11
214.5242264941
 21
238.146075702
 12
214.9686709386
 22
238.4423719983
 13
214.9686709386
 23
238.4423719983
  0
SOLID
  5
3B0
100
AcDbEntity
  8
0
100
AcDbTrace
 62
5
  6
CONTINUOUS
 10
214.5242264941
 20
238.146075702
 11
218.0057079756
 21
238.3682979242
 12
218.5242264941
 22
237.9238534797
 13
218.5242264941
 23
237.9238534797
  0
SOLID
  5
3B1
100
AcDbEntity
  8
0
100
AcDbTrace
 62
5
  6
CONTINUOUS
 10
215.4871894571
 20
237.6275600091
 11
216.0797820497
 21
237.7016312575
 12
215.7834857534
 22
237.6275600091
 13
215.7834857534
 23
237.6275600091
  0
SOLID
  5
3B2
100
AcDbEntity
  8
0
100
AcDbTrace
 62
5
  6
CONTINUOUS
 10
216.5242264941
 20
237.6275600091
 11
216.0797820497
 21
237.7016312575
 12
218.5242264941
 22
237.9238534797
 13
218.5242264941
 23
237.9238534797
  0
SOLID
  5
3B3
100
AcDbEntity
  8
0
100
AcDbTrace
 62
5
  6
CONTINUOUS
 10
216.9686709386
 20
237.5534797185
 11
216.5242264941
 21
237.6275600091
 12
218.5242264941
 22
237.9238534797
 13
218.5242264941
 23
237.9238534797
  0
SOLID
  5
3B4
100
AcDbEntity
  8
0
100
AcDbTrace
 62
5
  6
CONTINUOUS
 10
216.9686709386
 20
237.5534797185
 11
218.5242264941
 21
237.9238534797
 12
218.8945968645
 22
237.4794090353
 13
218.8945968645
 23
237.4794090353
  0
SOLID
  5
3B5
100
AcDbEntity
  8
0
100
AcDbTrace
 62
5
  6
CONTINUOUS
 10
218.8945968645
 20
237.4794090353
 11
217.2649672349
 21
237.3312608871
 12
216.9686709386
 22
237.5534797185
 13
216.9686709386
 23
237.5534797185
  0
SOLID
  5
3B6
100
AcDbEntity
  8
0
100
AcDbTrace
 62
5
  6
CONTINUOUS
 10
215.0427450126
 20
237.4053349612
 11
214.6723746423
 21
237.1090397952
 12
213.1168190867
 22
236.9608905168
 13
213.1168190867
 23
236.9608905168
  0
SOLID
  5
3B7
100
AcDbEntity
  8
0
100
AcDbTrace
 62
5
  6
CONTINUOUS
 10
215.2649672349
 20
237.5534797185
 11
215.0427450126
 21
237.4053349612
 12
213.1168190867
 22
236.9608905168
 13
213.1168190867
 23
236.9608905168
  0
SOLID
  5
3B8
100
AcDbEntity
  8
0
100
AcDbTrace
 62
5
  6
CONTINUOUS
 10
215.4871894571
 20
237.6275600091
 11
215.2649672349
 21
237.5534797185
 12
213.1168190867
 22
236.9608905168
 13
213.1168190867
 23
236.9608905168
  0
SOLID
  5
3B9
100
AcDbEntity
  8
0
100
AcDbTrace
 62
5
  6
CONTINUOUS
 10
214.5242264941
 20
238.146075702
 11
218.5242264941
 21
237.9238534797
 12
216.0797820497
 22
237.7016312575
 13
216.0797820497
 23
237.7016312575
  0
SOLID
  5
3BA
100
AcDbEntity
  8
0
100
AcDbTrace
 62
5
  6
CONTINUOUS
 10
214.5242264941
 20
238.146075702
 11
216.0797820497
 21
237.7016312575
 12
215.4871894571
 22
237.6275600091
 13
215.4871894571
 23
237.6275600091
  0
SOLID
  5
3BB
100
AcDbEntity
  8
0
100
AcDbTrace
 62
5
  6
CONTINUOUS
 10
214.5242264941
 20
238.146075702
 11
215.4871894571
 21
237.6275600091
 12
213.1168190867
 22
236.9608905168
 13
213.1168190867
 23
236.9608905168
  0
SOLID
  5
3BC
100
AcDbEntity
  8
0
100
AcDbTrace
 62
5
  6
CONTINUOUS
 10
215.0427450126
 20
240.8127395429
 11
214.5242264941
 21
238.146075702
 12
213.1168190867
 22
236.9608905168
 13
213.1168190867
 23
236.9608905168
  0
SOLID
  5
3BD
100
AcDbEntity
  8
0
100
AcDbTrace
 62
5
  6
CONTINUOUS
 10
214.1538561238
 20
242.0719993673
 11
218.8945968645
 21
242.0719993673
 12
215.0427450126
 22
240.8127395429
 13
215.0427450126
 23
240.8127395429
  0
SOLID
  5
3BE
100
AcDbEntity
  8
0
100
AcDbTrace
 62
5
  6
CONTINUOUS
 10
215.0427450126
 20
240.8127395429
 11
213.1168190867
 21
236.9608905168
 12
214.1538561238
 22
242.0719993673
 13
214.1538561238
 23
242.0719993673
  0
SOLID
  5
3BF
100
AcDbEntity
  8
0
100
AcDbTrace
 62
5
  6
CONTINUOUS
 10
217.5612635312
 20
237.1090397952
 11
217.2649672349
 21
237.3312608871
 12
218.8945968645
 22
237.4794090353
 13
218.8945968645
 23
237.4794090353
  0
SOLID
  5
3C0
100
AcDbEntity
  8
0
100
AcDbTrace
 62
5
  6
CONTINUOUS
 10
217.5612635312
 20
237.1090397952
 11
218.8945968645
 21
237.4794090353
 12
219.1908931608
 22
236.8868164427
 13
219.1908931608
 23
236.8868164427
  0
SOLID
  5
3C1
100
AcDbEntity
  8
0
100
AcDbTrace
 62
5
  6
CONTINUOUS
 10
213.1168190867
 20
236.9608905168
 11
214.6723746423
 21
237.1090397952
 12
214.376078346
 22
236.8127423686
 13
214.376078346
 23
236.8127423686
  0
SOLID
  5
3C2
100
AcDbEntity
  8
0
100
AcDbTrace
 62
5
  6
CONTINUOUS
 10
219.1908931608
 20
236.8868164427
 11
217.7834857534
 21
236.7386682946
 12
217.5612635312
 22
237.1090397952
 13
217.5612635312
 23
237.1090397952
  0
SOLID
  5
3C3
100
AcDbEntity
  8
0
100
AcDbTrace
 62
5
  6
CONTINUOUS
 10
218.0057079756
 20
236.3682979242
 11
217.7834857534
 21
236.7386682946
 12
219.1908931608
 22
236.8868164427
 13
219.1908931608
 23
236.8868164427
  0
SOLID
  5
3C4
100
AcDbEntity
  8
0
100
AcDbTrace
 62
5
  6
CONTINUOUS
 10
218.0057079756
 20
236.3682979242
 11
219.1908931608
 21
236.8868164427
 12
219.3390413089
 22
236.2942238501
 13
219.3390413089
 23
236.2942238501
  0
SOLID
  5
3C5
100
AcDbEntity
  8
0
100
AcDbTrace
 62
5
  6
CONTINUOUS
 10
219.3390413089
 20
236.2942238501
 11
218.0797820497
 21
235.9238534797
 12
218.0057079756
 22
236.3682979242
 13
218.0057079756
 23
236.3682979242
  0
SOLID
  5
3C6
100
AcDbEntity
  8
0
100
AcDbTrace
 62
5
  6
CONTINUOUS
 10
218.0797820497
 20
235.9238534797
 11
219.3390413089
 21
236.2942238501
 12
219.413115383
 22
235.6275571834
 13
219.413115383
 23
235.6275571834
  0
SOLID
  5
3C7
100
AcDbEntity
  8
0
100
AcDbTrace
 62
5
  6
CONTINUOUS
 10
219.413115383
 20
235.6275571834
 11
218.1538561238
 21
235.4794090353
 12
218.0797820497
 22
235.9238534797
 13
218.0797820497
 23
235.9238534797
  0
SOLID
  5
3C8
100
AcDbEntity
  8
0
100
AcDbTrace
 62
5
  6
CONTINUOUS
 10
218.0797820497
 20
234.9608896691
 11
218.1538561238
 21
235.4794090353
 12
219.413115383
 22
235.6275571834
 13
219.413115383
 23
235.6275571834
  0
SOLID
  5
3C9
100
AcDbEntity
  8
0
100
AcDbTrace
 62
5
  6
CONTINUOUS
 10
218.0797820497
 20
234.9608896691
 11
219.413115383
 21
235.6275571834
 12
219.3390413089
 22
234.9608896691
 13
219.3390413089
 23
234.9608896691
  0
SOLID
  5
3CA
100
AcDbEntity
  8
0
100
AcDbTrace
 62
5
  6
CONTINUOUS
 10
212.9686709386
 20
234.8868164427
 11
214.2279301978
 21
234.9608896691
 12
214.3020042719
 22
234.5164497457
 13
214.3020042719
 23
234.5164497457
  0
SOLID
  5
3CB
100
AcDbEntity
  8
0
100
AcDbTrace
 62
5
  6
CONTINUOUS
 10
219.3390413089
 20
234.9608896691
 11
218.0057079756
 21
234.5164497457
 12
218.0797820497
 22
234.9608896691
 13
218.0797820497
 23
234.9608896691
  0
SOLID
  5
3CC
100
AcDbEntity
  8
0
100
AcDbTrace
 62
5
  6
CONTINUOUS
 10
218.0057079756
 20
234.5164497457
 11
219.3390413089
 21
234.9608896691
 12
219.1908931608
 22
234.3682979242
 13
219.1908931608
 23
234.3682979242
  0
SOLID
  5
3CD
100
AcDbEntity
  8
0
100
AcDbTrace
 62
5
  6
CONTINUOUS
 10
214.3020042719
 20
234.5164497457
 11
213.0427450126
 21
234.220149776
 12
212.9686709386
 22
234.8868164427
 13
212.9686709386
 23
234.8868164427
  0
SOLID
  5
3CE
100
AcDbEntity
  8
0
100
AcDbTrace
 62
5
  6
CONTINUOUS
 10
213.0427450126
 20
234.220149776
 11
214.3020042719
 21
234.5164497457
 12
214.4501524201
 22
234.146075702
 13
214.4501524201
 23
234.146075702
  0
SOLID
  5
3CF
100
AcDbEntity
  8
0
100
AcDbTrace
 62
5
  6
CONTINUOUS
 10
219.1908931608
 20
234.3682979242
 11
217.7834857534
 21
234.0720016279
 12
218.0057079756
 22
234.5164497457
 13
218.0057079756
 23
234.5164497457
  0
SOLID
  5
3D0
100
AcDbEntity
  8
0
100
AcDbTrace
 62
5
  6
CONTINUOUS
 10
217.7834857534
 20
234.0720016279
 11
219.1908931608
 21
234.3682979242
 12
218.9686709386
 22
233.7757097114
 13
218.9686709386
 23
233.7757097114
  0
SOLID
  5
3D1
100
AcDbEntity
  8
0
100
AcDbTrace
 62
5
  6
CONTINUOUS
 10
214.4501524201
 20
234.146075702
 11
214.5983005682
 21
233.7757097114
 12
213.2649672349
 22
233.7016298447
 13
213.2649672349
 23
233.7016298447
  0
SOLID
  5
3D2
100
AcDbEntity
  8
0
100
AcDbTrace
 62
5
  6
CONTINUOUS
 10
214.4501524201
 20
234.146075702
 11
213.2649672349
 21
233.7016298447
 12
213.0427450126
 22
234.220149776
 13
213.0427450126
 23
234.220149776
  0
SOLID
  5
3D3
100
AcDbEntity
  8
0
100
AcDbTrace
 62
5
  6
CONTINUOUS
 10
218.9686709386
 20
233.7757097114
 11
217.5612635312
 21
233.7016298447
 12
217.7834857534
 22
234.0720016279
 13
217.7834857534
 23
234.0720016279
  0
SOLID
  5
3D4
100
AcDbEntity
  8
0
100
AcDbTrace
 62
5
  6
CONTINUOUS
 10
213.2649672349
 20
233.7016298447
 11
214.5983005682
 21
233.7757097114
 12
214.8205227904
 22
233.5534831094
 13
214.8205227904
 23
233.5534831094
  0
SOLID
  5
3D5
100
AcDbEntity
  8
0
100
AcDbTrace
 62
5
  6
CONTINUOUS
 10
214.8205227904
 20
233.5534831094
 11
215.1168190867
 21
233.3312608871
 12
213.4871894571
 22
233.2571897801
 13
213.4871894571
 23
233.2571897801
  0
SOLID
  5
3D6
100
AcDbEntity
  8
0
100
AcDbTrace
 62
5
  6
CONTINUOUS
 10
214.8205227904
 20
233.5534831094
 11
213.4871894571
 21
233.2571897801
 12
213.2649672349
 22
233.7016298447
 13
213.2649672349
 23
233.7016298447
  0
SOLID
  5
3D7
100
AcDbEntity
  8
0
100
AcDbTrace
 62
5
  6
CONTINUOUS
 10
217.2649672349
 20
233.4053349612
 11
217.5612635312
 21
233.7016298447
 12
218.9686709386
 22
233.7757097114
 13
218.9686709386
 23
233.7757097114
  0
SOLID
  5
3D8
100
AcDbEntity
  8
0
100
AcDbTrace
 62
5
  6
CONTINUOUS
 10
216.8945968645
 20
233.2571897801
 11
217.2649672349
 21
233.4053349612
 12
218.9686709386
 22
233.7757097114
 13
218.9686709386
 23
233.7757097114
  0
SOLID
  5
3D9
100
AcDbEntity
  8
0
100
AcDbTrace
 62
5
  6
CONTINUOUS
 10
216.8945968645
 20
233.2571897801
 11
218.9686709386
 21
233.7757097114
 12
218.5983005682
 22
233.2571897801
 13
218.5983005682
 23
233.2571897801
  0
SOLID
  5
3DA
100
AcDbEntity
  8
0
100
AcDbTrace
 62
5
  6
CONTINUOUS
 10
213.4871894571
 20
233.2571897801
 11
215.1168190867
 21
233.3312608871
 12
215.3390413089
 22
233.183112739
 13
215.3390413089
 23
233.183112739
  0
SOLID
  5
3DB
100
AcDbEntity
  8
0
100
AcDbTrace
 62
5
  6
CONTINUOUS
 10
218.5983005682
 20
233.2571897801
 11
216.5242264941
 21
233.1090397952
 12
216.8945968645
 22
233.2571897801
 13
216.8945968645
 23
233.2571897801
  0
SOLID
  5
3DC
100
AcDbEntity
  8
0
100
AcDbTrace
 62
5
  6
CONTINUOUS
 10
216.5242264941
 20
233.1090397952
 11
218.5983005682
 21
233.2571897801
 12
218.376078346
 22
232.9608905168
 13
218.376078346
 23
232.9608905168
  0
SOLID
  5
3DD
100
AcDbEntity
  8
0
100
AcDbTrace
 62
5
  6
CONTINUOUS
 10
216.5242264941
 20
233.1090397952
 11
218.376078346
 21
232.9608905168
 12
213.8575598275
 22
232.8127423686
 13
213.8575598275
 23
232.8127423686
  0
SOLID
  5
3DE
100
AcDbEntity
  8
0
100
AcDbTrace
 62
5
  6
CONTINUOUS
 10
216.0797820497
 20
233.1090397952
 11
216.5242264941
 21
233.1090397952
 12
213.8575598275
 22
232.8127423686
 13
213.8575598275
 23
232.8127423686
  0
SOLID
  5
3DF
100
AcDbEntity
  8
0
100
AcDbTrace
 62
5
  6
CONTINUOUS
 10
215.7094116793
 20
233.1090397952
 11
216.0797820497
 21
233.1090397952
 12
213.8575598275
 22
232.8127423686
 13
213.8575598275
 23
232.8127423686
  0
SOLID
  5
3E0
100
AcDbEntity
  8
0
100
AcDbTrace
 62
5
  6
CONTINUOUS
 10
215.3390413089
 20
233.183112739
 11
215.7094116793
 21
233.1090397952
 12
213.8575598275
 22
232.8127423686
 13
213.8575598275
 23
232.8127423686
  0
SOLID
  5
3E1
100
AcDbEntity
  8
0
100
AcDbTrace
 62
5
  6
CONTINUOUS
 10
215.3390413089
 20
233.183112739
 11
213.8575598275
 21
232.8127423686
 12
213.4871894571
 22
233.2571897801
 13
213.4871894571
 23
233.2571897801
  0
SOLID
  5
3E2
100
AcDbEntity
  8
0
100
AcDbTrace
 62
5
  6
CONTINUOUS
 10
213.8575598275
 20
232.8127423686
 11
218.376078346
 21
232.9608905168
 12
218.0797820497
 22
232.7386682946
 13
218.0797820497
 23
232.7386682946
  0
SOLID
  5
3E3
100
AcDbEntity
  8
0
100
AcDbTrace
 62
5
  6
CONTINUOUS
 10
218.0797820497
 20
232.7386682946
 11
217.7834857534
 21
232.5164460723
 12
214.376078346
 22
232.4423719983
 13
214.376078346
 23
232.4423719983
  0
SOLID
  5
3E4
100
AcDbEntity
  8
0
100
AcDbTrace
 62
5
  6
CONTINUOUS
 10
218.0797820497
 20
232.7386682946
 11
214.376078346
 21
232.4423719983
 12
213.8575598275
 22
232.8127423686
 13
213.8575598275
 23
232.8127423686
  0
SOLID
  5
3E5
100
AcDbEntity
  8
0
100
AcDbTrace
 62
5
  6
CONTINUOUS
 10
214.376078346
 20
232.4423719983
 11
217.7834857534
 21
232.5164460723
 12
217.4871894571
 22
232.3682979242
 13
217.4871894571
 23
232.3682979242
  0
SOLID
  5
3E6
100
AcDbEntity
  8
0
100
AcDbTrace
 62
5
  6
CONTINUOUS
 10
217.4871894571
 20
232.3682979242
 11
214.8205227904
 21
232.220149776
 12
214.376078346
 22
232.4423719983
 13
214.376078346
 23
232.4423719983
  0
SOLID
  5
3E7
100
AcDbEntity
  8
0
100
AcDbTrace
 62
5
  6
CONTINUOUS
 10
216.8205227904
 20
232.220149776
 11
214.8205227904
 21
232.220149776
 12
217.4871894571
 22
232.3682979242
 13
217.4871894571
 23
232.3682979242
  0
SOLID
  5
3E8
100
AcDbEntity
  8
0
100
AcDbTrace
 62
5
  6
CONTINUOUS
 10
216.8205227904
 20
232.220149776
 11
217.4871894571
 21
232.3682979242
 12
217.1908931608
 22
232.220149776
 13
217.1908931608
 23
232.220149776
  0
SOLID
  5
3E9
100
AcDbEntity
  8
0
100
AcDbTrace
 62
5
  6
CONTINUOUS
 10
216.8205227904
 20
232.220149776
 11
215.413115383
 21
232.1460797772
 12
214.8205227904
 22
232.220149776
 13
214.8205227904
 23
232.220149776
  0
SOLID
  5
3EA
100
AcDbEntity
  8
0
100
AcDbTrace
 62
5
  6
CONTINUOUS
 10
215.413115383
 20
232.1460797772
 11
216.8205227904
 21
232.220149776
 12
216.4501524201
 22
232.1460797772
 13
216.4501524201
 23
232.1460797772
  0
SOLID
  5
3EB
100
AcDbEntity
  8
0
100
AcDbTrace
 62
5
  6
CONTINUOUS
 10
216.4501524201
 20
232.1460797772
 11
216.0797820497
 21
232.0720016279
 12
215.413115383
 22
232.1460797772
 13
215.413115383
 23
232.1460797772
  0
SOLID
  5
3EC
100
AcDbEntity
  8
0
100
AcDbTrace
 62
5
  6
CONTINUOUS
 10
223.3390413089
 20
242.1460734414
 11
223.8575598275
 21
242.220149776
 12
224.2279301978
 22
242.1460734414
 13
224.2279301978
 23
242.1460734414
  0
SOLID
  5
3ED
100
AcDbEntity
  8
0
100
AcDbTrace
 62
5
  6
CONTINUOUS
 10
224.2279301978
 20
242.1460734414
 11
222.8945968645
 21
242.0720027582
 12
223.3390413089
 22
242.1460734414
 13
223.3390413089
 23
242.1460734414
  0
SOLID
  5
3EE
100
AcDbEntity
  8
0
100
AcDbTrace
 62
5
  6
CONTINUOUS
 10
222.8945968645
 20
242.0720027582
 11
224.2279301978
 21
242.1460734414
 12
224.5983005682
 22
242.0720027582
 13
224.5983005682
 23
242.0720027582
  0
SOLID
  5
3EF
100
AcDbEntity
  8
0
100
AcDbTrace
 62
5
  6
CONTINUOUS
 10
224.5983005682
 20
242.0720027582
 11
224.9686709386
 21
241.9979275538
 12
222.4501524201
 22
241.8497782754
 13
222.4501524201
 23
241.8497782754
  0
SOLID
  5
3F0
100
AcDbEntity
  8
0
100
AcDbTrace
 62
5
  6
CONTINUOUS
 10
224.5983005682
 20
242.0720027582
 11
222.4501524201
 21
241.8497782754
 12
222.8945968645
 22
242.0720027582
 13
222.8945968645
 23
242.0720027582
  0
SOLID
  5
3F1
100
AcDbEntity
  8
0
100
AcDbTrace
 62
5
  6
CONTINUOUS
 10
222.4501524201
 20
241.8497782754
 11
224.9686709386
 21
241.9979275538
 12
225.2649672349
 22
241.8497782754
 13
225.2649672349
 23
241.8497782754
  0
SOLID
  5
3F2
100
AcDbEntity
  8
0
100
AcDbTrace
 62
5
  6
CONTINUOUS
 10
225.2649672349
 20
241.8497782754
 11
225.5612635312
 21
241.7016312575
 12
222.0797820497
 22
241.6275571834
 13
222.0797820497
 23
241.6275571834
  0
SOLID
  5
3F3
100
AcDbEntity
  8
0
100
AcDbTrace
 62
5
  6
CONTINUOUS
 10
225.2649672349
 20
241.8497782754
 11
222.0797820497
 21
241.6275571834
 12
222.4501524201
 22
241.8497782754
 13
222.4501524201
 23
241.8497782754
  0
SOLID
  5
3F4
100
AcDbEntity
  8
0
100
AcDbTrace
 62
5
  6
CONTINUOUS
 10
222.0797820497
 20
241.6275571834
 11
225.5612635312
 21
241.7016312575
 12
225.8575598275
 22
241.4794090353
 13
225.8575598275
 23
241.4794090353
  0
SOLID
  5
3F5
100
AcDbEntity
  8
0
100
AcDbTrace
 62
5
  6
CONTINUOUS
 10
225.8575598275
 20
241.4794090353
 11
221.7094116793
 21
241.3312608871
 12
222.0797820497
 22
241.6275571834
 13
222.0797820497
 23
241.6275571834
  0
SOLID
  5
3F6
100
AcDbEntity
  8
0
100
AcDbTrace
 62
5
  6
CONTINUOUS
 10
223.8575598275
 20
241.1831161298
 11
221.7094116793
 21
241.3312608871
 12
225.8575598275
 22
241.4794090353
 13
225.8575598275
 23
241.4794090353
  0
SOLID
  5
3F7
100
AcDbEntity
  8
0
100
AcDbTrace
 62
5
  6
CONTINUOUS
 10
223.8575598275
 20
241.1831161298
 11
225.8575598275
 21
241.4794090353
 12
226.0797820497
 22
241.1831161298
 13
226.0797820497
 23
241.1831161298
  0
SOLID
  5
3F8
100
AcDbEntity
  8
0
100
AcDbTrace
 62
5
  6
CONTINUOUS
 10
226.0797820497
 20
241.1831161298
 11
224.2279301978
 21
241.1090347089
 12
223.8575598275
 22
241.1831161298
 13
223.8575598275
 23
241.1831161298
  0
SOLID
  5
3F9
100
AcDbEntity
  8
0
100
AcDbTrace
 62
5
  6
CONTINUOUS
 10
224.5983005682
 20
240.9608916471
 11
224.2279301978
 21
241.1090347089
 12
226.0797820497
 22
241.1831161298
 13
226.0797820497
 23
241.1831161298
  0
SOLID
  5
3FA
100
AcDbEntity
  8
0
100
AcDbTrace
 62
5
  6
CONTINUOUS
 10
224.5983005682
 20
240.9608916471
 11
226.0797820497
 21
241.1831161298
 12
226.2279301978
 22
240.9608916471
 13
226.2279301978
 23
240.9608916471
  0
SOLID
  5
3FB
100
AcDbEntity
  8
0
100
AcDbTrace
 62
5
  6
CONTINUOUS
 10
223.413115383
 20
241.1090347089
 11
223.1168190867
 21
240.9608916471
 12
221.413115383
 22
240.8868164427
 13
221.413115383
 23
240.8868164427
  0
SOLID
  5
3FC
100
AcDbEntity
  8
0
100
AcDbTrace
 62
5
  6
CONTINUOUS
 10
223.8575598275
 20
241.1831161298
 11
223.413115383
 21
241.1090347089
 12
221.413115383
 22
240.8868164427
 13
221.413115383
 23
240.8868164427
  0
SOLID
  5
3FD
100
AcDbEntity
  8
0
100
AcDbTrace
 62
5
  6
CONTINUOUS
 10
223.8575598275
 20
241.1831161298
 11
221.413115383
 21
240.8868164427
 12
221.7094116793
 22
241.3312608871
 13
221.7094116793
 23
241.3312608871
  0
SOLID
  5
3FE
100
AcDbEntity
  8
0
100
AcDbTrace
 62
5
  6
CONTINUOUS
 10
221.413115383
 20
240.8868164427
 11
223.1168190867
 21
240.9608916471
 12
222.7464487164
 22
240.7386682946
 13
222.7464487164
 23
240.7386682946
  0
SOLID
  5
3FF
100
AcDbEntity
  8
0
100
AcDbTrace
 62
5
  6
CONTINUOUS
 10
226.2279301978
 20
240.9608916471
 11
224.9686709386
 21
240.6645942205
 12
224.5983005682
 22
240.9608916471
 13
224.5983005682
 23
240.9608916471
  0
SOLID
  5
400
100
AcDbEntity
  8
0
100
AcDbTrace
 62
5
  6
CONTINUOUS
 10
224.9686709386
 20
240.6645942205
 11
226.2279301978
 21
240.9608916471
 12
226.4501524201
 22
240.5905201464
 13
226.4501524201
 23
240.5905201464
  0
SOLID
  5
401
100
AcDbEntity
  8
0
100
AcDbTrace
 62
5
  6
CONTINUOUS
 10
222.7464487164
 20
240.7386682946
 11
221.1908931608
 21
240.4423719983
 12
221.413115383
 22
240.8868164427
 13
221.413115383
 23
240.8868164427
  0
SOLID
  5
402
100
AcDbEntity
  8
0
100
AcDbTrace
 62
5
  6
CONTINUOUS
 10
221.1908931608
 20
240.4423719983
 11
222.7464487164
 21
240.7386682946
 12
222.5242264941
 22
240.4423719983
 13
222.5242264941
 23
240.4423719983
  0
SOLID
  5
403
100
AcDbEntity
  8
0
100
AcDbTrace
 62
5
  6
CONTINUOUS
 10
226.4501524201
 20
240.5905201464
 11
225.2649672349
 21
240.3682979242
 12
224.9686709386
 22
240.6645942205
 13
224.9686709386
 23
240.6645942205
  0
SOLID
  5
404
100
AcDbEntity
  8
0
100
AcDbTrace
 62
5
  6
CONTINUOUS
 10
225.2649672349
 20
240.3682979242
 11
226.4501524201
 21
240.5905201464
 12
226.5983005682
 22
240.2942238501
 13
226.5983005682
 23
240.2942238501
  0
SOLID
  5
405
100
AcDbEntity
  8
0
100
AcDbTrace
 62
5
  6
CONTINUOUS
 10
226.5983005682
 20
240.2942238501
 11
225.413115383
 21
240.146075702
 12
225.2649672349
 22
240.3682979242
 13
225.2649672349
 23
240.3682979242
  0
SOLID
  5
406
100
AcDbEntity
  8
0
100
AcDbTrace
 62
5
  6
CONTINUOUS
 10
222.5242264941
 20
240.4423719983
 11
222.376078346
 21
240.220149776
 12
220.9686709386
 22
239.9979275538
 13
220.9686709386
 23
239.9979275538
  0
SOLID
  5
407
100
AcDbEntity
  8
0
100
AcDbTrace
 62
5
  6
CONTINUOUS
 10
222.5242264941
 20
240.4423719983
 11
220.9686709386
 21
239.9979275538
 12
221.1908931608
 22
240.4423719983
 13
221.1908931608
 23
240.4423719983
  0
SOLID
  5
408
100
AcDbEntity
  8
0
100
AcDbTrace
 62
5
  6
CONTINUOUS
 10
220.9686709386
 20
239.9979275538
 11
222.376078346
 21
240.220149776
 12
222.2279301978
 22
239.9238534797
 13
222.2279301978
 23
239.9238534797
  0
SOLID
  5
409
100
AcDbEntity
  8
0
100
AcDbTrace
 62
5
  6
CONTINUOUS
 10
225.4871894571
 20
239.8497811011
 11
225.413115383
 21
240.146075702
 12
226.5983005682
 22
240.2942238501
 13
226.5983005682
 23
240.2942238501
  0
SOLID
  5
40A
100
AcDbEntity
  8
0
100
AcDbTrace
 62
5
  6
CONTINUOUS
 10
225.4871894571
 20
239.8497811011
 11
226.5983005682
 21
240.2942238501
 12
226.7464487164
 22
239.8497811011
 13
226.7464487164
 23
239.8497811011
  0
SOLID
  5
40B
100
AcDbEntity
  8
0
100
AcDbTrace
 62
5
  6
CONTINUOUS
 10
226.7464487164
 20
239.8497811011
 11
225.6353376052
 21
239.4794045142
 12
225.4871894571
 22
239.8497811011
 13
225.4871894571
 23
239.8497811011
  0
SOLID
  5
40C
100
AcDbEntity
  8
0
100
AcDbTrace
 62
5
  6
CONTINUOUS
 10
225.6353376052
 20
239.4794045142
 11
226.7464487164
 21
239.8497811011
 12
226.8945968645
 22
239.4794045142
 13
226.8945968645
 23
239.4794045142
  0
SOLID
  5
40D
100
AcDbEntity
  8
0
100
AcDbTrace
 62
5
  6
CONTINUOUS
 10
222.2279301978
 20
239.9238534797
 11
222.1538561238
 21
239.5534831094
 12
220.8205227904
 22
239.4053349612
 13
220.8205227904
 23
239.4053349612
  0
SOLID
  5
40E
100
AcDbEntity
  8
0
100
AcDbTrace
 62
5
  6
CONTINUOUS
 10
222.2279301978
 20
239.9238534797
 11
220.8205227904
 21
239.4053349612
 12
220.9686709386
 22
239.9979275538
 13
220.9686709386
 23
239.9979275538
  0
SOLID
  5
40F
100
AcDbEntity
  8
0
100
AcDbTrace
 62
5
  6
CONTINUOUS
 10
220.8205227904
 20
239.4053349612
 11
222.1538561238
 21
239.5534831094
 12
222.0797820497
 22
239.183112739
 13
222.0797820497
 23
239.183112739
  0
SOLID
  5
410
100
AcDbEntity
  8
0
100
AcDbTrace
 62
5
  6
CONTINUOUS
 10
226.8945968645
 20
239.4794045142
 11
225.7094116793
 21
239.1090386649
 12
225.6353376052
 22
239.4794045142
 13
225.6353376052
 23
239.4794045142
  0
SOLID
  5
411
100
AcDbEntity
  8
0
100
AcDbTrace
 62
5
  6
CONTINUOUS
 10
225.7094116793
 20
239.1090386649
 11
226.8945968645
 21
239.4794045142
 12
226.9686709386
 22
238.9608905168
 13
226.9686709386
 23
238.9608905168
  0
SOLID
  5
412
100
AcDbEntity
  8
0
100
AcDbTrace
 62
5
  6
CONTINUOUS
 10
222.0797820497
 20
239.183112739
 11
220.7464487164
 21
238.7386705551
 12
220.8205227904
 22
239.4053349612
 13
220.8205227904
 23
239.4053349612
  0
SOLID
  5
413
100
AcDbEntity
  8
0
100
AcDbTrace
 62
5
  6
CONTINUOUS
 10
220.7464487164
 20
238.7386705551
 11
222.0797820497
 21
239.183112739
 12
222.0057079756
 22
238.7386705551
 13
222.0057079756
 23
238.7386705551
  0
SOLID
  5
414
100
AcDbEntity
  8
0
100
AcDbTrace
 62
5
  6
CONTINUOUS
 10
226.9686709386
 20
238.9608905168
 11
225.7094116793
 21
238.7386705551
 12
225.7094116793
 22
239.1090386649
 13
225.7094116793
 23
239.1090386649
  0
SOLID
  5
415
100
AcDbEntity
  8
0
100
AcDbTrace
 62
5
  6
CONTINUOUS
 10
225.7094116793
 20
238.7386705551
 11
226.9686709386
 21
238.9608905168
 12
227.0427450126
 22
238.4423719983
 13
227.0427450126
 23
238.4423719983
  0
SOLID
  5
416
100
AcDbEntity
  8
0
100
AcDbTrace
 62
5
  6
CONTINUOUS
 10
227.0427450126
 20
238.4423719983
 11
225.7834857534
 21
238.2201509063
 12
225.7094116793
 22
238.7386705551
 13
225.7094116793
 23
238.7386705551
  0
SOLID
  5
417
100
AcDbEntity
  8
0
100
AcDbTrace
 62
5
  6
CONTINUOUS
 10
222.0057079756
 20
238.7386705551
 11
221.9316339015
 21
238.2201509063
 12
220.6723746423
 22
237.9238534797
 13
220.6723746423
 23
237.9238534797
  0
SOLID
  5
418
100
AcDbEntity
  8
0
100
AcDbTrace
 62
5
  6
CONTINUOUS
 10
222.0057079756
 20
238.7386705551
 11
220.6723746423
 21
237.9238534797
 12
220.7464487164
 22
238.7386705551
 13
220.7464487164
 23
238.7386705551
  0
SOLID
  5
419
100
AcDbEntity
  8
0
100
AcDbTrace
 62
5
  6
CONTINUOUS
 10
225.7834857534
 20
238.2201509063
 11
227.0427450126
 21
238.4423719983
 12
227.0427450126
 22
237.7757053316
 13
227.0427450126
 23
237.7757053316
  0
SOLID
  5
41A
100
AcDbEntity
  8
0
100
AcDbTrace
 62
5
  6
CONTINUOUS
 10
220.6723746423
 20
237.9238534797
 11
221.9316339015
 21
238.2201509063
 12
221.9316339015
 22
237.7016312575
 13
221.9316339015
 23
237.7016312575
  0
SOLID
  5
41B
100
AcDbEntity
  8
0
100
AcDbTrace
 62
5
  6
CONTINUOUS
 10
227.0427450126
 20
237.7757053316
 11
225.7834857534
 21
237.7016312575
 12
225.7834857534
 22
238.2201509063
 13
225.7834857534
 23
238.2201509063
  0
SOLID
  5
41C
100
AcDbEntity
  8
0
100
AcDbTrace
 62
5
  6
CONTINUOUS
 10
221.9316339015
 20
237.7016312575
 11
220.6723746423
 21
237.1090403603
 12
220.6723746423
 22
237.9238534797
 13
220.6723746423
 23
237.9238534797
  0
SOLID
  5
41D
100
AcDbEntity
  8
0
100
AcDbTrace
 62
5
  6
CONTINUOUS
 10
220.6723746423
 20
237.1090403603
 11
221.9316339015
 21
237.7016312575
 12
221.9316339015
 22
237.1090403603
 13
221.9316339015
 23
237.1090403603
  0
SOLID
  5
41E
100
AcDbEntity
  8
0
100
AcDbTrace
 62
5
  6
CONTINUOUS
 10
225.8575598275
 20
237.1090403603
 11
225.7834857534
 21
237.7016312575
 12
227.0427450126
 22
237.7757053316
 13
227.0427450126
 23
237.7757053316
  0
SOLID
  5
41F
100
AcDbEntity
  8
0
100
AcDbTrace
 62
5
  6
CONTINUOUS
 10
225.8575598275
 20
237.1090403603
 11
227.0427450126
 21
237.7757053316
 12
227.1168190867
 22
237.1090403603
 13
227.1168190867
 23
237.1090403603
  0
SOLID
  5
420
100
AcDbEntity
  8
0
100
AcDbTrace
 62
5
  6
CONTINUOUS
 10
227.1168190867
 20
237.1090403603
 11
225.7834857534
 21
236.5164494632
 12
225.8575598275
 22
237.1090403603
 13
225.8575598275
 23
237.1090403603
  0
SOLID
  5
421
100
AcDbEntity
  8
0
100
AcDbTrace
 62
5
  6
CONTINUOUS
 10
221.9316339015
 20
237.1090403603
 11
221.9316339015
 21
236.5164494632
 12
220.6723746423
 22
236.4423719983
 13
220.6723746423
 23
236.4423719983
  0
SOLID
  5
422
100
AcDbEntity
  8
0
100
AcDbTrace
 62
5
  6
CONTINUOUS
 10
221.9316339015
 20
237.1090403603
 11
220.6723746423
 21
236.4423719983
 12
220.6723746423
 22
237.1090403603
 13
220.6723746423
 23
237.1090403603
  0
SOLID
  5
423
100
AcDbEntity
  8
0
100
AcDbTrace
 62
5
  6
CONTINUOUS
 10
225.7834857534
 20
236.5164494632
 11
227.1168190867
 21
237.1090403603
 12
227.0427450126
 22
236.2942238501
 13
227.0427450126
 23
236.2942238501
  0
SOLID
  5
424
100
AcDbEntity
  8
0
100
AcDbTrace
 62
5
  6
CONTINUOUS
 10
220.6723746423
 20
236.4423719983
 11
221.9316339015
 21
236.5164494632
 12
221.9316339015
 22
235.9979298144
 13
221.9316339015
 23
235.9979298144
  0
SOLID
  5
425
100
AcDbEntity
  8
0
100
AcDbTrace
 62
5
  6
CONTINUOUS
 10
227.0427450126
 20
236.2942238501
 11
225.7834857534
 21
235.9979298144
 12
225.7834857534
 22
236.5164494632
 13
225.7834857534
 23
236.5164494632
  0
SOLID
  5
426
100
AcDbEntity
  8
0
100
AcDbTrace
 62
5
  6
CONTINUOUS
 10
221.9316339015
 20
235.9979298144
 11
220.6723746423
 21
235.7757053316
 12
220.6723746423
 22
236.4423719983
 13
220.6723746423
 23
236.4423719983
  0
SOLID
  5
427
100
AcDbEntity
  8
0
100
AcDbTrace
 62
5
  6
CONTINUOUS
 10
225.7834857534
 20
235.9979298144
 11
227.0427450126
 21
236.2942238501
 12
226.9686709386
 22
235.5534831094
 13
226.9686709386
 23
235.5534831094
  0
SOLID
  5
428
100
AcDbEntity
  8
0
100
AcDbTrace
 62
5
  6
CONTINUOUS
 10
220.6723746423
 20
235.7757053316
 11
221.9316339015
 21
235.9979298144
 12
222.0057079756
 22
235.4794101656
 13
222.0057079756
 23
235.4794101656
  0
SOLID
  5
429
100
AcDbEntity
  8
0
100
AcDbTrace
 62
5
  6
CONTINUOUS
 10
226.9686709386
 20
235.5534831094
 11
225.7094116793
 21
235.4794101656
 12
225.7834857534
 22
235.9979298144
 13
225.7834857534
 23
235.9979298144
  0
SOLID
  5
42A
100
AcDbEntity
  8
0
100
AcDbTrace
 62
5
  6
CONTINUOUS
 10
222.0057079756
 20
235.4794101656
 11
220.7464487164
 21
235.2571868131
 12
220.6723746423
 22
235.7757053316
 13
220.6723746423
 23
235.7757053316
  0
SOLID
  5
42B
100
AcDbEntity
  8
0
100
AcDbTrace
 62
5
  6
CONTINUOUS
 10
220.7464487164
 20
235.2571868131
 11
222.0057079756
 21
235.4794101656
 12
222.0057079756
 22
235.0349620477
 13
222.0057079756
 23
235.0349620477
  0
SOLID
  5
42C
100
AcDbEntity
  8
0
100
AcDbTrace
 62
5
  6
CONTINUOUS
 10
225.7094116793
 20
235.0349620477
 11
225.7094116793
 21
235.4794101656
 12
226.9686709386
 22
235.5534831094
 13
226.9686709386
 23
235.5534831094
  0
SOLID
  5
42D
100
AcDbEntity
  8
0
100
AcDbTrace
 62
5
  6
CONTINUOUS
 10
225.7094116793
 20
235.0349620477
 11
226.9686709386
 21
235.5534831094
 12
226.8945968645
 22
234.8868164427
 13
226.8945968645
 23
234.8868164427
  0
SOLID
  5
42E
100
AcDbEntity
  8
0
100
AcDbTrace
 62
5
  6
CONTINUOUS
 10
222.0057079756
 20
235.0349620477
 11
220.8945968645
 21
234.6645950682
 12
220.7464487164
 22
235.2571868131
 13
220.7464487164
 23
235.2571868131
  0
SOLID
  5
42F
100
AcDbEntity
  8
0
100
AcDbTrace
 62
5
  6
CONTINUOUS
 10
220.8945968645
 20
234.6645950682
 11
222.0057079756
 21
235.0349620477
 12
222.1538561238
 22
234.6645950682
 13
222.1538561238
 23
234.6645950682
  0
SOLID
  5
430
100
AcDbEntity
  8
0
100
AcDbTrace
 62
5
  6
CONTINUOUS
 10
226.8945968645
 20
234.8868164427
 11
225.6353376052
 21
234.6645950682
 12
225.7094116793
 22
235.0349620477
 13
225.7094116793
 23
235.0349620477
  0
SOLID
  5
431
100
AcDbEntity
  8
0
100
AcDbTrace
 62
5
  6
CONTINUOUS
 10
225.4871894571
 20
234.3682996196
 11
225.6353376052
 21
234.6645950682
 12
226.8945968645
 22
234.8868164427
 13
226.8945968645
 23
234.8868164427
  0
SOLID
  5
432
100
AcDbEntity
  8
0
100
AcDbTrace
 62
5
  6
CONTINUOUS
 10
225.4871894571
 20
234.3682996196
 11
226.8945968645
 21
234.8868164427
 12
226.7464487164
 22
234.2942238501
 13
226.7464487164
 23
234.2942238501
  0
SOLID
  5
433
100
AcDbEntity
  8
0
100
AcDbTrace
 62
5
  6
CONTINUOUS
 10
222.1538561238
 20
234.6645950682
 11
222.2279301978
 21
234.3682996196
 12
221.0427450126
 22
234.220149776
 13
221.0427450126
 23
234.220149776
  0
SOLID
  5
434
100
AcDbEntity
  8
0
100
AcDbTrace
 62
5
  6
CONTINUOUS
 10
222.1538561238
 20
234.6645950682
 11
221.0427450126
 21
234.220149776
 12
220.8945968645
 22
234.6645950682
 13
220.8945968645
 23
234.6645950682
  0
SOLID
  5
435
100
AcDbEntity
  8
0
100
AcDbTrace
 62
5
  6
CONTINUOUS
 10
221.0427450126
 20
234.220149776
 11
222.2279301978
 21
234.3682996196
 12
222.3020042719
 22
234.072004171
 13
222.3020042719
 23
234.072004171
  0
SOLID
  5
436
100
AcDbEntity
  8
0
100
AcDbTrace
 62
5
  6
CONTINUOUS
 10
226.7464487164
 20
234.2942238501
 11
225.413115383
 21
234.072004171
 12
225.4871894571
 22
234.3682996196
 13
225.4871894571
 23
234.3682996196
  0
SOLID
  5
437
100
AcDbEntity
  8
0
100
AcDbTrace
 62
5
  6
CONTINUOUS
 10
222.3020042719
 20
234.072004171
 11
222.4501524201
 21
233.8497799708
 12
221.1908931608
 22
233.7757087224
 13
221.1908931608
 23
233.7757087224
  0
SOLID
  5
438
100
AcDbEntity
  8
0
100
AcDbTrace
 62
5
  6
CONTINUOUS
 10
222.3020042719
 20
234.072004171
 11
221.1908931608
 21
233.7757087224
 12
221.0427450126
 22
234.220149776
 13
221.0427450126
 23
234.220149776
  0
SOLID
  5
439
100
AcDbEntity
  8
0
100
AcDbTrace
 62
5
  6
CONTINUOUS
 10
225.2649672349
 20
233.8497799708
 11
225.413115383
 21
234.072004171
 12
226.7464487164
 22
234.2942238501
 13
226.7464487164
 23
234.2942238501
  0
SOLID
  5
43A
100
AcDbEntity
  8
0
100
AcDbTrace
 62
5
  6
CONTINUOUS
 10
225.2649672349
 20
233.8497799708
 11
226.7464487164
 21
234.2942238501
 12
226.5242264941
 22
233.7757087224
 13
226.5242264941
 23
233.7757087224
  0
SOLID
  5
43B
100
AcDbEntity
  8
0
100
AcDbTrace
 62
5
  6
CONTINUOUS
 10
226.5242264941
 20
233.7757087224
 11
224.9686709386
 21
233.5534831094
 12
225.2649672349
 22
233.8497799708
 13
225.2649672349
 23
233.8497799708
  0
SOLID
  5
43C
100
AcDbEntity
  8
0
100
AcDbTrace
 62
5
  6
CONTINUOUS
 10
221.1908931608
 20
233.7757087224
 11
222.4501524201
 21
233.8497799708
 12
222.7464487164
 22
233.4794090353
 13
222.7464487164
 23
233.4794090353
  0
SOLID
  5
43D
100
AcDbEntity
  8
0
100
AcDbTrace
 62
5
  6
CONTINUOUS
 10
222.7464487164
 20
233.4794090353
 11
221.413115383
 21
233.4053349612
 12
221.1908931608
 22
233.7757087224
 13
221.1908931608
 23
233.7757087224
  0
SOLID
  5
43E
100
AcDbEntity
  8
0
100
AcDbTrace
 62
5
  6
CONTINUOUS
 10
224.9686709386
 20
233.5534831094
 11
226.5242264941
 21
233.7757087224
 12
226.3020042719
 22
233.3312608871
 13
226.3020042719
 23
233.3312608871
  0
SOLID
  5
43F
100
AcDbEntity
  8
0
100
AcDbTrace
 62
5
  6
CONTINUOUS
 10
221.413115383
 20
233.4053349612
 11
222.7464487164
 21
233.4794090353
 12
223.1168190867
 22
233.257189003
 13
223.1168190867
 23
233.257189003
  0
SOLID
  5
440
100
AcDbEntity
  8
0
100
AcDbTrace
 62
5
  6
CONTINUOUS
 10
226.3020042719
 20
233.3312608871
 11
224.5983005682
 21
233.257189003
 12
224.9686709386
 22
233.5534831094
 13
224.9686709386
 23
233.5534831094
  0
SOLID
  5
441
100
AcDbEntity
  8
0
100
AcDbTrace
 62
5
  6
CONTINUOUS
 10
223.8575598275
 20
233.1090361924
 11
224.2279301978
 21
233.1090361924
 12
221.6353376052
 22
233.0349645909
 13
221.6353376052
 23
233.0349645909
  0
SOLID
  5
442
100
AcDbEntity
  8
0
100
AcDbTrace
 62
5
  6
CONTINUOUS
 10
223.4871894571
 20
233.1090361924
 11
223.8575598275
 21
233.1090361924
 12
221.6353376052
 22
233.0349645909
 13
221.6353376052
 23
233.0349645909
  0
SOLID
  5
443
100
AcDbEntity
  8
0
100
AcDbTrace
 62
5
  6
CONTINUOUS
 10
223.1168190867
 20
233.257189003
 11
223.4871894571
 21
233.1090361924
 12
221.6353376052
 22
233.0349645909
 13
221.6353376052
 23
233.0349645909
  0
SOLID
  5
444
100
AcDbEntity
  8
0
100
AcDbTrace
 62
5
  6
CONTINUOUS
 10
223.1168190867
 20
233.257189003
 11
221.6353376052
 21
233.0349645909
 12
221.413115383
 22
233.4053349612
 13
221.413115383
 23
233.4053349612
  0
SOLID
  5
445
100
AcDbEntity
  8
0
100
AcDbTrace
 62
5
  6
CONTINUOUS
 10
224.2279301978
 20
233.1090361924
 11
224.5983005682
 21
233.257189003
 12
226.3020042719
 22
233.3312608871
 13
226.3020042719
 23
233.3312608871
  0
SOLID
  5
446
100
AcDbEntity
  8
0
100
AcDbTrace
 62
5
  6
CONTINUOUS
 10
226.0057079756
 20
232.8868164427
 11
221.6353376052
 21
233.0349645909
 12
224.2279301978
 22
233.1090361924
 13
224.2279301978
 23
233.1090361924
  0
SOLID
  5
447
100
AcDbEntity
  8
0
100
AcDbTrace
 62
5
  6
CONTINUOUS
 10
224.2279301978
 20
233.1090361924
 11
226.3020042719
 21
233.3312608871
 12
226.0057079756
 22
232.8868164427
 13
226.0057079756
 23
232.8868164427
  0
SOLID
  5
448
100
AcDbEntity
  8
0
100
AcDbTrace
 62
5
  6
CONTINUOUS
 10
226.0057079756
 20
232.8868164427
 11
221.8575598275
 21
232.8127423686
 12
221.6353376052
 22
233.0349645909
 13
221.6353376052
 23
233.0349645909
  0
SOLID
  5
449
100
AcDbEntity
  8
0
100
AcDbTrace
 62
5
  6
CONTINUOUS
 10
222.0797820497
 20
232.590516579
 11
221.8575598275
 21
232.8127423686
 12
226.0057079756
 22
232.8868164427
 13
226.0057079756
 23
232.8868164427
  0
SOLID
  5
44A
100
AcDbEntity
  8
0
100
AcDbTrace
 62
5
  6
CONTINUOUS
 10
222.0797820497
 20
232.590516579
 11
226.0057079756
 21
232.8868164427
 12
225.6353376052
 22
232.590516579
 13
225.6353376052
 23
232.590516579
  0
SOLID
  5
44B
100
AcDbEntity
  8
0
100
AcDbTrace
 62
5
  6
CONTINUOUS
 10
225.6353376052
 20
232.590516579
 11
222.3020042719
 21
232.4423719983
 12
222.0797820497
 22
232.590516579
 13
222.0797820497
 23
232.590516579
  0
SOLID
  5
44C
100
AcDbEntity
  8
0
100
AcDbTrace
 62
5
  6
CONTINUOUS
 10
222.3020042719
 20
232.4423719983
 11
225.6353376052
 21
232.590516579
 12
225.2649672349
 22
232.3682979242
 13
225.2649672349
 23
232.3682979242
  0
SOLID
  5
44D
100
AcDbEntity
  8
0
100
AcDbTrace
 62
5
  6
CONTINUOUS
 10
225.2649672349
 20
232.3682979242
 11
222.5983005682
 21
232.2942238501
 12
222.3020042719
 22
232.4423719983
 13
222.3020042719
 23
232.4423719983
  0
SOLID
  5
44E
100
AcDbEntity
  8
0
100
AcDbTrace
 62
5
  6
CONTINUOUS
 10
222.8945968645
 20
232.220149776
 11
222.5983005682
 21
232.2942238501
 12
225.2649672349
 22
232.3682979242
 13
225.2649672349
 23
232.3682979242
  0
SOLID
  5
44F
100
AcDbEntity
  8
0
100
AcDbTrace
 62
5
  6
CONTINUOUS
 10
222.8945968645
 20
232.220149776
 11
225.2649672349
 21
232.3682979242
 12
224.8205227904
 22
232.220149776
 13
224.8205227904
 23
232.220149776
  0
SOLID
  5
450
100
AcDbEntity
  8
0
100
AcDbTrace
 62
5
  6
CONTINUOUS
 10
224.8205227904
 20
232.220149776
 11
223.1908931608
 21
232.1460784438
 12
222.8945968645
 22
232.220149776
 13
222.8945968645
 23
232.220149776
  0
SOLID
  5
451
100
AcDbEntity
  8
0
100
AcDbTrace
 62
5
  6
CONTINUOUS
 10
223.4871894571
 20
232.1460784438
 11
223.1908931608
 21
232.1460784438
 12
224.8205227904
 22
232.220149776
 13
224.8205227904
 23
232.220149776
  0
SOLID
  5
452
100
AcDbEntity
  8
0
100
AcDbTrace
 62
5
  6
CONTINUOUS
 10
223.4871894571
 20
232.1460784438
 11
224.8205227904
 21
232.220149776
 12
224.376078346
 22
232.1460784438
 13
224.376078346
 23
232.1460784438
  0
SOLID
  5
453
100
AcDbEntity
  8
0
100
AcDbTrace
 62
5
  6
CONTINUOUS
 10
224.376078346
 20
232.1460784438
 11
223.8575598275
 21
232.0720016279
 12
223.4871894571
 22
232.1460784438
 13
223.4871894571
 23
232.1460784438
  0
LINE
  5
454
100
AcDbEntity
  8
0
100
AcDbLine
 62
7
  6
CONTINUOUS
 10
19.6511758119
 20
13.1364431691
 11
19.6511758119
 21
313.1364431691
  0
LINE
  5
455
100
AcDbEntity
  8
0
100
AcDbLine
 62
7
  6
CONTINUOUS
 10
29.6511758119
 20
13.1364431691
 11
29.6511758119
 21
294.1364431691
  0
LINE
  5
456
100
AcDbEntity
  8
0
100
AcDbLine
 62
7
  6
CONTINUOUS
 10
40.6511758119
 20
13.1364431691
 11
40.6511758119
 21
193.1364431691
  0
LINE
  5
457
100
AcDbEntity
  8
0
100
AcDbLine
 62
7
  6
CONTINUOUS
 10
19.6511758119
 20
13.1364431691
 11
439.6511758119
 21
13.1364431691
  0
LWPOLYLINE
  5
458
100
AcDbEntity
  8
DIMENSIONS
100
AcDbPolyline
 62
5
  6
CONTINUOUS
 90
3
 70
0
 10
33.7226038742
 20
0.1148049774
 10
34.4368907776
 20
0.8290896149
 10
34.4368907776
 20
-1.6709066162
  0
LWPOLYLINE
  5
459
100
AcDbEntity
  8
DIMENSIONS
100
AcDbPolyline
 62
5
  6
CONTINUOUS
 90
3
 70
0
 10
35.151175415
 20
0.1148049774
 10
35.8654623184
 20
0.8290896149
 10
35.8654623184
 20
-1.6709066162
  0
LINE
  5
45A
100
AcDbEntity
  8
0
100
AcDbLine
 62
7
  6
CONTINUOUS
 10
40.6511758119
 20
193.1364431691
 11
439.6511758119
 21
193.1364431691
  0
LWPOLYLINE
  5
45B
100
AcDbEntity
  8
DIMENSIONS
100
AcDbPolyline
 62
5
  6
CONTINUOUS
 90
13
 70
0
 10
449.9667103271
 20
242.6543016357
 10
448.8952697754
 20
242.6543016357
 10
448.5381229248
 20
242.832875061
 10
448.1809760742
 20
243.1900219116
 10
448.1809760742
 20
243.3685772095
 10
448.5381229248
 20
243.7257240601
 10
448.8952697754
 20
243.9042974854
 10
449.9667103271
 20
243.9042974854
 10
450.3238209229
 20
243.7257240601
 10
450.6809677734
 20
243.3685772095
 10
450.6809677734
 20
243.1900219116
 10
450.3238209229
 20
242.832875061
 10
449.9667103271
 20
242.6543016357
  0
LINE
  5
45C
100
AcDbEntity
  8
0
100
AcDbLine
 62
7
  6
CONTINUOUS
 10
40.6511758119
 20
294.1364431691
 11
439.6511758119
 21
294.1364431691
  0
LINE
  5
45D
100
AcDbEntity
  8
0
100
AcDbLine
 62
7
  6
CONTINUOUS
 10
19.6511758119
 20
313.1364431691
 11
439.6511758119
 21
313.1364431691
  0
LINE
  5
45E
100
AcDbEntity
  8
0
100
AcDbLine
 62
7
  6
CONTINUOUS
 10
439.6511758119
 20
13.1364431691
 11
439.6511758119
 21
313.1364431691
  0
LWPOLYLINE
  5
45F
100
AcDbEntity
  8
DIMENSIONS
100
AcDbPolyline
 62
5
  6
CONTINUOUS
 90
3
 70
0
 10
448.8952697754
 20
241.2257323608
 10
448.1809760742
 20
241.9400079346
 10
450.6809677734
 20
241.9400079346
  0
LWPOLYLINE
  5
460
100
AcDbEntity
  8
DIMENSIONS
100
AcDbPolyline
 62
5
  6
CONTINUOUS
 90
3
 70
0
 10
448.8952697754
 20
244.6185911865
 10
448.1809760742
 20
245.3328667603
 10
450.6809677734
 20
245.3328667603
  0
LINE
  5
461
100
AcDbEntity
  8
0
100
AcDbLine
 62
7
  6
CONTINUOUS
 10
19.6511758119
 20
391.4784672343
 11
19.6511758119
 21
372.4784672343
  0
LINE
  5
462
100
AcDbEntity
  8
0
100
AcDbLine
 62
7
  6
CONTINUOUS
 10
29.6511758119
 20
391.4784672343
 11
29.6511758119
 21
382.4784672343
  0
LINE
  5
463
100
AcDbEntity
  8
0
100
AcDbLine
 62
7
  6
CONTINUOUS
 10
40.6511758119
 20
391.4784672343
 11
40.6511758119
 21
382.4784672343
  0
LWPOLYLINE
  5
464
100
AcDbEntity
  8
DIMENSIONS
100
AcDbPolyline
 62
5
  6
CONTINUOUS
 90
10
 70
0
 10
1.7949555974
 20
386.3534663086
 10
1.0806698978
 20
387.0677600098
 10
0.3663841628
 20
387.2463153076
 10
-0.3479015368
 20
387.2463153076
 10
-0.7050443866
 20
386.889168457
 10
-0.7050443866
 20
386.3534663086
 10
-0.3479015368
 20
385.996319458
 10
0.3663841628
 20
385.996319458
 10
0.7235270126
 20
386.3534663086
 10
0.7235270126
 20
387.1272905273
  0
LINE
  5
465
100
AcDbEntity
  8
0
100
AcDbLine
 62
7
  6
CONTINUOUS
 10
19.6511758119
 20
372.4784672343
 11
439.6511758119
 21
372.4784672343
  0
LINE
  5
466
100
AcDbEntity
  8
0
100
AcDbLine
 62
7
  6
CONTINUOUS
 10
40.6511758119
 20
382.4784672343
 11
29.6511758119
 21
382.4784672343
  0
LINE
  5
467
100
AcDbEntity
  8
0
100
AcDbLine
 62
7
  6
CONTINUOUS
 10
19.6511758119
 20
391.4784672343
 11
439.6511758119
 21
391.4784672343
  0
LINE
  5
468
100
AcDbEntity
  8
0
100
AcDbLine
 62
7
  6
CONTINUOUS
 10
439.6511758119
 20
391.4784672343
 11
439.6511758119
 21
372.4784672343
  0
ARC
  5
469
100
AcDbEntity
  8
0
100
AcDbCircle
 62
7
  6
CONTINUOUS
 10
35.1511758119
 20
294.1364431691
 40
5.5
100
AcDbArc
 50
0.0
 51
180.0
  0
ENDSEC
  0
SECTION
  2
OBJECTS
  0
DICTIONARY
  5
C
100
AcDbDictionary
280
0
281
1
  3
ACAD_GROUP
350
D
  3
ACAD_MLINESTYLE
350
17
  3
ACAD_LAYOUT
350
1A
  3
ACAD_PLOTSETTINGS
350
19
  3
ACAD_PLOTSTYLENAME
350
E
  0
DICTIONARY
  5
D
102
{ACAD_REACTORS
330
C
102
}
100
AcDbDictionary
280
0
281
1
  0
ACDBDICTIONARYWDFLT
  5
E
102
{ACAD_REACTORS
330
C
102
}
100
AcDbDictionary
281
1
  3
Normal
350
F
100
AcDbDictionaryWithDefault
340
F
  0
DICTIONARY
  5
17
102
{ACAD_REACTORS
330
C
102
}
100
AcDbDictionary
280
0
281
1
  3
Standard
350
18
  0
DICTIONARY
  5
19
102
{ACAD_REACTORS
330
C
102
}
100
AcDbDictionary
281
1
  0
DICTIONARY
  5
1A
102
{ACAD_REACTORS
330
C
102
}
100
AcDbDictionary
281
1
  3
Layout1
350
1E
  3
Model
350
22
  0
ACDBPLACEHOLDER
  5
F
102
{ACAD_REACTORS
330
E
102
}
  0
MLINESTYLE
  5
18
102
{ACAD_REACTORS
330
17
102
}
100
AcDbMlineStyle
  2
STANDARD
 70
0
  3

 62
256
 51
90.0
 52
90.0
 71
2
 49
0.5
 62
256
  6
BYLAYER
 49
-0.5
 62
256
  6
BYLAYER
  0
LAYOUT
  5
1E
102
{ACAD_REACTORS
330
1A
102
}
100
AcDbPlotSettings
  1

  2

  4

  6

 40
0.0
 41
0.0
 42
0.0
 43
0.0
 44
0.0
 45
0.0
 46
0.0
 47
0.0
 48
0.0
 49
0.0
140
0.0
141
0.0
142
1.0
143
1.0
 70
0
 72
0
 73
0
 74
0
  7

 75
0
147
1.0
148
0.0
149
0.0
100
AcDbLayout
  1
Layout1
 70
0
 71
0
 10
0.0
 20
0.0
 11
0.0
 21
0.0
 12
0.0
 22
0.0
 32
0.0
 14
0.0
 24
0.0
 34
0.0
 15
0.0
 25
0.0
 35
0.0
146
0.0
 13
0.0
 23
0.0
 33
0.0
 16
0.0
 26
0.0
 36
0.0
 17
0.0
 27
0.0
 37
0.0
 76
0
330
1B
331
0
345
0
346
0
  0
LAYOUT
  5
22
102
{ACAD_REACTORS
330
1A
102
}
100
AcDbPlotSettings
  1

  2

  4

  6

 40
0.0
 41
0.0
 42
0.0
 43
0.0
 44
0.0
 45
0.0
 46
0.0
 47
0.0
 48
0.0
 49
0.0
140
0.0
141
0.0
142
1.0
143
1.0
 70
1024
 72
0
 73
0
 74
0
  7

 75
0
147
1.0
148
0.0
149
0.0
100
AcDbLayout
  1
Model
 70
0
 71
0
 10
0.0
 20
0.0
 11
0.0
 21
0.0
 12
0.0
 22
0.0
 32
0.0
 14
0.0
 24
0.0
 34
0.0
 15
0.0
 25
0.0
 35
0.0
146
0.0
 13
0.0
 23
0.0
 33
0.0
 16
0.0
 26
0.0
 36
0.0
 17
0.0
 27
0.0
 37
0.0
 76
0
330
1F
331
0
345
0
346
0
  0
ENDSEC
  0
EOF
