999
DXF file: korpus_SmartDirect_classic_651_1200.dxf
999
Pro/ENGINEER 2009400 by Parametric Technology Corporation
  0
SECTION
  2
HEADER
  9
$ACADVER
  1
AC1015
  9
$DWGCODEPAGE
  3
ANSI_1252
  9
$EXTMAX
 10
594.0
 20
420.0
 30
0.0
  9
$EXTMIN
 10
0.0
 20
0.0
 30
0.0
  9
$LIMMIN
 10
0.0
 20
0.0
  9
$LIMMAX
 10
594.0
 20
420.0
  9
$VIEWCTR
 10
297.0
 20
210.0
  9
$VIEWSIZE
 40
420.0
  9
$CLAYER
  8
0
  9
$LTSCALE
 40
32.67
  9
$CELTYPE
  6
BYLAYER
  9
$DIMSCALE
 40
1.0
  9
$DIMASZ
 40
2.5
  9
$DIMEXO
 40
3.7125
  9
$DIMDLI
 40
22.572
  9
$DIMEXE
 40
10.692
  9
$DIMCEN
 40
5.346
  9
$DIMLFAC
 40
1.0
  9
$DIMBLK
  1
_FILLED
  9
$DIMTXT
 40
2.5
  9
$DIMTOL
 70
1
  9
$DIMLIM
 70
0
  9
$DIMTFAC
 40
1.0
  9
$DIMTP
 40
0.01
  9
$DIMTM
 40
0.01
  9
$PDMODE
 70
3
  9
$PDSIZE
 40
0.5
  9
$HANDSEED
  5
444
  9
$MEASUREMENT
 70
1
  9
$INSUNITS
 70
4
  0
ENDSEC
  0
SECTION
  2
CLASSES
  0
CLASS
  1
ACDBDICTIONARYWDFLT
  2
AcDbDictionaryWithDefault
  3
AutoCAD 2000
 90
0
280
0
281
0
  0
CLASS
  1
ACDBPLACEHOLDER
  2
AcDbPlaceHolder
  3
AutoCAD 2000
 90
0
280
0
281
0
  0
CLASS
  1
LAYOUT
  2
AcDbLayout
  3
AutoCAD 2000
 90
0
280
0
281
0
  0
ENDSEC
  0
SECTION
  2
TABLES
  0
TABLE
  2
VPORT
  5
8
100
AcDbSymbolTable
 70
2
  0
VPORT
  5
1F4
100
AcDbSymbolTableRecord
100
AcDbViewportTableRecord
  2
*ACTIVE
 70
0
 10
0.0
 20
0.0
 11
1.0
 21
1.0
 12
297.0
 22
210.0
 13
0.0
 23
0.0
 14
1.0
 24
1.0
 15
0.0
 25
0.0
 16
0.0
 26
0.0
 36
1.0
 17
0.0
 27
0.0
 37
0.0
 40
420.0
 41
1.4142857143
 42
50.0
 43
0.0
 44
0.0
 50
0.0
 51
0.0
 71
0
 72
100
 73
1
 74
1
 75
0
 76
0
 77
0
 78
0
  0
ENDTAB
  0
TABLE
  2
LTYPE
  5
5
100
AcDbSymbolTable
 70
6
  0
LTYPE
  5
14
100
AcDbSymbolTableRecord
100
AcDbLinetypeTableRecord
  2
BYBLOCK
 70
0
  3

 72
65
 73
0
 40
0.0
  0
LTYPE
  5
15
100
AcDbSymbolTableRecord
100
AcDbLinetypeTableRecord
  2
BYLAYER
 70
0
  3

 72
65
 73
0
 40
0.0
  0
LTYPE
  5
16
100
AcDbSymbolTableRecord
100
AcDbLinetypeTableRecord
  2
CONTINUOUS
 70
64
  3
Solid line
 72
65
 73
0
 40
0.0
  0
LTYPE
  5
1F5
100
AcDbSymbolTableRecord
100
AcDbLinetypeTableRecord
  2
CENTER
 70
64
  3
____ _ ____ _ ____ _ ____ _ ____ _ ____ _ ____
 72
65
 73
4
 40
0.6
 49
0.375
 74
0
 49
-0.075
 74
0
 49
0.075
 74
0
 49
-0.075
 74
0
  0
LTYPE
  5
1F6
100
AcDbSymbolTableRecord
100
AcDbLinetypeTableRecord
  2
HIDDEN
 70
64
  3
- - - - - - - - - - - - - - - - - - - -
 72
65
 73
2
 40
0.2
 49
0.1
 74
0
 49
-0.1
 74
0
  0
LTYPE
  5
1F7
100
AcDbSymbolTableRecord
100
AcDbLinetypeTableRecord
  2
PHANTOM
 70
64
  3
_____ _ _ _____ _ _ _____ _ _ _____
 72
65
 73
6
 40
0.8
 49
0.45
 74
0
 49
-0.05
 74
0
 49
0.1
 74
0
 49
-0.05
 74
0
 49
0.1
 74
0
 49
-0.05
 74
0
  0
LTYPE
  5
1F8
100
AcDbSymbolTableRecord
100
AcDbLinetypeTableRecord
  2
DOT
 70
64
  3
. . . . . . . . . . . . . . . . . . . .
 72
65
 73
2
 40
0.2
 49
0.1
 74
0
 49
-0.1
 74
0
  0
LTYPE
  5
1F9
100
AcDbSymbolTableRecord
100
AcDbLinetypeTableRecord
  2
DASHED
 70
64
  3
- - - - - - - - - - - - - - - - - - - -
 72
65
 73
2
 40
0.2
 49
0.1
 74
0
 49
-0.1
 74
0
  0
ENDTAB
  0
TABLE
  2
LAYER
  5
2
100
AcDbSymbolTable
 70
36
  0
LAYER
  5
10
100
AcDbSymbolTableRecord
100
AcDbLayerTableRecord
  2
0
 70
0
 62
7
  6
CONTINUOUS
370
-3
390
F
  0
LAYER
  5
1FA
100
AcDbSymbolTableRecord
100
AcDbLayerTableRecord
  2
DEFAULT_1
 70
0
 62
7
  6
CENTER
370
-3
390
F
  0
LAYER
  5
1FB
100
AcDbSymbolTableRecord
100
AcDbLayerTableRecord
  2
DEFAULT_2
 70
0
 62
8
  6
HIDDEN
370
-3
390
F
  0
LAYER
  5
1FC
100
AcDbSymbolTableRecord
100
AcDbLayerTableRecord
  2
DEFAULT_3
 70
0
 62
7
  6
PHANTOM
370
-3
390
F
  0
LAYER
  5
1FD
100
AcDbSymbolTableRecord
100
AcDbLayerTableRecord
  2
_2D_DELETED_OBJS
 70
0
 62
7
  6
CONTINUOUS
370
-3
390
F
  0
LAYER
  5
1FE
100
AcDbSymbolTableRecord
100
AcDbLayerTableRecord
  2
_BLACK_HOLE
 70
0
 62
7
  6
CONTINUOUS
370
-3
390
F
  0
LAYER
  5
1FF
100
AcDbSymbolTableRecord
100
AcDbLayerTableRecord
  2
ACHSEN
 70
0
 62
7
  6
CONTINUOUS
370
-3
390
F
  0
LAYER
  5
200
100
AcDbSymbolTableRecord
100
AcDbLayerTableRecord
  2
AXIS
 70
0
 62
7
  6
CONTINUOUS
370
-3
390
F
  0
LAYER
  5
201
100
AcDbSymbolTableRecord
100
AcDbLayerTableRecord
  2
DIMENSIONS
 70
0
 62
7
  6
CONTINUOUS
370
-3
390
F
  0
LAYER
  5
202
100
AcDbSymbolTableRecord
100
AcDbLayerTableRecord
  2
EBENEN
 70
0
 62
7
  6
CONTINUOUS
370
-3
390
F
  0
LAYER
  5
203
100
AcDbSymbolTableRecord
100
AcDbLayerTableRecord
  2
FASEN
 70
0
 62
7
  6
CONTINUOUS
370
-3
390
F
  0
LAYER
  5
204
100
AcDbSymbolTableRecord
100
AcDbLayerTableRecord
  2
FLAECHEN
 70
0
 62
7
  6
CONTINUOUS
370
-3
390
F
  0
LAYER
  5
205
100
AcDbSymbolTableRecord
100
AcDbLayerTableRecord
  2
HOLES
 70
0
 62
7
  6
CONTINUOUS
370
-3
390
F
  0
LAYER
  5
206
100
AcDbSymbolTableRecord
100
AcDbLayerTableRecord
  2
KOERPER
 70
0
 62
7
  6
CONTINUOUS
370
-3
390
F
  0
LAYER
  5
207
100
AcDbSymbolTableRecord
100
AcDbLayerTableRecord
  2
KURVEN
 70
0
 62
7
  6
CONTINUOUS
370
-3
390
F
  0
LAYER
  5
208
100
AcDbSymbolTableRecord
100
AcDbLayerTableRecord
  2
ORI_FL
 70
0
 62
7
  6
CONTINUOUS
370
-3
390
F
  0
LAYER
  5
209
100
AcDbSymbolTableRecord
100
AcDbLayerTableRecord
  2
PUNKTE
 70
0
 62
7
  6
CONTINUOUS
370
-3
390
F
  0
LAYER
  5
20A
100
AcDbSymbolTableRecord
100
AcDbLayerTableRecord
  2
QUILTS
 70
0
 62
7
  6
CONTINUOUS
370
-3
390
F
  0
LAYER
  5
20B
100
AcDbSymbolTableRecord
100
AcDbLayerTableRecord
  2
ROUNDS
 70
0
 62
7
  6
CONTINUOUS
370
-3
390
F
  0
LAYER
  5
20C
100
AcDbSymbolTableRecord
100
AcDbLayerTableRecord
  2
SAMMELFLAECHEN
 70
0
 62
7
  6
CONTINUOUS
370
-3
390
F
  0
LAYER
  5
20D
100
AcDbSymbolTableRecord
100
AcDbLayerTableRecord
  2
SKETCH
 70
0
 62
7
  6
CONTINUOUS
370
-3
390
F
  0
LAYER
  5
20E
100
AcDbSymbolTableRecord
100
AcDbLayerTableRecord
  2
SOLIDS
 70
0
 62
7
  6
CONTINUOUS
370
-3
390
F
  0
ENDTAB
  0
TABLE
  2
STYLE
  5
3
100
AcDbSymbolTable
 70
1
  0
STYLE
  5
11
100
AcDbSymbolTableRecord
100
AcDbTextStyleTableRecord
  2
STANDARD
 70
0
 40
0.0
 41
0.8
 50
0.0
 71
0
 42
0.2
  3
txt
  4

  0
ENDTAB
  0
TABLE
  2
VIEW
  5
6
100
AcDbSymbolTable
 70
0
  0
ENDTAB
  0
TABLE
  2
UCS
  5
7
100
AcDbSymbolTable
 70
0
  0
ENDTAB
  0
TABLE
  2
APPID
  5
9
100
AcDbSymbolTable
 70
1
  0
APPID
  5
20F
100
AcDbSymbolTableRecord
100
AcDbRegAppTableRecord
  2
ACAD
 70
0
  0
ENDTAB
  0
TABLE
  2
BLOCK_RECORD
  5
1
100
AcDbSymbolTable
 70
0
  0
BLOCK_RECORD
  5
1F
100
AcDbSymbolTableRecord
100
AcDbBlockTableRecord
  2
*MODEL_SPACE
  0
BLOCK_RECORD
  5
1B
100
AcDbSymbolTableRecord
100
AcDbBlockTableRecord
  2
*PAPER_SPACE
  0
BLOCK_RECORD
  5
210
100
AcDbSymbolTableRecord
100
AcDbBlockTableRecord
  2
_FILLED
  0
BLOCK_RECORD
  5
211
100
AcDbSymbolTableRecord
100
AcDbBlockTableRecord
  2
*D0
  0
BLOCK_RECORD
  5
212
100
AcDbSymbolTableRecord
100
AcDbBlockTableRecord
  2
*D1
  0
BLOCK_RECORD
  5
213
100
AcDbSymbolTableRecord
100
AcDbBlockTableRecord
  2
*D2
  0
ENDTAB
  0
TABLE
  2
DIMSTYLE
  5
A
100
AcDbSymbolTable
 70
1
100
AcDbDimStyleTable
 71
0
  0
DIMSTYLE
105
214
100
AcDbSymbolTableRecord
100
AcDbDimStyleTableRecord
  2
STANDARD
 70
0
  3

  4

 40
1.0
 41
2.5
 42
0.0625
 43
0.38
 44
0.18
 45
0.0
 46
0.0
 47
0.01
 48
0.01
140
2.5
141
0.09
142
0.0
143
25.4
144
1.0
145
0.0
146
1.0
147
0.09
 71
1.0
 72
0.0
 73
0
 74
0
 75
0
 76
0
 77
1
 78
8
170
0
171
2
172
0
173
0
174
0
175
0
176
0
177
0
178
5
270
2
271
2
272
2
273
2
274
2
275
0
280
0
281
0
282
0
283
1
284
8
285
0
286
0
287
3
288
0
340
11
341
210
342
210
343
210
344
210
  0
DIMSTYLE
105
215
100
AcDbSymbolTableRecord
100
AcDbDimStyleTableRecord
  2
DIMSTYLE_1
 70
0
  3

  4

 40
1.0
 41
2.5
 42
0.0625
 43
0.38
 44
0.18
 45
0.0
 46
0.0
 47
0.2
 48
0.2
140
2.5
141
0.09
142
0.0
143
25.4
144
1.0
145
0.0
146
1.0
147
0.09
 71
0.0
 72
0.0
 73
0
 74
0
 75
0
 76
0
 77
1
 78
8
170
0
171
2
172
0
173
0
174
0
175
0
176
0
177
0
178
5
270
2
271
2
272
2
273
2
274
2
275
0
280
0
281
0
282
0
283
1
284
8
285
0
286
0
287
3
288
0
340
11
341
210
342
210
343
210
344
210
  0
DIMSTYLE
105
216
100
AcDbSymbolTableRecord
100
AcDbDimStyleTableRecord
  2
DIMSTYLE_2
 70
0
  3

  4

 40
1.0
 41
2.5
 42
0.0625
 43
0.38
 44
0.18
 45
0.0
 46
0.0
 47
0.5
 48
0.5
140
2.5
141
0.09
142
0.0
143
25.4
144
1.0
145
0.0
146
1.0
147
0.09
 71
0.0
 72
0.0
 73
0
 74
0
 75
0
 76
0
 77
1
 78
8
170
0
171
2
172
0
173
0
174
0
175
0
176
0
177
0
178
5
270
2
271
2
272
2
273
2
274
2
275
0
280
0
281
0
282
0
283
1
284
8
285
0
286
0
287
3
288
0
340
11
341
210
342
210
343
210
344
210
  0
ENDTAB
  0
ENDSEC
  0
SECTION
  2
BLOCKS
  0
BLOCK
  5
20
100
AcDbEntity
  8
0
100
AcDbBlockBegin
  2
*MODEL_SPACE
 70
0
 10
0.0
 20
0.0
 30
0.0
  3
*MODEL_SPACE
  1

  0
ENDBLK
  5
21
100
AcDbEntity
  8
0
100
AcDbBlockEnd
  0
BLOCK
  5
1C
100
AcDbEntity
  8
0
100
AcDbBlockBegin
  2
*PAPER_SPACE
 70
0
 10
0.0
 20
0.0
 30
0.0
  3
*PAPER_SPACE
  1

  0
ENDBLK
  5
1D
100
AcDbEntity
  8
0
100
AcDbBlockEnd
  0
BLOCK
  5
217
100
AcDbEntity
  8
DIMENSIONS
100
AcDbBlockBegin
 62
2
  6
CONTINUOUS
  2
*D0
 70
65
 10
0.0
 20
0.0
  3
*D0
  1

  0
LINE
  5
218
100
AcDbEntity
  8
DIMENSIONS
100
AcDbLine
 62
2
  6
CONTINUOUS
 10
130.9581079183
 20
81.5848855987
 11
130.9581079183
 21
71.5848855987
  0
LINE
  5
219
100
AcDbEntity
  8
DIMENSIONS
100
AcDbLine
 62
2
  6
CONTINUOUS
 10
141.9581079183
 20
81.5848855987
 11
141.9581079183
 21
71.5848855987
  0
LINE
  5
21A
100
AcDbEntity
  8
DIMENSIONS
100
AcDbLine
 62
2
  6
CONTINUOUS
 10
130.9581079183
 20
72.5848855987
 11
136.4581079183
 21
72.5848855987
  0
LINE
  5
21B
100
AcDbEntity
  8
DIMENSIONS
100
AcDbLine
 62
2
  6
CONTINUOUS
 10
141.9581079183
 20
72.5848855987
 11
136.4581079183
 21
72.5848855987
  0
INSERT
  5
21C
100
AcDbEntity
  8
DIMENSIONS
100
AcDbBlockReference
 62
2
  6
CONTINUOUS
  2
_FILLED
 10
130.9581079183
 20
72.5848855987
 41
2.5
 42
2.5
 43
2.5
 50
180.0
  0
INSERT
  5
21D
100
AcDbEntity
  8
DIMENSIONS
100
AcDbBlockReference
 62
2
  6
CONTINUOUS
  2
_FILLED
 10
141.9581079183
 20
72.5848855987
 41
2.5
 42
2.5
 43
2.5
  0
ENDBLK
  5
21E
100
AcDbEntity
  8
0
  6
BYBLOCK
 62
0
100
AcDbBlockEnd
  0
BLOCK
  5
21F
100
AcDbEntity
  8
DIMENSIONS
100
AcDbBlockBegin
 62
2
  6
CONTINUOUS
  2
*D1
 70
65
 10
0.0
 20
0.0
  3
*D1
  1

  0
LINE
  5
220
100
AcDbEntity
  8
DIMENSIONS
100
AcDbLine
 62
2
  6
CONTINUOUS
 10
59.5568167425
 20
364.5848855987
 11
59.5568167425
 21
393.5848855987
  0
LINE
  5
221
100
AcDbEntity
  8
DIMENSIONS
100
AcDbLine
 62
2
  6
CONTINUOUS
 10
50.5568167425
 20
383.5872840202
 11
50.5568167425
 21
393.5848855987
  0
LINE
  5
222
100
AcDbEntity
  8
DIMENSIONS
100
AcDbLine
 62
2
  6
CONTINUOUS
 10
59.5568167425
 20
392.5848855987
 11
55.0568167425
 21
392.5848855987
  0
LINE
  5
223
100
AcDbEntity
  8
DIMENSIONS
100
AcDbLine
 62
2
  6
CONTINUOUS
 10
50.5568167425
 20
392.5848855987
 11
55.0568167425
 21
392.5848855987
  0
INSERT
  5
224
100
AcDbEntity
  8
DIMENSIONS
100
AcDbBlockReference
 62
2
  6
CONTINUOUS
  2
_FILLED
 10
59.5568167425
 20
392.5848855987
 41
2.5
 42
2.5
 43
2.5
  0
INSERT
  5
225
100
AcDbEntity
  8
DIMENSIONS
100
AcDbBlockReference
 62
2
  6
CONTINUOUS
  2
_FILLED
 10
50.5568167425
 20
392.5848855987
 41
2.5
 42
2.5
 43
2.5
 50
180.0
  0
ENDBLK
  5
226
100
AcDbEntity
  8
0
  6
BYBLOCK
 62
0
100
AcDbBlockEnd
  0
BLOCK
  5
227
100
AcDbEntity
  8
DIMENSIONS
100
AcDbBlockBegin
 62
2
  6
CONTINUOUS
  2
*D2
 70
65
 10
0.0
 20
0.0
  3
*D2
  1

  0
LINE
  5
228
100
AcDbEntity
  8
DIMENSIONS
100
AcDbLine
 62
2
  6
CONTINUOUS
 10
541.9581079183
 20
363.5848855987
 11
551.9581079183
 21
363.5848855987
  0
LINE
  5
229
100
AcDbEntity
  8
DIMENSIONS
100
AcDbLine
 62
2
  6
CONTINUOUS
 10
541.9581079183
 20
242.5848855987
 11
551.9581079183
 21
242.5848855987
  0
LINE
  5
22A
100
AcDbEntity
  8
DIMENSIONS
100
AcDbLine
 62
2
  6
CONTINUOUS
 10
550.9581079183
 20
363.5848855987
 11
550.9581079183
 21
303.0848855987
  0
LINE
  5
22B
100
AcDbEntity
  8
DIMENSIONS
100
AcDbLine
 62
2
  6
CONTINUOUS
 10
550.9581079183
 20
242.5848855987
 11
550.9581079183
 21
303.0848855987
  0
INSERT
  5
22C
100
AcDbEntity
  8
DIMENSIONS
100
AcDbBlockReference
 62
2
  6
CONTINUOUS
  2
_FILLED
 10
550.9581079183
 20
363.5848855987
 41
2.5
 42
2.5
 43
2.5
 50
90.0
  0
INSERT
  5
22D
100
AcDbEntity
  8
DIMENSIONS
100
AcDbBlockReference
 62
2
  6
CONTINUOUS
  2
_FILLED
 10
550.9581079183
 20
242.5848855987
 41
2.5
 42
2.5
 43
2.5
 50
270.0
  0
ENDBLK
  5
22E
100
AcDbEntity
  8
0
  6
BYBLOCK
 62
0
100
AcDbBlockEnd
  0
BLOCK
  5
22F
100
AcDbEntity
  8
0
100
AcDbBlockBegin
  2
_FILLED
 70
64
 10
0.0
 20
0.0
  3
_FILLED
  1

  0
SOLID
  5
230
100
AcDbEntity
  8
0
  6
BYBLOCK
 62
0
100
AcDbTrace
 10
0.0
 20
0.0
 11
-1.0
 21
0.15
 12
-1.0
 22
-0.15
 13
-1.0
 23
-0.15
  0
ENDBLK
  5
231
100
AcDbEntity
  8
0
  6
BYBLOCK
 62
0
100
AcDbBlockEnd
  0
ENDSEC
  0
SECTION
  2
ENTITIES
  0
DIMENSION
  5
232
100
AcDbEntity
  8
DIMENSIONS
100
AcDbDimension
 62
2
  6
CONTINUOUS
  2
*D0
 10
141.9581079183
 20
72.5848855987
 11
135.0295364898
 21
73.2098855987
 70
160
 42
11.0
  3
DIMSTYLE_1
100
AcDbAlignedDimension
 13
130.9581079183
 23
81.5848855987
 14
141.9581079183
 24
81.5848855987
100
AcDbRotatedDimension
  0
DIMENSION
  5
233
100
AcDbEntity
  8
DIMENSIONS
100
AcDbDimension
 62
2
  6
CONTINUOUS
  2
*D1
 10
50.5568167425
 20
392.5848855987
 11
54.0746738853
 21
393.2098855987
 70
160
 42
9.0
  3
DIMSTYLE_1
100
AcDbAlignedDimension
 13
59.5568167425
 23
364.5848855987
 14
50.5568167425
 24
383.5872840202
 50
180.0
100
AcDbRotatedDimension
  0
DIMENSION
  5
234
100
AcDbEntity
  8
DIMENSIONS
100
AcDbDimension
 62
2
  6
CONTINUOUS
  2
*D2
 10
550.9581079183
 20
242.5848855987
 11
550.3331079183
 21
300.674171313
 70
160
 42
121.0
  3
DIMSTYLE_2
100
AcDbAlignedDimension
 13
541.9581079183
 23
363.5848855987
 14
541.9581079183
 24
242.5848855987
 50
270.0
100
AcDbRotatedDimension
  0
SOLID
  5
235
100
AcDbEntity
  8
0
100
AcDbTrace
 62
5
  6
CONTINUOUS
 10
321.5213150587
 20
313.0949167785
 11
321.8916854291
 21
313.1689931131
 12
322.4842780216
 22
313.0949167785
 13
322.4842780216
 23
313.0949167785
  0
SOLID
  5
236
100
AcDbEntity
  8
0
100
AcDbTrace
 62
5
  6
CONTINUOUS
 10
321.5213150587
 20
313.0949167785
 11
322.4842780216
 21
313.0949167785
 12
320.7805743179
 22
312.9467742817
 13
320.7805743179
 23
312.9467742817
  0
SOLID
  5
237
100
AcDbEntity
  8
0
100
AcDbTrace
 62
5
  6
CONTINUOUS
 10
321.5213150587
 20
313.0949167785
 11
320.7805743179
 21
312.9467742817
 12
321.1509446883
 22
313.0949167785
 13
321.1509446883
 23
313.0949167785
  0
SOLID
  5
238
100
AcDbEntity
  8
0
100
AcDbTrace
 62
5
  6
CONTINUOUS
 10
320.7805743179
 20
312.9467742817
 11
322.4842780216
 21
313.0949167785
 12
323.0027965402
 22
312.9467742817
 13
323.0027965402
 23
312.9467742817
  0
SOLID
  5
239
100
AcDbEntity
  8
0
100
AcDbTrace
 62
5
  6
CONTINUOUS
 10
323.0027965402
 20
312.9467742817
 11
320.4842780216
 21
312.8726968168
 12
320.7805743179
 22
312.9467742817
 13
320.7805743179
 23
312.9467742817
  0
SOLID
  5
23A
100
AcDbEntity
  8
0
100
AcDbTrace
 62
5
  6
CONTINUOUS
 10
320.1879817254
 20
312.7245497989
 11
320.4842780216
 21
312.8726968168
 12
323.0027965402
 22
312.9467742817
 13
323.0027965402
 23
312.9467742817
  0
SOLID
  5
23B
100
AcDbEntity
  8
0
100
AcDbTrace
 62
5
  6
CONTINUOUS
 10
320.1879817254
 20
312.7245497989
 11
323.0027965402
 21
312.9467742817
 12
323.4472409846
 22
312.7245497989
 13
323.4472409846
 23
312.7245497989
  0
SOLID
  5
23C
100
AcDbEntity
  8
0
100
AcDbTrace
 62
5
  6
CONTINUOUS
 10
323.4472409846
 20
312.7245497989
 11
319.8916854291
 21
312.5023264464
 12
320.1879817254
 22
312.7245497989
 13
320.1879817254
 23
312.7245497989
  0
SOLID
  5
23D
100
AcDbEntity
  8
0
100
AcDbTrace
 62
5
  6
CONTINUOUS
 10
319.8916854291
 20
312.5023264464
 11
323.4472409846
 21
312.7245497989
 12
323.817611355
 22
312.4282523724
 13
323.817611355
 23
312.4282523724
  0
SOLID
  5
23E
100
AcDbEntity
  8
0
100
AcDbTrace
 62
5
  6
CONTINUOUS
 10
323.817611355
 20
312.4282523724
 11
319.5953891328
 21
312.2801042242
 12
319.8916854291
 22
312.5023264464
 13
319.8916854291
 23
312.5023264464
  0
SOLID
  5
23F
100
AcDbEntity
  8
0
100
AcDbTrace
 62
5
  6
CONTINUOUS
 10
321.817611355
 20
312.1319594669
 11
319.5953891328
 21
312.2801042242
 12
323.817611355
 22
312.4282523724
 13
323.817611355
 23
312.4282523724
  0
SOLID
  5
240
100
AcDbEntity
  8
0
100
AcDbTrace
 62
5
  6
CONTINUOUS
 10
321.817611355
 20
312.1319594669
 11
323.817611355
 21
312.4282523724
 12
324.1879817254
 22
312.1319594669
 13
324.1879817254
 23
312.1319594669
  0
SOLID
  5
241
100
AcDbEntity
  8
0
100
AcDbTrace
 62
5
  6
CONTINUOUS
 10
324.1879817254
 20
312.1319594669
 11
322.1879817254
 21
312.057878046
 12
321.817611355
 22
312.1319594669
 13
321.817611355
 23
312.1319594669
  0
SOLID
  5
242
100
AcDbEntity
  8
0
100
AcDbTrace
 62
5
  6
CONTINUOUS
 10
321.817611355
 20
312.1319594669
 11
321.5213150587
 21
312.057878046
 12
319.3731669105
 22
311.9838067976
 13
319.3731669105
 23
311.9838067976
  0
SOLID
  5
243
100
AcDbEntity
  8
0
100
AcDbTrace
 62
5
  6
CONTINUOUS
 10
321.817611355
 20
312.1319594669
 11
319.3731669105
 21
311.9838067976
 12
319.5953891328
 22
312.2801042242
 13
319.5953891328
 23
312.2801042242
  0
SOLID
  5
244
100
AcDbEntity
  8
0
100
AcDbTrace
 62
5
  6
CONTINUOUS
 10
319.3731669105
 20
311.9838067976
 11
321.5213150587
 21
312.057878046
 12
321.2990928365
 22
311.9838067976
 13
321.2990928365
 23
311.9838067976
  0
SOLID
  5
245
100
AcDbEntity
  8
0
100
AcDbTrace
 62
5
  6
CONTINUOUS
 10
322.4842780216
 20
311.9838067976
 11
322.1879817254
 21
312.057878046
 12
324.1879817254
 22
312.1319594669
 13
324.1879817254
 23
312.1319594669
  0
SOLID
  5
246
100
AcDbEntity
  8
0
100
AcDbTrace
 62
5
  6
CONTINUOUS
 10
322.7805743179
 20
311.8356597798
 11
322.4842780216
 21
311.9838067976
 12
324.1879817254
 22
312.1319594669
 13
324.1879817254
 23
312.1319594669
  0
SOLID
  5
247
100
AcDbEntity
  8
0
100
AcDbTrace
 62
5
  6
CONTINUOUS
 10
322.7805743179
 20
311.8356597798
 11
324.1879817254
 21
312.1319594669
 12
324.4102039476
 22
311.6875116316
 13
324.4102039476
 23
311.6875116316
  0
SOLID
  5
248
100
AcDbEntity
  8
0
100
AcDbTrace
 62
5
  6
CONTINUOUS
 10
321.0027965402
 20
311.9097338538
 11
320.7805743179
 21
311.7615857057
 12
319.1509446883
 22
311.6134398181
 13
319.1509446883
 23
311.6134398181
  0
SOLID
  5
249
100
AcDbEntity
  8
0
100
AcDbTrace
 62
5
  6
CONTINUOUS
 10
321.2990928365
 20
311.9838067976
 11
321.0027965402
 21
311.9097338538
 12
319.1509446883
 22
311.6134398181
 13
319.1509446883
 23
311.6134398181
  0
SOLID
  5
24A
100
AcDbEntity
  8
0
100
AcDbTrace
 62
5
  6
CONTINUOUS
 10
321.2990928365
 20
311.9838067976
 11
319.1509446883
 21
311.6134398181
 12
319.3731669105
 22
311.9838067976
 13
319.3731669105
 23
311.9838067976
  0
SOLID
  5
24B
100
AcDbEntity
  8
0
100
AcDbTrace
 62
5
  6
CONTINUOUS
 10
324.4102039476
 20
311.6875116316
 11
323.0027965402
 21
311.6134398181
 12
322.7805743179
 22
311.8356597798
 13
322.7805743179
 23
311.8356597798
  0
SOLID
  5
24C
100
AcDbEntity
  8
0
100
AcDbTrace
 62
5
  6
CONTINUOUS
 10
319.1509446883
 20
311.6134398181
 11
320.7805743179
 21
311.7615857057
 12
320.4842780216
 22
311.5393634835
 13
320.4842780216
 23
311.5393634835
  0
SOLID
  5
24D
100
AcDbEntity
  8
0
100
AcDbTrace
 62
5
  6
CONTINUOUS
 10
320.4842780216
 20
311.5393634835
 11
318.9287224661
 21
311.2430626661
 12
319.1509446883
 22
311.6134398181
 13
319.1509446883
 23
311.6134398181
  0
SOLID
  5
24E
100
AcDbEntity
  8
0
100
AcDbTrace
 62
5
  6
CONTINUOUS
 10
318.9287224661
 20
311.2430626661
 11
320.4842780216
 21
311.5393634835
 12
320.2620557994
 22
311.2430626661
 13
320.2620557994
 23
311.2430626661
  0
SOLID
  5
24F
100
AcDbEntity
  8
0
100
AcDbTrace
 62
5
  6
CONTINUOUS
 10
323.1509446883
 20
311.3912153353
 11
323.0027965402
 21
311.6134398181
 12
324.4102039476
 22
311.6875116316
 13
324.4102039476
 23
311.6875116316
  0
SOLID
  5
250
100
AcDbEntity
  8
0
100
AcDbTrace
 62
5
  6
CONTINUOUS
 10
323.2990928365
 20
311.1689914177
 11
323.1509446883
 21
311.3912153353
 12
324.4102039476
 22
311.6875116316
 13
324.4102039476
 23
311.6875116316
  0
SOLID
  5
251
100
AcDbEntity
  8
0
100
AcDbTrace
 62
5
  6
CONTINUOUS
 10
323.2990928365
 20
311.1689914177
 11
324.4102039476
 21
311.6875116316
 12
324.6324261698
 22
311.1689914177
 13
324.6324261698
 23
311.1689914177
  0
SOLID
  5
252
100
AcDbEntity
  8
0
100
AcDbTrace
 62
5
  6
CONTINUOUS
 10
324.6324261698
 20
311.1689914177
 11
323.3731669105
 21
310.8726968168
 12
323.2990928365
 22
311.1689914177
 13
323.2990928365
 23
311.1689914177
  0
SOLID
  5
253
100
AcDbEntity
  8
0
100
AcDbTrace
 62
5
  6
CONTINUOUS
 10
320.2620557994
 20
311.2430626661
 11
320.1139076513
 21
310.9467708909
 12
318.7065002439
 22
310.7986227427
 13
318.7065002439
 23
310.7986227427
  0
SOLID
  5
254
100
AcDbEntity
  8
0
100
AcDbTrace
 62
5
  6
CONTINUOUS
 10
320.2620557994
 20
311.2430626661
 11
318.7065002439
 21
310.7986227427
 12
318.9287224661
 22
311.2430626661
 13
318.9287224661
 23
311.2430626661
  0
SOLID
  5
255
100
AcDbEntity
  8
0
100
AcDbTrace
 62
5
  6
CONTINUOUS
 10
323.3731669105
 20
310.8726968168
 11
324.6324261698
 21
311.1689914177
 12
324.7805743179
 22
310.6504745946
 13
324.7805743179
 23
310.6504745946
  0
SOLID
  5
256
100
AcDbEntity
  8
0
100
AcDbTrace
 62
5
  6
CONTINUOUS
 10
318.7065002439
 20
310.7986227427
 11
320.1139076513
 21
310.9467708909
 12
319.8916854291
 22
310.5764005205
 13
319.8916854291
 23
310.5764005205
  0
SOLID
  5
257
100
AcDbEntity
  8
0
100
AcDbTrace
 62
5
  6
CONTINUOUS
 10
324.7805743179
 20
310.6504745946
 11
323.5213150587
 21
310.5764005205
 12
323.3731669105
 22
310.8726968168
 13
323.3731669105
 23
310.8726968168
  0
SOLID
  5
258
100
AcDbEntity
  8
0
100
AcDbTrace
 62
5
  6
CONTINUOUS
 10
319.8916854291
 20
310.5764005205
 11
318.5583520957
 21
310.2801042242
 12
318.7065002439
 22
310.7986227427
 13
318.7065002439
 23
310.7986227427
  0
SOLID
  5
259
100
AcDbEntity
  8
0
100
AcDbTrace
 62
5
  6
CONTINUOUS
 10
318.5583520957
 20
310.2801042242
 11
319.8916854291
 21
310.5764005205
 12
319.7435372809
 22
310.1319560761
 13
319.7435372809
 23
310.1319560761
  0
SOLID
  5
25A
100
AcDbEntity
  8
0
100
AcDbTrace
 62
5
  6
CONTINUOUS
 10
319.7435372809
 20
310.1319560761
 11
318.4842780216
 21
309.7615857057
 12
318.5583520957
 22
310.2801042242
 13
318.5583520957
 23
310.2801042242
  0
SOLID
  5
25B
100
AcDbEntity
  8
0
100
AcDbTrace
 62
5
  6
CONTINUOUS
 10
318.4842780216
 20
309.7615857057
 11
319.7435372809
 21
310.1319560761
 12
319.6694632068
 22
309.5393612229
 13
319.6694632068
 23
309.5393612229
  0
SOLID
  5
25C
100
AcDbEntity
  8
0
100
AcDbTrace
 62
5
  6
CONTINUOUS
 10
321.5953891328
 20
309.5393612229
 11
321.9657595031
 21
309.6134375575
 12
322.5583520957
 22
309.5393612229
 13
322.5583520957
 23
309.5393612229
  0
SOLID
  5
25D
100
AcDbEntity
  8
0
100
AcDbTrace
 62
5
  6
CONTINUOUS
 10
322.5583520957
 20
309.5393612229
 11
321.2990928365
 21
309.4652894094
 12
321.5953891328
 22
309.5393612229
 13
321.5953891328
 23
309.5393612229
  0
SOLID
  5
25E
100
AcDbEntity
  8
0
100
AcDbTrace
 62
5
  6
CONTINUOUS
 10
320.9287224661
 20
309.3912153353
 11
321.2990928365
 21
309.4652894094
 12
322.5583520957
 22
309.5393612229
 13
322.5583520957
 23
309.5393612229
  0
SOLID
  5
25F
100
AcDbEntity
  8
0
100
AcDbTrace
 62
5
  6
CONTINUOUS
 10
320.9287224661
 20
309.3912153353
 11
322.5583520957
 21
309.5393612229
 12
323.0768706142
 22
309.3171412613
 13
323.0768706142
 23
309.3171412613
  0
SOLID
  5
260
100
AcDbEntity
  8
0
100
AcDbTrace
 62
5
  6
CONTINUOUS
 10
323.0768706142
 20
309.3171412613
 11
320.6324261698
 21
309.2430671872
 12
320.9287224661
 22
309.3912153353
 13
320.9287224661
 23
309.3912153353
  0
SOLID
  5
261
100
AcDbEntity
  8
0
100
AcDbTrace
 62
5
  6
CONTINUOUS
 10
319.6694632068
 20
309.5393612229
 11
318.3361298735
 21
309.1689931131
 12
318.4842780216
 22
309.7615857057
 13
318.4842780216
 23
309.7615857057
  0
SOLID
  5
262
100
AcDbEntity
  8
0
100
AcDbTrace
 62
5
  6
CONTINUOUS
 10
320.3361298735
 20
309.094922995
 11
320.6324261698
 21
309.2430671872
 12
323.0768706142
 22
309.3171412613
 13
323.0768706142
 23
309.3171412613
  0
SOLID
  5
263
100
AcDbEntity
  8
0
100
AcDbTrace
 62
5
  6
CONTINUOUS
 10
320.3361298735
 20
309.094922995
 11
323.0768706142
 21
309.3171412613
 12
323.5953891328
 22
309.094922995
 13
323.5953891328
 23
309.094922995
  0
SOLID
  5
264
100
AcDbEntity
  8
0
100
AcDbTrace
 62
5
  6
CONTINUOUS
 10
318.3361298735
 20
309.1689931131
 11
319.6694632068
 21
309.5393612229
 12
319.5953891328
 22
308.9467708909
 13
319.5953891328
 23
308.9467708909
  0
SOLID
  5
265
100
AcDbEntity
  8
0
100
AcDbTrace
 62
5
  6
CONTINUOUS
 10
323.5953891328
 20
309.094922995
 11
320.0398335772
 21
308.8726968168
 12
320.3361298735
 22
309.094922995
 13
320.3361298735
 23
309.094922995
  0
SOLID
  5
266
100
AcDbEntity
  8
0
100
AcDbTrace
 62
5
  6
CONTINUOUS
 10
320.0398335772
 20
308.8726968168
 11
323.5953891328
 21
309.094922995
 12
324.0398335772
 22
308.6504745946
 13
324.0398335772
 23
308.6504745946
  0
SOLID
  5
267
100
AcDbEntity
  8
0
100
AcDbTrace
 62
5
  6
CONTINUOUS
 10
324.0398335772
 20
308.6504745946
 11
319.817611355
 21
308.5764005205
 12
320.0398335772
 22
308.8726968168
 13
320.0398335772
 23
308.8726968168
  0
SOLID
  5
268
100
AcDbEntity
  8
0
100
AcDbTrace
 62
5
  6
CONTINUOUS
 10
319.5953891328
 20
308.9467708909
 11
318.3361298735
 21
308.5023264464
 12
318.3361298735
 22
309.1689931131
 13
318.3361298735
 23
309.1689931131
  0
SOLID
  5
269
100
AcDbEntity
  8
0
100
AcDbTrace
 62
5
  6
CONTINUOUS
 10
318.3361298735
 20
308.5023264464
 11
319.5953891328
 21
308.9467708909
 12
319.5953891328
 22
308.2801081802
 13
319.5953891328
 23
308.2801081802
  0
SOLID
  5
26A
100
AcDbEntity
  8
0
100
AcDbTrace
 62
5
  6
CONTINUOUS
 10
321.6694632068
 20
308.4282523724
 11
321.2250187624
 21
308.3541794286
 12
319.5953891328
 22
308.2801081802
 13
319.5953891328
 23
308.2801081802
  0
SOLID
  5
26B
100
AcDbEntity
  8
0
100
AcDbTrace
 62
5
  6
CONTINUOUS
 10
321.6694632068
 20
308.4282523724
 11
319.5953891328
 21
308.2801081802
 12
319.817611355
 22
308.5764005205
 13
319.817611355
 23
308.5764005205
  0
SOLID
  5
26C
100
AcDbEntity
  8
0
100
AcDbTrace
 62
5
  6
CONTINUOUS
 10
319.5953891328
 20
308.2801081802
 11
321.2250187624
 21
308.3541794286
 12
320.854648392
 22
308.2801081802
 13
320.854648392
 23
308.2801081802
  0
SOLID
  5
26D
100
AcDbEntity
  8
0
100
AcDbTrace
 62
5
  6
CONTINUOUS
 10
321.6694632068
 20
308.4282523724
 11
319.817611355
 21
308.5764005205
 12
324.0398335772
 22
308.6504745946
 13
324.0398335772
 23
308.6504745946
  0
SOLID
  5
26E
100
AcDbEntity
  8
0
100
AcDbTrace
 62
5
  6
CONTINUOUS
 10
322.1139076513
 20
308.3541794286
 11
321.6694632068
 21
308.4282523724
 12
324.0398335772
 22
308.6504745946
 13
324.0398335772
 23
308.6504745946
  0
SOLID
  5
26F
100
AcDbEntity
  8
0
100
AcDbTrace
 62
5
  6
CONTINUOUS
 10
322.4842780216
 20
308.2801081802
 11
322.1139076513
 21
308.3541794286
 12
324.0398335772
 22
308.6504745946
 13
324.0398335772
 23
308.6504745946
  0
SOLID
  5
270
100
AcDbEntity
  8
0
100
AcDbTrace
 62
5
  6
CONTINUOUS
 10
322.4842780216
 20
308.2801081802
 11
324.0398335772
 21
308.6504745946
 12
324.4102039476
 22
308.2060301501
 13
324.4102039476
 23
308.2060301501
  0
SOLID
  5
271
100
AcDbEntity
  8
0
100
AcDbTrace
 62
5
  6
CONTINUOUS
 10
324.4102039476
 20
308.2060301501
 11
322.7805743179
 21
308.0578836974
 12
322.4842780216
 22
308.2801081802
 13
322.4842780216
 23
308.2801081802
  0
SOLID
  5
272
100
AcDbEntity
  8
0
100
AcDbTrace
 62
5
  6
CONTINUOUS
 10
320.854648392
 20
308.2801081802
 11
320.5583520957
 21
308.0578836974
 12
318.3361298735
 22
307.8356594972
 13
318.3361298735
 23
307.8356594972
  0
SOLID
  5
273
100
AcDbEntity
  8
0
100
AcDbTrace
 62
5
  6
CONTINUOUS
 10
319.5953891328
 20
308.2801081802
 11
320.854648392
 21
308.2801081802
 12
318.3361298735
 22
307.8356594972
 13
318.3361298735
 23
307.8356594972
  0
SOLID
  5
274
100
AcDbEntity
  8
0
100
AcDbTrace
 62
5
  6
CONTINUOUS
 10
319.5953891328
 20
308.2801081802
 11
318.3361298735
 21
307.8356594972
 12
318.3361298735
 22
308.5023264464
 13
318.3361298735
 23
308.5023264464
  0
SOLID
  5
275
100
AcDbEntity
  8
0
100
AcDbTrace
 62
5
  6
CONTINUOUS
 10
318.3361298735
 20
307.8356594972
 11
320.5583520957
 21
308.0578836974
 12
320.1879817254
 22
307.8356594972
 13
320.1879817254
 23
307.8356594972
  0
SOLID
  5
276
100
AcDbEntity
  8
0
100
AcDbTrace
 62
5
  6
CONTINUOUS
 10
323.0768706142
 20
307.8356594972
 11
322.7805743179
 21
308.0578836974
 12
324.4102039476
 22
308.2060301501
 13
324.4102039476
 23
308.2060301501
  0
SOLID
  5
277
100
AcDbEntity
  8
0
100
AcDbTrace
 62
5
  6
CONTINUOUS
 10
323.0768706142
 20
307.8356594972
 11
324.4102039476
 21
308.2060301501
 12
324.7065002439
 22
307.6875116316
 13
324.7065002439
 23
307.6875116316
  0
SOLID
  5
278
100
AcDbEntity
  8
0
100
AcDbTrace
 62
5
  6
CONTINUOUS
 10
324.7065002439
 20
307.6875116316
 11
323.2990928365
 21
307.5393640486
 12
323.0768706142
 22
307.8356594972
 13
323.0768706142
 23
307.8356594972
  0
SOLID
  5
279
100
AcDbEntity
  8
0
100
AcDbTrace
 62
5
  6
CONTINUOUS
 10
320.1879817254
 20
307.8356594972
 11
319.9657595031
 21
307.5393640486
 12
318.3361298735
 22
307.1689973517
 13
318.3361298735
 23
307.1689973517
  0
SOLID
  5
27A
100
AcDbEntity
  8
0
100
AcDbTrace
 62
5
  6
CONTINUOUS
 10
320.1879817254
 20
307.8356594972
 11
318.3361298735
 21
307.1689973517
 12
318.3361298735
 22
307.8356594972
 13
318.3361298735
 23
307.8356594972
  0
SOLID
  5
27B
100
AcDbEntity
  8
0
100
AcDbTrace
 62
5
  6
CONTINUOUS
 10
318.3361298735
 20
307.1689973517
 11
319.9657595031
 21
307.5393640486
 12
319.817611355
 22
307.1689973517
 13
319.817611355
 23
307.1689973517
  0
SOLID
  5
27C
100
AcDbEntity
  8
0
100
AcDbTrace
 62
5
  6
CONTINUOUS
 10
323.5213150587
 20
307.1689973517
 11
323.2990928365
 21
307.5393640486
 12
324.7065002439
 22
307.6875116316
 13
324.7065002439
 23
307.6875116316
  0
SOLID
  5
27D
100
AcDbEntity
  8
0
100
AcDbTrace
 62
5
  6
CONTINUOUS
 10
323.5213150587
 20
307.1689973517
 11
324.7065002439
 21
307.6875116316
 12
324.854648392
 22
307.020844965
 13
324.854648392
 23
307.020844965
  0
SOLID
  5
27E
100
AcDbEntity
  8
0
100
AcDbTrace
 62
5
  6
CONTINUOUS
 10
324.854648392
 20
307.020844965
 11
323.5953891328
 21
306.7245486687
 12
323.5213150587
 22
307.1689973517
 13
323.5213150587
 23
307.1689973517
  0
SOLID
  5
27F
100
AcDbEntity
  8
0
100
AcDbTrace
 62
5
  6
CONTINUOUS
 10
319.817611355
 20
307.1689973517
 11
319.6694632068
 21
306.7986227427
 12
318.3361298735
 22
306.5764005205
 13
318.3361298735
 23
306.5764005205
  0
SOLID
  5
280
100
AcDbEntity
  8
0
100
AcDbTrace
 62
5
  6
CONTINUOUS
 10
319.817611355
 20
307.1689973517
 11
318.3361298735
 21
306.5764005205
 12
318.3361298735
 22
307.1689973517
 13
318.3361298735
 23
307.1689973517
  0
SOLID
  5
281
100
AcDbEntity
  8
0
100
AcDbTrace
 62
5
  6
CONTINUOUS
 10
318.3361298735
 20
306.5764005205
 11
319.6694632068
 21
306.7986227427
 12
319.6694632068
 22
306.3541822543
 13
319.6694632068
 23
306.3541822543
  0
SOLID
  5
282
100
AcDbEntity
  8
0
100
AcDbTrace
 62
5
  6
CONTINUOUS
 10
323.5953891328
 20
306.7245486687
 11
324.854648392
 21
307.020844965
 12
324.9287224661
 22
306.3541822543
 13
324.9287224661
 23
306.3541822543
  0
SOLID
  5
283
100
AcDbEntity
  8
0
100
AcDbTrace
 62
5
  6
CONTINUOUS
 10
324.9287224661
 20
306.3541822543
 11
323.6694632068
 21
306.2801042242
 12
323.5953891328
 22
306.7245486687
 13
323.5953891328
 23
306.7245486687
  0
SOLID
  5
284
100
AcDbEntity
  8
0
100
AcDbTrace
 62
5
  6
CONTINUOUS
 10
319.6694632068
 20
306.3541822543
 11
318.4102039476
 21
306.0578868057
 12
318.3361298735
 22
306.5764005205
 13
318.3361298735
 23
306.5764005205
  0
SOLID
  5
285
100
AcDbEntity
  8
0
100
AcDbTrace
 62
5
  6
CONTINUOUS
 10
318.4102039476
 20
306.0578868057
 11
319.6694632068
 21
306.3541822543
 12
319.6694632068
 22
306.0578868057
 13
319.6694632068
 23
306.0578868057
  0
SOLID
  5
286
100
AcDbEntity
  8
0
100
AcDbTrace
 62
5
  6
CONTINUOUS
 10
323.6694632068
 20
306.2801042242
 11
324.9287224661
 21
306.3541822543
 12
324.854648392
 22
305.9097338538
 13
324.854648392
 23
305.9097338538
  0
SOLID
  5
287
100
AcDbEntity
  8
0
100
AcDbTrace
 62
5
  6
CONTINUOUS
 10
324.854648392
 20
305.9097338538
 11
323.5953891328
 21
305.7615811846
 12
323.6694632068
 22
306.2801042242
 13
323.6694632068
 23
306.2801042242
  0
SOLID
  5
288
100
AcDbEntity
  8
0
100
AcDbTrace
 62
5
  6
CONTINUOUS
 10
319.6694632068
 20
306.0578868057
 11
319.6694632068
 21
305.7615811846
 12
318.5583520957
 22
305.6134375575
 13
318.5583520957
 23
305.6134375575
  0
SOLID
  5
289
100
AcDbEntity
  8
0
100
AcDbTrace
 62
5
  6
CONTINUOUS
 10
319.6694632068
 20
306.0578868057
 11
318.5583520957
 21
305.6134375575
 12
318.4102039476
 22
306.0578868057
 13
318.4102039476
 23
306.0578868057
  0
SOLID
  5
28A
100
AcDbEntity
  8
0
100
AcDbTrace
 62
5
  6
CONTINUOUS
 10
318.5583520957
 20
305.6134375575
 11
319.6694632068
 21
305.7615811846
 12
319.817611355
 22
305.4652855947
 13
319.817611355
 23
305.4652855947
  0
SOLID
  5
28B
100
AcDbEntity
  8
0
100
AcDbTrace
 62
5
  6
CONTINUOUS
 10
323.5953891328
 20
305.7615811846
 11
324.854648392
 21
305.9097338538
 12
324.7805743179
 22
305.4652855947
 13
324.7805743179
 23
305.4652855947
  0
SOLID
  5
28C
100
AcDbEntity
  8
0
100
AcDbTrace
 62
5
  6
CONTINUOUS
 10
324.7805743179
 20
305.4652855947
 11
323.5213150587
 21
305.3171412613
 12
323.5953891328
 22
305.7615811846
 13
323.5953891328
 23
305.7615811846
  0
SOLID
  5
28D
100
AcDbEntity
  8
0
100
AcDbTrace
 62
5
  6
CONTINUOUS
 10
319.817611355
 20
305.4652855947
 11
318.7065002439
 21
305.1689901461
 12
318.5583520957
 22
305.6134375575
 13
318.5583520957
 23
305.6134375575
  0
SOLID
  5
28E
100
AcDbEntity
  8
0
100
AcDbTrace
 62
5
  6
CONTINUOUS
 10
318.7065002439
 20
305.1689901461
 11
319.817611355
 21
305.4652855947
 12
319.8916854291
 22
305.1689901461
 13
319.8916854291
 23
305.1689901461
  0
SOLID
  5
28F
100
AcDbEntity
  8
0
100
AcDbTrace
 62
5
  6
CONTINUOUS
 10
323.5213150587
 20
305.3171412613
 11
324.7805743179
 21
305.4652855947
 12
324.6324261698
 22
305.020844965
 13
324.6324261698
 23
305.020844965
  0
SOLID
  5
290
100
AcDbEntity
  8
0
100
AcDbTrace
 62
5
  6
CONTINUOUS
 10
324.6324261698
 20
305.020844965
 11
323.2990928365
 21
304.9467708909
 12
323.5213150587
 22
305.3171412613
 13
323.5213150587
 23
305.3171412613
  0
SOLID
  5
291
100
AcDbEntity
  8
0
100
AcDbTrace
 62
5
  6
CONTINUOUS
 10
319.8916854291
 20
305.1689901461
 11
320.0398335772
 21
304.8726968168
 12
318.854648392
 22
304.7245486687
 13
318.854648392
 23
304.7245486687
  0
SOLID
  5
292
100
AcDbEntity
  8
0
100
AcDbTrace
 62
5
  6
CONTINUOUS
 10
319.8916854291
 20
305.1689901461
 11
318.854648392
 21
304.7245486687
 12
318.7065002439
 22
305.1689901461
 13
318.7065002439
 23
305.1689901461
  0
SOLID
  5
293
100
AcDbEntity
  8
0
100
AcDbTrace
 62
5
  6
CONTINUOUS
 10
318.854648392
 20
304.7245486687
 11
320.0398335772
 21
304.8726968168
 12
320.2620557994
 22
304.6504704973
 13
320.2620557994
 23
304.6504704973
  0
SOLID
  5
294
100
AcDbEntity
  8
0
100
AcDbTrace
 62
5
  6
CONTINUOUS
 10
323.0768706142
 20
304.6504704973
 11
323.2990928365
 21
304.9467708909
 12
324.6324261698
 22
305.020844965
 13
324.6324261698
 23
305.020844965
  0
SOLID
  5
295
100
AcDbEntity
  8
0
100
AcDbTrace
 62
5
  6
CONTINUOUS
 10
323.0768706142
 20
304.6504704973
 11
324.6324261698
 21
305.020844965
 12
324.4842780216
 22
304.6504704973
 13
324.4842780216
 23
304.6504704973
  0
SOLID
  5
296
100
AcDbEntity
  8
0
100
AcDbTrace
 62
5
  6
CONTINUOUS
 10
320.2620557994
 20
304.6504704973
 11
320.4102039476
 21
304.5023264464
 12
319.0768706142
 22
304.4282523724
 13
319.0768706142
 23
304.4282523724
  0
SOLID
  5
297
100
AcDbEntity
  8
0
100
AcDbTrace
 62
5
  6
CONTINUOUS
 10
320.2620557994
 20
304.6504704973
 11
319.0768706142
 21
304.4282523724
 12
318.854648392
 22
304.7245486687
 13
318.854648392
 23
304.7245486687
  0
SOLID
  5
298
100
AcDbEntity
  8
0
100
AcDbTrace
 62
5
  6
CONTINUOUS
 10
324.4842780216
 20
304.6504704973
 11
322.7805743179
 21
304.3541782983
 12
323.0768706142
 22
304.6504704973
 13
323.0768706142
 23
304.6504704973
  0
SOLID
  5
299
100
AcDbEntity
  8
0
100
AcDbTrace
 62
5
  6
CONTINUOUS
 10
319.0768706142
 20
304.4282523724
 11
320.4102039476
 21
304.5023264464
 12
320.6324261698
 22
304.2801037297
 13
320.6324261698
 23
304.2801037297
  0
SOLID
  5
29A
100
AcDbEntity
  8
0
100
AcDbTrace
 62
5
  6
CONTINUOUS
 10
322.7805743179
 20
304.3541782983
 11
324.4842780216
 21
304.6504704973
 12
324.2620557994
 22
304.2801037297
 13
324.2620557994
 23
304.2801037297
  0
SOLID
  5
29B
100
AcDbEntity
  8
0
100
AcDbTrace
 62
5
  6
CONTINUOUS
 10
324.2620557994
 20
304.2801037297
 11
322.4842780216
 21
304.2060323401
 12
322.7805743179
 22
304.3541782983
 13
322.7805743179
 23
304.3541782983
  0
SOLID
  5
29C
100
AcDbEntity
  8
0
100
AcDbTrace
 62
5
  6
CONTINUOUS
 10
320.6324261698
 20
304.2801037297
 11
320.9287224661
 21
304.2060323401
 12
319.2990928365
 22
304.1319560761
 13
319.2990928365
 23
304.1319560761
  0
SOLID
  5
29D
100
AcDbEntity
  8
0
100
AcDbTrace
 62
5
  6
CONTINUOUS
 10
320.6324261698
 20
304.2801037297
 11
319.2990928365
 21
304.1319560761
 12
319.0768706142
 22
304.4282523724
 13
319.0768706142
 23
304.4282523724
  0
SOLID
  5
29E
100
AcDbEntity
  8
0
100
AcDbTrace
 62
5
  6
CONTINUOUS
 10
319.2990928365
 20
304.1319560761
 11
320.9287224661
 21
304.2060323401
 12
321.1509446883
 22
304.0578795295
 13
321.1509446883
 23
304.0578795295
  0
SOLID
  5
29F
100
AcDbEntity
  8
0
100
AcDbTrace
 62
5
  6
CONTINUOUS
 10
322.1139076513
 20
304.0578795295
 11
322.4842780216
 21
304.2060323401
 12
324.2620557994
 22
304.2801037297
 13
324.2620557994
 23
304.2801037297
  0
SOLID
  5
2A0
100
AcDbEntity
  8
0
100
AcDbTrace
 62
5
  6
CONTINUOUS
 10
322.1139076513
 20
304.0578795295
 11
324.2620557994
 21
304.2801037297
 12
324.0398335772
 22
303.9097338538
 13
324.0398335772
 23
303.9097338538
  0
SOLID
  5
2A1
100
AcDbEntity
  8
0
100
AcDbTrace
 62
5
  6
CONTINUOUS
 10
322.1139076513
 20
304.0578795295
 11
324.0398335772
 21
303.9097338538
 12
319.5213150587
 22
303.8356597798
 13
319.5213150587
 23
303.8356597798
  0
SOLID
  5
2A2
100
AcDbEntity
  8
0
100
AcDbTrace
 62
5
  6
CONTINUOUS
 10
321.6694632068
 20
304.0578795295
 11
322.1139076513
 21
304.0578795295
 12
319.5213150587
 22
303.8356597798
 13
319.5213150587
 23
303.8356597798
  0
SOLID
  5
2A3
100
AcDbEntity
  8
0
100
AcDbTrace
 62
5
  6
CONTINUOUS
 10
321.4472409846
 20
304.0578795295
 11
321.6694632068
 21
304.0578795295
 12
319.5213150587
 22
303.8356597798
 13
319.5213150587
 23
303.8356597798
  0
SOLID
  5
2A4
100
AcDbEntity
  8
0
100
AcDbTrace
 62
5
  6
CONTINUOUS
 10
321.1509446883
 20
304.0578795295
 11
321.4472409846
 21
304.0578795295
 12
319.5213150587
 22
303.8356597798
 13
319.5213150587
 23
303.8356597798
  0
SOLID
  5
2A5
100
AcDbEntity
  8
0
100
AcDbTrace
 62
5
  6
CONTINUOUS
 10
321.1509446883
 20
304.0578795295
 11
319.5213150587
 21
303.8356597798
 12
319.2990928365
 22
304.1319560761
 13
319.2990928365
 23
304.1319560761
  0
SOLID
  5
2A6
100
AcDbEntity
  8
0
100
AcDbTrace
 62
5
  6
CONTINUOUS
 10
319.817611355
 20
303.6134414076
 11
319.5213150587
 21
303.8356597798
 12
324.0398335772
 22
303.9097338538
 13
324.0398335772
 23
303.9097338538
  0
SOLID
  5
2A7
100
AcDbEntity
  8
0
100
AcDbTrace
 62
5
  6
CONTINUOUS
 10
319.817611355
 20
303.6134414076
 11
324.0398335772
 21
303.9097338538
 12
323.7435372809
 22
303.6134414076
 13
323.7435372809
 23
303.6134414076
  0
SOLID
  5
2A8
100
AcDbEntity
  8
0
100
AcDbTrace
 62
5
  6
CONTINUOUS
 10
323.7435372809
 20
303.6134414076
 11
320.0398335772
 21
303.3912172603
 12
319.817611355
 22
303.6134414076
 13
319.817611355
 23
303.6134414076
  0
SOLID
  5
2A9
100
AcDbEntity
  8
0
100
AcDbTrace
 62
5
  6
CONTINUOUS
 10
320.0398335772
 20
303.3912172603
 11
323.7435372809
 21
303.6134414076
 12
323.3731669105
 22
303.3912172603
 13
323.3731669105
 23
303.3912172603
  0
SOLID
  5
2AA
100
AcDbEntity
  8
0
100
AcDbTrace
 62
5
  6
CONTINUOUS
 10
323.3731669105
 20
303.3912172603
 11
320.4102039476
 21
303.2430644454
 12
320.0398335772
 22
303.3912172603
 13
320.0398335772
 23
303.3912172603
  0
SOLID
  5
2AB
100
AcDbEntity
  8
0
100
AcDbTrace
 62
5
  6
CONTINUOUS
 10
320.4102039476
 20
303.2430644454
 11
323.3731669105
 21
303.3912172603
 12
323.0027965402
 22
303.2430644454
 13
323.0027965402
 23
303.2430644454
  0
SOLID
  5
2AC
100
AcDbEntity
  8
0
100
AcDbTrace
 62
5
  6
CONTINUOUS
 10
323.0027965402
 20
303.2430644454
 11
320.7065002439
 21
303.1689931131
 12
320.4102039476
 22
303.2430644454
 13
320.4102039476
 23
303.2430644454
  0
SOLID
  5
2AD
100
AcDbEntity
  8
0
100
AcDbTrace
 62
5
  6
CONTINUOUS
 10
320.7065002439
 20
303.1689931131
 11
323.0027965402
 21
303.2430644454
 12
322.6324261698
 22
303.1689931131
 13
322.6324261698
 23
303.1689931131
  0
SOLID
  5
2AE
100
AcDbEntity
  8
0
100
AcDbTrace
 62
5
  6
CONTINUOUS
 10
322.6324261698
 20
303.1689931131
 11
321.0027965402
 21
303.0949217808
 12
320.7065002439
 22
303.1689931131
 13
320.7065002439
 23
303.1689931131
  0
SOLID
  5
2AF
100
AcDbEntity
  8
0
100
AcDbTrace
 62
5
  6
CONTINUOUS
 10
321.3731669105
 20
303.0949217808
 11
321.0027965402
 21
303.0949217808
 12
322.6324261698
 22
303.1689931131
 13
322.6324261698
 23
303.1689931131
  0
SOLID
  5
2B0
100
AcDbEntity
  8
0
100
AcDbTrace
 62
5
  6
CONTINUOUS
 10
321.3731669105
 20
303.0949217808
 11
322.6324261698
 21
303.1689931131
 12
322.1879817254
 22
303.0949217808
 13
322.1879817254
 23
303.0949217808
  0
SOLID
  5
2B1
100
AcDbEntity
  8
0
100
AcDbTrace
 62
5
  6
CONTINUOUS
 10
322.1879817254
 20
303.0949217808
 11
321.7435372809
 21
303.020844965
 12
321.3731669105
 22
303.0949217808
 13
321.3731669105
 23
303.0949217808
  0
SOLID
  5
2B2
100
AcDbEntity
  8
0
100
AcDbTrace
 62
5
  6
CONTINUOUS
 10
328.2620557994
 20
311.76158288
 11
332.1139076513
 21
313.0208427044
 12
332.1139076513
 22
311.76158288
 13
332.1139076513
 23
311.76158288
  0
SOLID
  5
2B3
100
AcDbEntity
  8
0
100
AcDbTrace
 62
5
  6
CONTINUOUS
 10
329.0768706142
 20
309.76158288
 11
329.5953891328
 21
309.8356597798
 12
330.1879817254
 22
309.76158288
 13
330.1879817254
 23
309.76158288
  0
SOLID
  5
2B4
100
AcDbEntity
  8
0
100
AcDbTrace
 62
5
  6
CONTINUOUS
 10
330.1879817254
 20
309.76158288
 11
328.6324261698
 21
309.6134375575
 12
329.0768706142
 22
309.76158288
 13
329.0768706142
 23
309.76158288
  0
SOLID
  5
2B5
100
AcDbEntity
  8
0
100
AcDbTrace
 62
5
  6
CONTINUOUS
 10
328.6324261698
 20
309.6134375575
 11
330.1879817254
 21
309.76158288
 12
330.7805743179
 22
309.5393634835
 13
330.7805743179
 23
309.5393634835
  0
SOLID
  5
2B6
100
AcDbEntity
  8
0
100
AcDbTrace
 62
5
  6
CONTINUOUS
 10
330.7805743179
 20
309.5393634835
 11
328.1879817254
 21
309.3912153353
 12
328.6324261698
 22
309.6134375575
 13
328.6324261698
 23
309.6134375575
  0
SOLID
  5
2B7
100
AcDbEntity
  8
0
100
AcDbTrace
 62
5
  6
CONTINUOUS
 10
328.1879817254
 20
309.3912153353
 11
330.7805743179
 21
309.5393634835
 12
331.2250187624
 22
309.3171412613
 13
331.2250187624
 23
309.3171412613
  0
SOLID
  5
2B8
100
AcDbEntity
  8
0
100
AcDbTrace
 62
5
  6
CONTINUOUS
 10
331.2250187624
 20
309.3171412613
 11
327.7435372809
 21
309.094919039
 12
328.1879817254
 22
309.3912153353
 13
328.1879817254
 23
309.3912153353
  0
SOLID
  5
2B9
100
AcDbEntity
  8
0
100
AcDbTrace
 62
5
  6
CONTINUOUS
 10
327.7435372809
 20
309.094919039
 11
331.2250187624
 21
309.3171412613
 12
331.7435372809
 22
308.8726968168
 13
331.7435372809
 23
308.8726968168
  0
SOLID
  5
2BA
100
AcDbEntity
  8
0
100
AcDbTrace
 62
5
  6
CONTINUOUS
 10
328.7065002439
 20
308.5764033462
 11
329.2990928365
 21
308.6504745946
 12
329.0027965402
 22
308.5764033462
 13
329.0027965402
 23
308.5764033462
  0
SOLID
  5
2BB
100
AcDbEntity
  8
0
100
AcDbTrace
 62
5
  6
CONTINUOUS
 10
329.7435372809
 20
308.5764033462
 11
329.2990928365
 21
308.6504745946
 12
331.7435372809
 22
308.8726968168
 13
331.7435372809
 23
308.8726968168
  0
SOLID
  5
2BC
100
AcDbEntity
  8
0
100
AcDbTrace
 62
5
  6
CONTINUOUS
 10
330.1879817254
 20
308.5023230556
 11
329.7435372809
 21
308.5764033462
 12
331.7435372809
 22
308.8726968168
 13
331.7435372809
 23
308.8726968168
  0
SOLID
  5
2BD
100
AcDbEntity
  8
0
100
AcDbTrace
 62
5
  6
CONTINUOUS
 10
330.1879817254
 20
308.5023230556
 11
331.7435372809
 21
308.8726968168
 12
332.1139076513
 22
308.4282523724
 13
332.1139076513
 23
308.4282523724
  0
SOLID
  5
2BE
100
AcDbEntity
  8
0
100
AcDbTrace
 62
5
  6
CONTINUOUS
 10
332.1139076513
 20
308.4282523724
 11
330.4842780216
 21
308.2801042242
 12
330.1879817254
 22
308.5023230556
 13
330.1879817254
 23
308.5023230556
  0
SOLID
  5
2BF
100
AcDbEntity
  8
0
100
AcDbTrace
 62
5
  6
CONTINUOUS
 10
328.2620557994
 20
308.3541782983
 11
327.8916854291
 21
308.0578831323
 12
326.3361298735
 22
307.9097338538
 13
326.3361298735
 23
307.9097338538
  0
SOLID
  5
2C0
100
AcDbEntity
  8
0
100
AcDbTrace
 62
5
  6
CONTINUOUS
 10
328.4842780216
 20
308.5023230556
 11
328.2620557994
 21
308.3541782983
 12
326.3361298735
 22
307.9097338538
 13
326.3361298735
 23
307.9097338538
  0
SOLID
  5
2C1
100
AcDbEntity
  8
0
100
AcDbTrace
 62
5
  6
CONTINUOUS
 10
328.7065002439
 20
308.5764033462
 11
328.4842780216
 21
308.5023230556
 12
326.3361298735
 22
307.9097338538
 13
326.3361298735
 23
307.9097338538
  0
SOLID
  5
2C2
100
AcDbEntity
  8
0
100
AcDbTrace
 62
5
  6
CONTINUOUS
 10
327.7435372809
 20
309.094919039
 11
331.7435372809
 21
308.8726968168
 12
329.2990928365
 22
308.6504745946
 13
329.2990928365
 23
308.6504745946
  0
SOLID
  5
2C3
100
AcDbEntity
  8
0
100
AcDbTrace
 62
5
  6
CONTINUOUS
 10
327.7435372809
 20
309.094919039
 11
329.2990928365
 21
308.6504745946
 12
328.7065002439
 22
308.5764033462
 13
328.7065002439
 23
308.5764033462
  0
SOLID
  5
2C4
100
AcDbEntity
  8
0
100
AcDbTrace
 62
5
  6
CONTINUOUS
 10
327.7435372809
 20
309.094919039
 11
328.7065002439
 21
308.5764033462
 12
326.3361298735
 22
307.9097338538
 13
326.3361298735
 23
307.9097338538
  0
SOLID
  5
2C5
100
AcDbEntity
  8
0
100
AcDbTrace
 62
5
  6
CONTINUOUS
 10
328.2620557994
 20
311.76158288
 11
327.7435372809
 21
309.094919039
 12
326.3361298735
 22
307.9097338538
 13
326.3361298735
 23
307.9097338538
  0
SOLID
  5
2C6
100
AcDbEntity
  8
0
100
AcDbTrace
 62
5
  6
CONTINUOUS
 10
327.3731669105
 20
313.0208427044
 11
332.1139076513
 21
313.0208427044
 12
328.2620557994
 22
311.76158288
 13
328.2620557994
 23
311.76158288
  0
SOLID
  5
2C7
100
AcDbEntity
  8
0
100
AcDbTrace
 62
5
  6
CONTINUOUS
 10
328.2620557994
 20
311.76158288
 11
326.3361298735
 21
307.9097338538
 12
327.3731669105
 22
313.0208427044
 13
327.3731669105
 23
313.0208427044
  0
SOLID
  5
2C8
100
AcDbEntity
  8
0
100
AcDbTrace
 62
5
  6
CONTINUOUS
 10
330.7805743179
 20
308.0578831323
 11
330.4842780216
 21
308.2801042242
 12
332.1139076513
 22
308.4282523724
 13
332.1139076513
 23
308.4282523724
  0
SOLID
  5
2C9
100
AcDbEntity
  8
0
100
AcDbTrace
 62
5
  6
CONTINUOUS
 10
330.7805743179
 20
308.0578831323
 11
332.1139076513
 21
308.4282523724
 12
332.4102039476
 22
307.8356597798
 13
332.4102039476
 23
307.8356597798
  0
SOLID
  5
2CA
100
AcDbEntity
  8
0
100
AcDbTrace
 62
5
  6
CONTINUOUS
 10
326.3361298735
 20
307.9097338538
 11
327.8916854291
 21
308.0578831323
 12
327.5953891328
 22
307.7615857057
 13
327.5953891328
 23
307.7615857057
  0
SOLID
  5
2CB
100
AcDbEntity
  8
0
100
AcDbTrace
 62
5
  6
CONTINUOUS
 10
332.4102039476
 20
307.8356597798
 11
331.0027965402
 21
307.6875116316
 12
330.7805743179
 22
308.0578831323
 13
330.7805743179
 23
308.0578831323
  0
SOLID
  5
2CC
100
AcDbEntity
  8
0
100
AcDbTrace
 62
5
  6
CONTINUOUS
 10
331.2250187624
 20
307.3171412613
 11
331.0027965402
 21
307.6875116316
 12
332.4102039476
 22
307.8356597798
 13
332.4102039476
 23
307.8356597798
  0
SOLID
  5
2CD
100
AcDbEntity
  8
0
100
AcDbTrace
 62
5
  6
CONTINUOUS
 10
331.2250187624
 20
307.3171412613
 11
332.4102039476
 21
307.8356597798
 12
332.5583520957
 22
307.2430671872
 13
332.5583520957
 23
307.2430671872
  0
SOLID
  5
2CE
100
AcDbEntity
  8
0
100
AcDbTrace
 62
5
  6
CONTINUOUS
 10
332.5583520957
 20
307.2430671872
 11
331.2990928365
 21
306.8726968168
 12
331.2250187624
 22
307.3171412613
 13
331.2250187624
 23
307.3171412613
  0
SOLID
  5
2CF
100
AcDbEntity
  8
0
100
AcDbTrace
 62
5
  6
CONTINUOUS
 10
331.2990928365
 20
306.8726968168
 11
332.5583520957
 21
307.2430671872
 12
332.6324261698
 22
306.5764005205
 13
332.6324261698
 23
306.5764005205
  0
SOLID
  5
2D0
100
AcDbEntity
  8
0
100
AcDbTrace
 62
5
  6
CONTINUOUS
 10
332.6324261698
 20
306.5764005205
 11
331.3731669105
 21
306.4282523724
 12
331.2990928365
 22
306.8726968168
 13
331.2990928365
 23
306.8726968168
  0
SOLID
  5
2D1
100
AcDbEntity
  8
0
100
AcDbTrace
 62
5
  6
CONTINUOUS
 10
331.2990928365
 20
305.9097330061
 11
331.3731669105
 21
306.4282523724
 12
332.6324261698
 22
306.5764005205
 13
332.6324261698
 23
306.5764005205
  0
SOLID
  5
2D2
100
AcDbEntity
  8
0
100
AcDbTrace
 62
5
  6
CONTINUOUS
 10
331.2990928365
 20
305.9097330061
 11
332.6324261698
 21
306.5764005205
 12
332.5583520957
 22
305.9097330061
 13
332.5583520957
 23
305.9097330061
  0
SOLID
  5
2D3
100
AcDbEntity
  8
0
100
AcDbTrace
 62
5
  6
CONTINUOUS
 10
326.1879817254
 20
305.8356597798
 11
327.4472409846
 21
305.9097330061
 12
327.5213150587
 22
305.4652930828
 13
327.5213150587
 23
305.4652930828
  0
SOLID
  5
2D4
100
AcDbEntity
  8
0
100
AcDbTrace
 62
5
  6
CONTINUOUS
 10
332.5583520957
 20
305.9097330061
 11
331.2250187624
 21
305.4652930828
 12
331.2990928365
 22
305.9097330061
 13
331.2990928365
 23
305.9097330061
  0
SOLID
  5
2D5
100
AcDbEntity
  8
0
100
AcDbTrace
 62
5
  6
CONTINUOUS
 10
331.2250187624
 20
305.4652930828
 11
332.5583520957
 21
305.9097330061
 12
332.4102039476
 22
305.3171412613
 13
332.4102039476
 23
305.3171412613
  0
SOLID
  5
2D6
100
AcDbEntity
  8
0
100
AcDbTrace
 62
5
  6
CONTINUOUS
 10
327.5213150587
 20
305.4652930828
 11
326.2620557994
 21
305.1689931131
 12
326.1879817254
 22
305.8356597798
 13
326.1879817254
 23
305.8356597798
  0
SOLID
  5
2D7
100
AcDbEntity
  8
0
100
AcDbTrace
 62
5
  6
CONTINUOUS
 10
326.2620557994
 20
305.1689931131
 11
327.5213150587
 21
305.4652930828
 12
327.6694632068
 22
305.094919039
 13
327.6694632068
 23
305.094919039
  0
SOLID
  5
2D8
100
AcDbEntity
  8
0
100
AcDbTrace
 62
5
  6
CONTINUOUS
 10
332.4102039476
 20
305.3171412613
 11
331.0027965402
 21
305.020844965
 12
331.2250187624
 22
305.4652930828
 13
331.2250187624
 23
305.4652930828
  0
SOLID
  5
2D9
100
AcDbEntity
  8
0
100
AcDbTrace
 62
5
  6
CONTINUOUS
 10
331.0027965402
 20
305.020844965
 11
332.4102039476
 21
305.3171412613
 12
332.1879817254
 22
304.7245530485
 13
332.1879817254
 23
304.7245530485
  0
SOLID
  5
2DA
100
AcDbEntity
  8
0
100
AcDbTrace
 62
5
  6
CONTINUOUS
 10
327.6694632068
 20
305.094919039
 11
327.817611355
 21
304.7245530485
 12
326.4842780216
 22
304.6504731817
 13
326.4842780216
 23
304.6504731817
  0
SOLID
  5
2DB
100
AcDbEntity
  8
0
100
AcDbTrace
 62
5
  6
CONTINUOUS
 10
327.6694632068
 20
305.094919039
 11
326.4842780216
 21
304.6504731817
 12
326.2620557994
 22
305.1689931131
 13
326.2620557994
 23
305.1689931131
  0
SOLID
  5
2DC
100
AcDbEntity
  8
0
100
AcDbTrace
 62
5
  6
CONTINUOUS
 10
332.1879817254
 20
304.7245530485
 11
330.7805743179
 21
304.6504731817
 12
331.0027965402
 22
305.020844965
 13
331.0027965402
 23
305.020844965
  0
SOLID
  5
2DD
100
AcDbEntity
  8
0
100
AcDbTrace
 62
5
  6
CONTINUOUS
 10
326.4842780216
 20
304.6504731817
 11
327.817611355
 21
304.7245530485
 12
328.0398335772
 22
304.5023264464
 13
328.0398335772
 23
304.5023264464
  0
SOLID
  5
2DE
100
AcDbEntity
  8
0
100
AcDbTrace
 62
5
  6
CONTINUOUS
 10
328.0398335772
 20
304.5023264464
 11
328.3361298735
 21
304.2801042242
 12
326.7065002439
 22
304.2060331171
 13
326.7065002439
 23
304.2060331171
  0
SOLID
  5
2DF
100
AcDbEntity
  8
0
100
AcDbTrace
 62
5
  6
CONTINUOUS
 10
328.0398335772
 20
304.5023264464
 11
326.7065002439
 21
304.2060331171
 12
326.4842780216
 22
304.6504731817
 13
326.4842780216
 23
304.6504731817
  0
SOLID
  5
2E0
100
AcDbEntity
  8
0
100
AcDbTrace
 62
5
  6
CONTINUOUS
 10
330.4842780216
 20
304.3541782983
 11
330.7805743179
 21
304.6504731817
 12
332.1879817254
 22
304.7245530485
 13
332.1879817254
 23
304.7245530485
  0
SOLID
  5
2E1
100
AcDbEntity
  8
0
100
AcDbTrace
 62
5
  6
CONTINUOUS
 10
330.1139076513
 20
304.2060331171
 11
330.4842780216
 21
304.3541782983
 12
332.1879817254
 22
304.7245530485
 13
332.1879817254
 23
304.7245530485
  0
SOLID
  5
2E2
100
AcDbEntity
  8
0
100
AcDbTrace
 62
5
  6
CONTINUOUS
 10
330.1139076513
 20
304.2060331171
 11
332.1879817254
 21
304.7245530485
 12
331.817611355
 22
304.2060331171
 13
331.817611355
 23
304.2060331171
  0
SOLID
  5
2E3
100
AcDbEntity
  8
0
100
AcDbTrace
 62
5
  6
CONTINUOUS
 10
326.7065002439
 20
304.2060331171
 11
328.3361298735
 21
304.2801042242
 12
328.5583520957
 22
304.1319560761
 13
328.5583520957
 23
304.1319560761
  0
SOLID
  5
2E4
100
AcDbEntity
  8
0
100
AcDbTrace
 62
5
  6
CONTINUOUS
 10
331.817611355
 20
304.2060331171
 11
329.7435372809
 21
304.0578831323
 12
330.1139076513
 22
304.2060331171
 13
330.1139076513
 23
304.2060331171
  0
SOLID
  5
2E5
100
AcDbEntity
  8
0
100
AcDbTrace
 62
5
  6
CONTINUOUS
 10
329.7435372809
 20
304.0578831323
 11
331.817611355
 21
304.2060331171
 12
331.5953891328
 22
303.9097338538
 13
331.5953891328
 23
303.9097338538
  0
SOLID
  5
2E6
100
AcDbEntity
  8
0
100
AcDbTrace
 62
5
  6
CONTINUOUS
 10
329.7435372809
 20
304.0578831323
 11
331.5953891328
 21
303.9097338538
 12
327.0768706142
 22
303.7615857057
 13
327.0768706142
 23
303.7615857057
  0
SOLID
  5
2E7
100
AcDbEntity
  8
0
100
AcDbTrace
 62
5
  6
CONTINUOUS
 10
329.2990928365
 20
304.0578831323
 11
329.7435372809
 21
304.0578831323
 12
327.0768706142
 22
303.7615857057
 13
327.0768706142
 23
303.7615857057
  0
SOLID
  5
2E8
100
AcDbEntity
  8
0
100
AcDbTrace
 62
5
  6
CONTINUOUS
 10
328.9287224661
 20
304.0578831323
 11
329.2990928365
 21
304.0578831323
 12
327.0768706142
 22
303.7615857057
 13
327.0768706142
 23
303.7615857057
  0
SOLID
  5
2E9
100
AcDbEntity
  8
0
100
AcDbTrace
 62
5
  6
CONTINUOUS
 10
328.5583520957
 20
304.1319560761
 11
328.9287224661
 21
304.0578831323
 12
327.0768706142
 22
303.7615857057
 13
327.0768706142
 23
303.7615857057
  0
SOLID
  5
2EA
100
AcDbEntity
  8
0
100
AcDbTrace
 62
5
  6
CONTINUOUS
 10
328.5583520957
 20
304.1319560761
 11
327.0768706142
 21
303.7615857057
 12
326.7065002439
 22
304.2060331171
 13
326.7065002439
 23
304.2060331171
  0
SOLID
  5
2EB
100
AcDbEntity
  8
0
100
AcDbTrace
 62
5
  6
CONTINUOUS
 10
327.0768706142
 20
303.7615857057
 11
331.5953891328
 21
303.9097338538
 12
331.2990928365
 22
303.6875116316
 13
331.2990928365
 23
303.6875116316
  0
SOLID
  5
2EC
100
AcDbEntity
  8
0
100
AcDbTrace
 62
5
  6
CONTINUOUS
 10
331.2990928365
 20
303.6875116316
 11
331.0027965402
 21
303.4652894094
 12
327.5953891328
 22
303.3912153353
 13
327.5953891328
 23
303.3912153353
  0
SOLID
  5
2ED
100
AcDbEntity
  8
0
100
AcDbTrace
 62
5
  6
CONTINUOUS
 10
331.2990928365
 20
303.6875116316
 11
327.5953891328
 21
303.3912153353
 12
327.0768706142
 22
303.7615857057
 13
327.0768706142
 23
303.7615857057
  0
SOLID
  5
2EE
100
AcDbEntity
  8
0
100
AcDbTrace
 62
5
  6
CONTINUOUS
 10
327.5953891328
 20
303.3912153353
 11
331.0027965402
 21
303.4652894094
 12
330.7065002439
 22
303.3171412613
 13
330.7065002439
 23
303.3171412613
  0
SOLID
  5
2EF
100
AcDbEntity
  8
0
100
AcDbTrace
 62
5
  6
CONTINUOUS
 10
330.7065002439
 20
303.3171412613
 11
328.0398335772
 21
303.1689931131
 12
327.5953891328
 22
303.3912153353
 13
327.5953891328
 23
303.3912153353
  0
SOLID
  5
2F0
100
AcDbEntity
  8
0
100
AcDbTrace
 62
5
  6
CONTINUOUS
 10
330.0398335772
 20
303.1689931131
 11
328.0398335772
 21
303.1689931131
 12
330.7065002439
 22
303.3171412613
 13
330.7065002439
 23
303.3171412613
  0
SOLID
  5
2F1
100
AcDbEntity
  8
0
100
AcDbTrace
 62
5
  6
CONTINUOUS
 10
330.0398335772
 20
303.1689931131
 11
330.7065002439
 21
303.3171412613
 12
330.4102039476
 22
303.1689931131
 13
330.4102039476
 23
303.1689931131
  0
SOLID
  5
2F2
100
AcDbEntity
  8
0
100
AcDbTrace
 62
5
  6
CONTINUOUS
 10
330.0398335772
 20
303.1689931131
 11
328.6324261698
 21
303.0949231142
 12
328.0398335772
 22
303.1689931131
 13
328.0398335772
 23
303.1689931131
  0
SOLID
  5
2F3
100
AcDbEntity
  8
0
100
AcDbTrace
 62
5
  6
CONTINUOUS
 10
328.6324261698
 20
303.0949231142
 11
330.0398335772
 21
303.1689931131
 12
329.6694632068
 22
303.0949231142
 13
329.6694632068
 23
303.0949231142
  0
SOLID
  5
2F4
100
AcDbEntity
  8
0
100
AcDbTrace
 62
5
  6
CONTINUOUS
 10
329.6694632068
 20
303.0949231142
 11
329.2990928365
 21
303.020844965
 12
328.6324261698
 22
303.0949231142
 13
328.6324261698
 23
303.0949231142
  0
SOLID
  5
2F5
100
AcDbEntity
  8
0
100
AcDbTrace
 62
5
  6
CONTINUOUS
 10
338.4102039476
 20
313.1689931131
 11
337.3731669105
 21
312.7986227427
 12
337.5953891328
 22
313.1689931131
 13
337.5953891328
 23
313.1689931131
  0
SOLID
  5
2F6
100
AcDbEntity
  8
0
100
AcDbTrace
 62
5
  6
CONTINUOUS
 10
337.1509446883
 20
310.9467708909
 11
335.1509446883
 21
310.8726968168
 12
335.6694632068
 22
311.1689931131
 13
335.6694632068
 23
311.1689931131
  0
SOLID
  5
2F7
100
AcDbEntity
  8
0
100
AcDbTrace
 62
5
  6
CONTINUOUS
 10
334.7065002439
 20
310.6504745946
 11
335.1509446883
 21
310.8726968168
 12
337.1509446883
 22
310.9467708909
 13
337.1509446883
 23
310.9467708909
  0
SOLID
  5
2F8
100
AcDbEntity
  8
0
100
AcDbTrace
 62
5
  6
CONTINUOUS
 10
334.7065002439
 20
310.6504745946
 11
337.1509446883
 21
310.9467708909
 12
336.6324261698
 22
310.5023264464
 13
336.6324261698
 23
310.5023264464
  0
SOLID
  5
2F9
100
AcDbEntity
  8
0
100
AcDbTrace
 62
5
  6
CONTINUOUS
 10
335.9657595031
 20
310.057882002
 11
335.2990928365
 21
309.6875116316
 12
334.7065002439
 22
309.4652894094
 13
334.7065002439
 23
309.4652894094
  0
SOLID
  5
2FA
100
AcDbEntity
  8
0
100
AcDbTrace
 62
5
  6
CONTINUOUS
 10
336.6324261698
 20
310.5023264464
 11
335.9657595031
 21
310.057882002
 12
334.7065002439
 22
309.4652894094
 13
334.7065002439
 23
309.4652894094
  0
SOLID
  5
2FB
100
AcDbEntity
  8
0
100
AcDbTrace
 62
5
  6
CONTINUOUS
 10
336.6324261698
 20
310.5023264464
 11
334.7065002439
 21
309.4652894094
 12
334.7065002439
 22
310.6504745946
 13
334.7065002439
 23
310.6504745946
  0
SOLID
  5
2FC
100
AcDbEntity
  8
0
100
AcDbTrace
 62
5
  6
CONTINUOUS
 10
337.1509446883
 20
312.5023264464
 11
337.3731669105
 21
312.7986227427
 12
338.4102039476
 22
313.1689931131
 13
338.4102039476
 23
313.1689931131
  0
SOLID
  5
2FD
100
AcDbEntity
  8
0
100
AcDbTrace
 62
5
  6
CONTINUOUS
 10
336.854648392
 20
312.1319560761
 11
337.1509446883
 21
312.5023264464
 12
338.4102039476
 22
313.1689931131
 13
338.4102039476
 23
313.1689931131
  0
SOLID
  5
2FE
100
AcDbEntity
  8
0
100
AcDbTrace
 62
5
  6
CONTINUOUS
 10
336.4842780216
 20
311.8356597798
 11
336.854648392
 21
312.1319560761
 12
338.4102039476
 22
313.1689931131
 13
338.4102039476
 23
313.1689931131
  0
SOLID
  5
2FF
100
AcDbEntity
  8
0
100
AcDbTrace
 62
5
  6
CONTINUOUS
 10
336.0398335772
 20
311.4652894094
 11
336.4842780216
 21
311.8356597798
 12
338.4102039476
 22
313.1689931131
 13
338.4102039476
 23
313.1689931131
  0
SOLID
  5
300
100
AcDbEntity
  8
0
100
AcDbTrace
 62
5
  6
CONTINUOUS
 10
335.6694632068
 20
311.1689931131
 11
336.0398335772
 21
311.4652894094
 12
338.4102039476
 22
313.1689931131
 13
338.4102039476
 23
313.1689931131
  0
SOLID
  5
301
100
AcDbEntity
  8
0
100
AcDbTrace
 62
5
  6
CONTINUOUS
 10
337.1509446883
 20
310.9467708909
 11
335.6694632068
 21
311.1689931131
 12
338.4102039476
 22
313.1689931131
 13
338.4102039476
 23
313.1689931131
  0
SOLID
  5
302
100
AcDbEntity
  8
0
100
AcDbTrace
 62
5
  6
CONTINUOUS
 10
337.1509446883
 20
303.1689931131
 11
337.1509446883
 21
310.9467708909
 12
338.4102039476
 22
313.1689931131
 13
338.4102039476
 23
313.1689931131
  0
SOLID
  5
303
100
AcDbEntity
  8
0
100
AcDbTrace
 62
5
  6
CONTINUOUS
 10
337.1509446883
 20
303.1689931131
 11
338.4102039476
 21
313.1689931131
 12
338.4102039476
 22
303.1689931131
 13
338.4102039476
 23
303.1689931131
  0
SOLID
  5
304
100
AcDbEntity
  8
0
100
AcDbTrace
 62
5
  6
CONTINUOUS
 10
345.1509446883
 20
307.3171412613
 11
341.2990928365
 21
306.1319560761
 12
341.2990928365
 22
307.3171412613
 13
341.2990928365
 23
307.3171412613
  0
SOLID
  5
305
100
AcDbEntity
  8
0
100
AcDbTrace
 62
5
  6
CONTINUOUS
 10
341.2990928365
 20
306.1319560761
 11
345.1509446883
 21
307.3171412613
 12
345.1509446883
 22
306.1319560761
 13
345.1509446883
 23
306.1319560761
  0
SOLID
  5
306
100
AcDbEntity
  8
0
100
AcDbTrace
 62
5
  6
CONTINUOUS
 10
350.7065002439
 20
313.1689931131
 11
349.6694632068
 21
312.7986227427
 12
349.8916854291
 22
313.1689931131
 13
349.8916854291
 23
313.1689931131
  0
SOLID
  5
307
100
AcDbEntity
  8
0
100
AcDbTrace
 62
5
  6
CONTINUOUS
 10
349.4472409846
 20
310.9467708909
 11
347.4472409846
 21
310.8726968168
 12
347.9657595031
 22
311.1689931131
 13
347.9657595031
 23
311.1689931131
  0
SOLID
  5
308
100
AcDbEntity
  8
0
100
AcDbTrace
 62
5
  6
CONTINUOUS
 10
347.0027965402
 20
310.6504745946
 11
347.4472409846
 21
310.8726968168
 12
349.4472409846
 22
310.9467708909
 13
349.4472409846
 23
310.9467708909
  0
SOLID
  5
309
100
AcDbEntity
  8
0
100
AcDbTrace
 62
5
  6
CONTINUOUS
 10
347.0027965402
 20
310.6504745946
 11
349.4472409846
 21
310.9467708909
 12
348.9287224661
 22
310.5023264464
 13
348.9287224661
 23
310.5023264464
  0
SOLID
  5
30A
100
AcDbEntity
  8
0
100
AcDbTrace
 62
5
  6
CONTINUOUS
 10
348.2620557994
 20
310.057882002
 11
347.5953891328
 21
309.6875116316
 12
347.0027965402
 22
309.4652894094
 13
347.0027965402
 23
309.4652894094
  0
SOLID
  5
30B
100
AcDbEntity
  8
0
100
AcDbTrace
 62
5
  6
CONTINUOUS
 10
348.9287224661
 20
310.5023264464
 11
348.2620557994
 21
310.057882002
 12
347.0027965402
 22
309.4652894094
 13
347.0027965402
 23
309.4652894094
  0
SOLID
  5
30C
100
AcDbEntity
  8
0
100
AcDbTrace
 62
5
  6
CONTINUOUS
 10
348.9287224661
 20
310.5023264464
 11
347.0027965402
 21
309.4652894094
 12
347.0027965402
 22
310.6504745946
 13
347.0027965402
 23
310.6504745946
  0
SOLID
  5
30D
100
AcDbEntity
  8
0
100
AcDbTrace
 62
5
  6
CONTINUOUS
 10
349.4472409846
 20
312.5023264464
 11
349.6694632068
 21
312.7986227427
 12
350.7065002439
 22
313.1689931131
 13
350.7065002439
 23
313.1689931131
  0
SOLID
  5
30E
100
AcDbEntity
  8
0
100
AcDbTrace
 62
5
  6
CONTINUOUS
 10
349.1509446883
 20
312.1319560761
 11
349.4472409846
 21
312.5023264464
 12
350.7065002439
 22
313.1689931131
 13
350.7065002439
 23
313.1689931131
  0
SOLID
  5
30F
100
AcDbEntity
  8
0
100
AcDbTrace
 62
5
  6
CONTINUOUS
 10
348.7805743179
 20
311.8356597798
 11
349.1509446883
 21
312.1319560761
 12
350.7065002439
 22
313.1689931131
 13
350.7065002439
 23
313.1689931131
  0
SOLID
  5
310
100
AcDbEntity
  8
0
100
AcDbTrace
 62
5
  6
CONTINUOUS
 10
348.3361298735
 20
311.4652894094
 11
348.7805743179
 21
311.8356597798
 12
350.7065002439
 22
313.1689931131
 13
350.7065002439
 23
313.1689931131
  0
SOLID
  5
311
100
AcDbEntity
  8
0
100
AcDbTrace
 62
5
  6
CONTINUOUS
 10
347.9657595031
 20
311.1689931131
 11
348.3361298735
 21
311.4652894094
 12
350.7065002439
 22
313.1689931131
 13
350.7065002439
 23
313.1689931131
  0
SOLID
  5
312
100
AcDbEntity
  8
0
100
AcDbTrace
 62
5
  6
CONTINUOUS
 10
349.4472409846
 20
310.9467708909
 11
347.9657595031
 21
311.1689931131
 12
350.7065002439
 22
313.1689931131
 13
350.7065002439
 23
313.1689931131
  0
SOLID
  5
313
100
AcDbEntity
  8
0
100
AcDbTrace
 62
5
  6
CONTINUOUS
 10
349.4472409846
 20
303.1689931131
 11
349.4472409846
 21
310.9467708909
 12
350.7065002439
 22
313.1689931131
 13
350.7065002439
 23
313.1689931131
  0
SOLID
  5
314
100
AcDbEntity
  8
0
100
AcDbTrace
 62
5
  6
CONTINUOUS
 10
349.4472409846
 20
303.1689931131
 11
350.7065002439
 21
313.1689931131
 12
350.7065002439
 22
303.1689931131
 13
350.7065002439
 23
303.1689931131
  0
SOLID
  5
315
100
AcDbEntity
  8
0
100
AcDbTrace
 62
5
  6
CONTINUOUS
 10
356.3361298735
 20
313.0949235602
 11
357.0027965402
 21
313.1689931131
 12
357.6694632068
 22
313.0949235602
 13
357.6694632068
 23
313.0949235602
  0
SOLID
  5
316
100
AcDbEntity
  8
0
100
AcDbTrace
 62
5
  6
CONTINUOUS
 10
357.6694632068
 20
313.0949235602
 11
355.7435372809
 21
312.9467731514
 12
356.3361298735
 22
313.0949235602
 13
356.3361298735
 23
313.0949235602
  0
SOLID
  5
317
100
AcDbEntity
  8
0
100
AcDbTrace
 62
5
  6
CONTINUOUS
 10
355.7435372809
 20
312.9467731514
 11
357.6694632068
 21
313.0949235602
 12
358.2620557994
 22
312.9467731514
 13
358.2620557994
 23
312.9467731514
  0
SOLID
  5
318
100
AcDbEntity
  8
0
100
AcDbTrace
 62
5
  6
CONTINUOUS
 10
358.2620557994
 20
312.9467731514
 11
355.2250187624
 21
312.7245531898
 12
355.7435372809
 22
312.9467731514
 13
355.7435372809
 23
312.9467731514
  0
SOLID
  5
319
100
AcDbEntity
  8
0
100
AcDbTrace
 62
5
  6
CONTINUOUS
 10
355.2250187624
 20
312.7245531898
 11
358.2620557994
 21
312.9467731514
 12
358.7805743179
 22
312.7245531898
 13
358.7805743179
 23
312.7245531898
  0
SOLID
  5
31A
100
AcDbEntity
  8
0
100
AcDbTrace
 62
5
  6
CONTINUOUS
 10
358.7805743179
 20
312.7245531898
 11
354.7805743179
 21
312.4282523724
 12
355.2250187624
 22
312.7245531898
 13
355.2250187624
 23
312.7245531898
  0
SOLID
  5
31B
100
AcDbEntity
  8
0
100
AcDbTrace
 62
5
  6
CONTINUOUS
 10
354.7805743179
 20
312.4282523724
 11
358.7805743179
 21
312.7245531898
 12
359.2250187624
 22
312.3541782983
 13
359.2250187624
 23
312.3541782983
  0
SOLID
  5
31C
100
AcDbEntity
  8
0
100
AcDbTrace
 62
5
  6
CONTINUOUS
 10
357.0027965402
 20
312.1319560761
 11
356.5583520957
 21
312.0578831323
 12
354.4102039476
 22
311.9838028417
 13
354.4102039476
 23
311.9838028417
  0
SOLID
  5
31D
100
AcDbEntity
  8
0
100
AcDbTrace
 62
5
  6
CONTINUOUS
 10
359.2250187624
 20
312.3541782983
 11
357.0027965402
 21
312.1319560761
 12
354.4102039476
 22
311.9838028417
 13
354.4102039476
 23
311.9838028417
  0
SOLID
  5
31E
100
AcDbEntity
  8
0
100
AcDbTrace
 62
5
  6
CONTINUOUS
 10
359.2250187624
 20
312.3541782983
 11
354.4102039476
 21
311.9838028417
 12
354.7805743179
 22
312.4282523724
 13
354.7805743179
 23
312.4282523724
  0
SOLID
  5
31F
100
AcDbEntity
  8
0
100
AcDbTrace
 62
5
  6
CONTINUOUS
 10
354.4102039476
 20
311.9838028417
 11
356.5583520957
 21
312.0578831323
 12
356.1879817254
 22
311.9838028417
 13
356.1879817254
 23
311.9838028417
  0
SOLID
  5
320
100
AcDbEntity
  8
0
100
AcDbTrace
 62
5
  6
CONTINUOUS
 10
357.3731669105
 20
312.0578831323
 11
357.0027965402
 21
312.1319560761
 12
359.2250187624
 22
312.3541782983
 13
359.2250187624
 23
312.3541782983
  0
SOLID
  5
321
100
AcDbEntity
  8
0
100
AcDbTrace
 62
5
  6
CONTINUOUS
 10
357.7435372809
 20
311.9838028417
 11
357.3731669105
 21
312.0578831323
 12
359.2250187624
 22
312.3541782983
 13
359.2250187624
 23
312.3541782983
  0
SOLID
  5
322
100
AcDbEntity
  8
0
100
AcDbTrace
 62
5
  6
CONTINUOUS
 10
357.7435372809
 20
311.9838028417
 11
359.2250187624
 21
312.3541782983
 12
359.5953891328
 22
311.9097338538
 13
359.5953891328
 23
311.9097338538
  0
SOLID
  5
323
100
AcDbEntity
  8
0
100
AcDbTrace
 62
5
  6
CONTINUOUS
 10
359.5953891328
 20
311.9097338538
 11
358.0398335772
 21
311.8356597798
 12
357.7435372809
 22
311.9838028417
 13
357.7435372809
 23
311.9838028417
  0
SOLID
  5
324
100
AcDbEntity
  8
0
100
AcDbTrace
 62
5
  6
CONTINUOUS
 10
355.817611355
 20
311.7615857057
 11
355.5953891328
 21
311.5393634835
 12
354.1139076513
 22
311.4652933654
 13
354.1139076513
 23
311.4652933654
  0
SOLID
  5
325
100
AcDbEntity
  8
0
100
AcDbTrace
 62
5
  6
CONTINUOUS
 10
356.1879817254
 20
311.9838028417
 11
355.817611355
 21
311.7615857057
 12
354.1139076513
 22
311.4652933654
 13
354.1139076513
 23
311.4652933654
  0
SOLID
  5
326
100
AcDbEntity
  8
0
100
AcDbTrace
 62
5
  6
CONTINUOUS
 10
356.1879817254
 20
311.9838028417
 11
354.1139076513
 21
311.4652933654
 12
354.4102039476
 22
311.9838028417
 13
354.4102039476
 23
311.9838028417
  0
SOLID
  5
327
100
AcDbEntity
  8
0
100
AcDbTrace
 62
5
  6
CONTINUOUS
 10
358.3361298735
 20
311.6134375575
 11
358.0398335772
 21
311.8356597798
 12
359.5953891328
 22
311.9097338538
 13
359.5953891328
 23
311.9097338538
  0
SOLID
  5
328
100
AcDbEntity
  8
0
100
AcDbTrace
 62
5
  6
CONTINUOUS
 10
358.3361298735
 20
311.6134375575
 11
359.5953891328
 21
311.9097338538
 12
359.8916854291
 22
311.4652933654
 13
359.8916854291
 23
311.4652933654
  0
SOLID
  5
329
100
AcDbEntity
  8
0
100
AcDbTrace
 62
5
  6
CONTINUOUS
 10
359.8916854291
 20
311.4652933654
 11
358.5583520957
 21
311.3912153353
 12
358.3361298735
 22
311.6134375575
 13
358.3361298735
 23
311.6134375575
  0
SOLID
  5
32A
100
AcDbEntity
  8
0
100
AcDbTrace
 62
5
  6
CONTINUOUS
 10
354.1139076513
 20
311.4652933654
 11
355.5953891328
 21
311.5393634835
 12
355.3731669105
 22
311.2430671872
 13
355.3731669105
 23
311.2430671872
  0
SOLID
  5
32B
100
AcDbEntity
  8
0
100
AcDbTrace
 62
5
  6
CONTINUOUS
 10
358.7065002439
 20
311.094919039
 11
358.5583520957
 21
311.3912153353
 12
359.8916854291
 22
311.4652933654
 13
359.8916854291
 23
311.4652933654
  0
SOLID
  5
32C
100
AcDbEntity
  8
0
100
AcDbTrace
 62
5
  6
CONTINUOUS
 10
358.7065002439
 20
311.094919039
 11
359.8916854291
 21
311.4652933654
 12
360.0398335772
 22
310.9467731514
 13
360.0398335772
 23
310.9467731514
  0
SOLID
  5
32D
100
AcDbEntity
  8
0
100
AcDbTrace
 62
5
  6
CONTINUOUS
 10
355.3731669105
 20
311.2430671872
 11
355.1509446883
 21
310.9467731514
 12
353.8916854291
 22
310.8726968168
 13
353.8916854291
 23
310.8726968168
  0
SOLID
  5
32E
100
AcDbEntity
  8
0
100
AcDbTrace
 62
5
  6
CONTINUOUS
 10
355.3731669105
 20
311.2430671872
 11
353.8916854291
 21
310.8726968168
 12
354.1139076513
 22
311.4652933654
 13
354.1139076513
 23
311.4652933654
  0
SOLID
  5
32F
100
AcDbEntity
  8
0
100
AcDbTrace
 62
5
  6
CONTINUOUS
 10
360.0398335772
 20
310.9467731514
 11
358.7805743179
 21
310.7986227427
 12
358.7065002439
 22
311.094919039
 13
358.7065002439
 23
311.094919039
  0
SOLID
  5
330
100
AcDbEntity
  8
0
100
AcDbTrace
 62
5
  6
CONTINUOUS
 10
353.8916854291
 20
310.8726968168
 11
355.1509446883
 21
310.9467731514
 12
355.0768706142
 22
310.5764005205
 13
355.0768706142
 23
310.5764005205
  0
SOLID
  5
331
100
AcDbEntity
  8
0
100
AcDbTrace
 62
5
  6
CONTINUOUS
 10
358.854648392
 20
310.4282523724
 11
358.7805743179
 21
310.7986227427
 12
360.0398335772
 22
310.9467731514
 13
360.0398335772
 23
310.9467731514
  0
SOLID
  5
332
100
AcDbEntity
  8
0
100
AcDbTrace
 62
5
  6
CONTINUOUS
 10
358.854648392
 20
310.4282523724
 11
360.0398335772
 21
310.9467731514
 12
360.1139076513
 22
310.3541782983
 13
360.1139076513
 23
310.3541782983
  0
SOLID
  5
333
100
AcDbEntity
  8
0
100
AcDbTrace
 62
5
  6
CONTINUOUS
 10
355.0768706142
 20
310.5764005205
 11
353.817611355
 21
310.2801042242
 12
353.8916854291
 22
310.8726968168
 13
353.8916854291
 23
310.8726968168
  0
SOLID
  5
334
100
AcDbEntity
  8
0
100
AcDbTrace
 62
5
  6
CONTINUOUS
 10
353.817611355
 20
310.2801042242
 11
355.0768706142
 21
310.5764005205
 12
355.0768706142
 22
310.1319560761
 13
355.0768706142
 23
310.1319560761
  0
SOLID
  5
335
100
AcDbEntity
  8
0
100
AcDbTrace
 62
5
  6
CONTINUOUS
 10
360.1139076513
 20
310.3541782983
 11
358.7805743179
 21
310.057882002
 12
358.854648392
 22
310.4282523724
 13
358.854648392
 23
310.4282523724
  0
SOLID
  5
336
100
AcDbEntity
  8
0
100
AcDbTrace
 62
5
  6
CONTINUOUS
 10
358.7805743179
 20
310.057882002
 11
360.1139076513
 21
310.3541782983
 12
360.0398335772
 22
309.8356597798
 13
360.0398335772
 23
309.8356597798
  0
SOLID
  5
337
100
AcDbEntity
  8
0
100
AcDbTrace
 62
5
  6
CONTINUOUS
 10
360.0398335772
 20
309.8356597798
 11
358.7065002439
 21
309.7615857057
 12
358.7805743179
 22
310.057882002
 13
358.7805743179
 23
310.057882002
  0
SOLID
  5
338
100
AcDbEntity
  8
0
100
AcDbTrace
 62
5
  6
CONTINUOUS
 10
358.4842780216
 20
309.3912153353
 11
358.7065002439
 21
309.7615857057
 12
360.0398335772
 22
309.8356597798
 13
360.0398335772
 23
309.8356597798
  0
SOLID
  5
339
100
AcDbEntity
  8
0
100
AcDbTrace
 62
5
  6
CONTINUOUS
 10
358.4842780216
 20
309.3912153353
 11
360.0398335772
 21
309.8356597798
 12
359.817611355
 22
309.2430671872
 13
359.817611355
 23
309.2430671872
  0
SOLID
  5
33A
100
AcDbEntity
  8
0
100
AcDbTrace
 62
5
  6
CONTINUOUS
 10
359.817611355
 20
309.2430671872
 11
358.2620557994
 21
309.020844965
 12
358.4842780216
 22
309.3912153353
 13
358.4842780216
 23
309.3912153353
  0
SOLID
  5
33B
100
AcDbEntity
  8
0
100
AcDbTrace
 62
5
  6
CONTINUOUS
 10
358.2620557994
 20
309.020844965
 11
359.817611355
 21
309.2430671872
 12
359.7435372809
 22
308.9467708909
 13
359.7435372809
 23
308.9467708909
  0
SOLID
  5
33C
100
AcDbEntity
  8
0
100
AcDbTrace
 62
5
  6
CONTINUOUS
 10
359.7435372809
 20
308.9467708909
 11
358.1139076513
 21
308.7986227427
 12
358.2620557994
 22
309.020844965
 13
358.2620557994
 23
309.020844965
  0
SOLID
  5
33D
100
AcDbEntity
  8
0
100
AcDbTrace
 62
5
  6
CONTINUOUS
 10
358.1139076513
 20
308.7986227427
 11
359.7435372809
 21
308.9467708909
 12
359.5213150587
 22
308.6504745946
 13
359.5213150587
 23
308.6504745946
  0
SOLID
  5
33E
100
AcDbEntity
  8
0
100
AcDbTrace
 62
5
  6
CONTINUOUS
 10
359.5213150587
 20
308.6504745946
 11
357.8916854291
 21
308.5764005205
 12
358.1139076513
 22
308.7986227427
 13
358.1139076513
 23
308.7986227427
  0
SOLID
  5
33F
100
AcDbEntity
  8
0
100
AcDbTrace
 62
5
  6
CONTINUOUS
 10
357.6694632068
 20
308.3541833846
 11
357.8916854291
 21
308.5764005205
 12
359.5213150587
 22
308.6504745946
 13
359.5213150587
 23
308.6504745946
  0
SOLID
  5
340
100
AcDbEntity
  8
0
100
AcDbTrace
 62
5
  6
CONTINUOUS
 10
357.6694632068
 20
308.3541833846
 11
359.5213150587
 21
308.6504745946
 12
359.2990928365
 22
308.3541833846
 13
359.2990928365
 23
308.3541833846
  0
SOLID
  5
341
100
AcDbEntity
  8
0
100
AcDbTrace
 62
5
  6
CONTINUOUS
 10
359.2990928365
 20
308.3541833846
 11
357.4472409846
 21
308.1319560761
 12
357.6694632068
 22
308.3541833846
 13
357.6694632068
 23
308.3541833846
  0
SOLID
  5
342
100
AcDbEntity
  8
0
100
AcDbTrace
 62
5
  6
CONTINUOUS
 10
357.4472409846
 20
308.1319560761
 11
359.2990928365
 21
308.3541833846
 12
359.0768706142
 22
307.9838079279
 13
359.0768706142
 23
307.9838079279
  0
SOLID
  5
343
100
AcDbEntity
  8
0
100
AcDbTrace
 62
5
  6
CONTINUOUS
 10
359.0768706142
 20
307.9838079279
 11
357.1509446883
 21
307.8356597798
 12
357.4472409846
 22
308.1319560761
 13
357.4472409846
 23
308.1319560761
  0
SOLID
  5
344
100
AcDbEntity
  8
0
100
AcDbTrace
 62
5
  6
CONTINUOUS
 10
357.1509446883
 20
307.8356597798
 11
359.0768706142
 21
307.9838079279
 12
358.7805743179
 22
307.6875116316
 13
358.7805743179
 23
307.6875116316
  0
SOLID
  5
345
100
AcDbEntity
  8
0
100
AcDbTrace
 62
5
  6
CONTINUOUS
 10
358.7805743179
 20
307.6875116316
 11
356.7805743179
 21
307.5393634835
 12
357.1509446883
 22
307.8356597798
 13
357.1509446883
 23
307.8356597798
  0
SOLID
  5
346
100
AcDbEntity
  8
0
100
AcDbTrace
 62
5
  6
CONTINUOUS
 10
356.4842780216
 20
307.2430632312
 11
356.7805743179
 21
307.5393634835
 12
358.7805743179
 22
307.6875116316
 13
358.7805743179
 23
307.6875116316
  0
SOLID
  5
347
100
AcDbEntity
  8
0
100
AcDbTrace
 62
5
  6
CONTINUOUS
 10
356.4842780216
 20
307.2430632312
 11
358.7805743179
 21
307.6875116316
 12
358.3361298735
 22
307.2430632312
 13
358.3361298735
 23
307.2430632312
  0
SOLID
  5
348
100
AcDbEntity
  8
0
100
AcDbTrace
 62
5
  6
CONTINUOUS
 10
358.3361298735
 20
307.2430632312
 11
356.0398335772
 21
306.8726968168
 12
356.4842780216
 22
307.2430632312
 13
356.4842780216
 23
307.2430632312
  0
SOLID
  5
349
100
AcDbEntity
  8
0
100
AcDbTrace
 62
5
  6
CONTINUOUS
 10
356.0398335772
 20
306.8726968168
 11
358.3361298735
 21
307.2430632312
 12
357.817611355
 22
306.7986227427
 13
357.817611355
 23
306.7986227427
  0
SOLID
  5
34A
100
AcDbEntity
  8
0
100
AcDbTrace
 62
5
  6
CONTINUOUS
 10
357.817611355
 20
306.7986227427
 11
355.5953891328
 21
306.5023264464
 12
356.0398335772
 22
306.8726968168
 13
356.0398335772
 23
306.8726968168
  0
SOLID
  5
34B
100
AcDbEntity
  8
0
100
AcDbTrace
 62
5
  6
CONTINUOUS
 10
355.5953891328
 20
306.5023264464
 11
357.817611355
 21
306.7986227427
 12
357.2250187624
 22
306.2801042242
 13
357.2250187624
 23
306.2801042242
  0
SOLID
  5
34C
100
AcDbEntity
  8
0
100
AcDbTrace
 62
5
  6
CONTINUOUS
 10
357.2250187624
 20
306.2801042242
 11
355.1509446883
 21
306.057882002
 12
355.5953891328
 22
306.5023264464
 13
355.5953891328
 23
306.5023264464
  0
SOLID
  5
34D
100
AcDbEntity
  8
0
100
AcDbTrace
 62
5
  6
CONTINUOUS
 10
355.1509446883
 20
306.057882002
 11
357.2250187624
 21
306.2801042242
 12
356.7805743179
 22
305.8356597798
 13
356.7805743179
 23
305.8356597798
  0
SOLID
  5
34E
100
AcDbEntity
  8
0
100
AcDbTrace
 62
5
  6
CONTINUOUS
 10
356.7805743179
 20
305.8356597798
 11
354.7805743179
 21
305.6875116316
 12
355.1509446883
 22
306.057882002
 13
355.1509446883
 23
306.057882002
  0
SOLID
  5
34F
100
AcDbEntity
  8
0
100
AcDbTrace
 62
5
  6
CONTINUOUS
 10
354.7805743179
 20
305.6875116316
 11
356.7805743179
 21
305.8356597798
 12
356.3361298735
 22
305.5393634835
 13
356.3361298735
 23
305.5393634835
  0
SOLID
  5
350
100
AcDbEntity
  8
0
100
AcDbTrace
 62
5
  6
CONTINUOUS
 10
356.3361298735
 20
305.5393634835
 11
354.4842780216
 21
305.3912153353
 12
354.7805743179
 22
305.6875116316
 13
354.7805743179
 23
305.6875116316
  0
SOLID
  5
351
100
AcDbEntity
  8
0
100
AcDbTrace
 62
5
  6
CONTINUOUS
 10
354.4842780216
 20
305.3912153353
 11
356.3361298735
 21
305.5393634835
 12
356.0398335772
 22
305.2430671872
 13
356.0398335772
 23
305.2430671872
  0
SOLID
  5
352
100
AcDbEntity
  8
0
100
AcDbTrace
 62
5
  6
CONTINUOUS
 10
356.0398335772
 20
305.2430671872
 11
355.817611355
 21
305.020844965
 12
354.0398335772
 22
304.7245530485
 13
354.0398335772
 23
304.7245530485
  0
SOLID
  5
353
100
AcDbEntity
  8
0
100
AcDbTrace
 62
5
  6
CONTINUOUS
 10
356.0398335772
 20
305.2430671872
 11
354.0398335772
 21
304.7245530485
 12
354.4842780216
 22
305.3912153353
 13
354.4842780216
 23
305.3912153353
  0
SOLID
  5
354
100
AcDbEntity
  8
0
100
AcDbTrace
 62
5
  6
CONTINUOUS
 10
354.0398335772
 20
304.7245530485
 11
355.817611355
 21
305.020844965
 12
355.5213150587
 22
304.7245530485
 13
355.5213150587
 23
304.7245530485
  0
SOLID
  5
355
100
AcDbEntity
  8
0
100
AcDbTrace
 62
5
  6
CONTINUOUS
 10
355.2990928365
 20
304.4282530788
 11
360.1879817254
 21
304.4282530788
 12
353.7435372809
 22
303.9838079279
 13
353.7435372809
 23
303.9838079279
  0
SOLID
  5
356
100
AcDbEntity
  8
0
100
AcDbTrace
 62
5
  6
CONTINUOUS
 10
355.5213150587
 20
304.7245530485
 11
355.2990928365
 21
304.4282530788
 12
353.7435372809
 22
303.9838079279
 13
353.7435372809
 23
303.9838079279
  0
SOLID
  5
357
100
AcDbEntity
  8
0
100
AcDbTrace
 62
5
  6
CONTINUOUS
 10
355.5213150587
 20
304.7245530485
 11
353.7435372809
 21
303.9838079279
 12
354.0398335772
 22
304.7245530485
 13
354.0398335772
 23
304.7245530485
  0
SOLID
  5
358
100
AcDbEntity
  8
0
100
AcDbTrace
 62
5
  6
CONTINUOUS
 10
353.6694632068
 20
303.6134375575
 11
353.7435372809
 21
303.9838079279
 12
360.1879817254
 22
304.4282530788
 13
360.1879817254
 23
304.4282530788
  0
SOLID
  5
359
100
AcDbEntity
  8
0
100
AcDbTrace
 62
5
  6
CONTINUOUS
 10
353.6694632068
 20
303.1689931131
 11
353.6694632068
 21
303.6134375575
 12
360.1879817254
 22
304.4282530788
 13
360.1879817254
 23
304.4282530788
  0
SOLID
  5
35A
100
AcDbEntity
  8
0
100
AcDbTrace
 62
5
  6
CONTINUOUS
 10
353.6694632068
 20
303.1689931131
 11
360.1879817254
 21
304.4282530788
 12
360.1879817254
 22
303.1689931131
 13
360.1879817254
 23
303.1689931131
  0
SOLID
  5
35B
100
AcDbEntity
  8
0
100
AcDbTrace
 62
5
  6
CONTINUOUS
 10
364.2620557994
 20
313.0949167785
 11
364.7805743179
 21
313.1689931131
 12
365.1509446883
 22
313.0949167785
 13
365.1509446883
 23
313.0949167785
  0
SOLID
  5
35C
100
AcDbEntity
  8
0
100
AcDbTrace
 62
5
  6
CONTINUOUS
 10
365.1509446883
 20
313.0949167785
 11
363.817611355
 21
313.0208460952
 12
364.2620557994
 22
313.0949167785
 13
364.2620557994
 23
313.0949167785
  0
SOLID
  5
35D
100
AcDbEntity
  8
0
100
AcDbTrace
 62
5
  6
CONTINUOUS
 10
363.817611355
 20
313.0208460952
 11
365.1509446883
 21
313.0949167785
 12
365.5213150587
 22
313.0208460952
 13
365.5213150587
 23
313.0208460952
  0
SOLID
  5
35E
100
AcDbEntity
  8
0
100
AcDbTrace
 62
5
  6
CONTINUOUS
 10
365.5213150587
 20
313.0208460952
 11
365.8916854291
 21
312.9467708909
 12
363.3731669105
 22
312.7986216125
 13
363.3731669105
 23
312.7986216125
  0
SOLID
  5
35F
100
AcDbEntity
  8
0
100
AcDbTrace
 62
5
  6
CONTINUOUS
 10
365.5213150587
 20
313.0208460952
 11
363.3731669105
 21
312.7986216125
 12
363.817611355
 22
313.0208460952
 13
363.817611355
 23
313.0208460952
  0
SOLID
  5
360
100
AcDbEntity
  8
0
100
AcDbTrace
 62
5
  6
CONTINUOUS
 10
363.3731669105
 20
312.7986216125
 11
365.8916854291
 21
312.9467708909
 12
366.1879817254
 22
312.7986216125
 13
366.1879817254
 23
312.7986216125
  0
SOLID
  5
361
100
AcDbEntity
  8
0
100
AcDbTrace
 62
5
  6
CONTINUOUS
 10
366.1879817254
 20
312.7986216125
 11
366.4842780216
 21
312.6504745946
 12
363.0027965402
 22
312.5764005205
 13
363.0027965402
 23
312.5764005205
  0
SOLID
  5
362
100
AcDbEntity
  8
0
100
AcDbTrace
 62
5
  6
CONTINUOUS
 10
366.1879817254
 20
312.7986216125
 11
363.0027965402
 21
312.5764005205
 12
363.3731669105
 22
312.7986216125
 13
363.3731669105
 23
312.7986216125
  0
SOLID
  5
363
100
AcDbEntity
  8
0
100
AcDbTrace
 62
5
  6
CONTINUOUS
 10
363.0027965402
 20
312.5764005205
 11
366.4842780216
 21
312.6504745946
 12
366.7805743179
 22
312.4282523724
 13
366.7805743179
 23
312.4282523724
  0
SOLID
  5
364
100
AcDbEntity
  8
0
100
AcDbTrace
 62
5
  6
CONTINUOUS
 10
366.7805743179
 20
312.4282523724
 11
362.6324261698
 21
312.2801042242
 12
363.0027965402
 22
312.5764005205
 13
363.0027965402
 23
312.5764005205
  0
SOLID
  5
365
100
AcDbEntity
  8
0
100
AcDbTrace
 62
5
  6
CONTINUOUS
 10
364.7805743179
 20
312.1319594669
 11
362.6324261698
 21
312.2801042242
 12
366.7805743179
 22
312.4282523724
 13
366.7805743179
 23
312.4282523724
  0
SOLID
  5
366
100
AcDbEntity
  8
0
100
AcDbTrace
 62
5
  6
CONTINUOUS
 10
364.7805743179
 20
312.1319594669
 11
366.7805743179
 21
312.4282523724
 12
367.0027965402
 22
312.1319594669
 13
367.0027965402
 23
312.1319594669
  0
SOLID
  5
367
100
AcDbEntity
  8
0
100
AcDbTrace
 62
5
  6
CONTINUOUS
 10
367.0027965402
 20
312.1319594669
 11
365.1509446883
 21
312.057878046
 12
364.7805743179
 22
312.1319594669
 13
364.7805743179
 23
312.1319594669
  0
SOLID
  5
368
100
AcDbEntity
  8
0
100
AcDbTrace
 62
5
  6
CONTINUOUS
 10
365.5213150587
 20
311.9097349841
 11
365.1509446883
 21
312.057878046
 12
367.0027965402
 22
312.1319594669
 13
367.0027965402
 23
312.1319594669
  0
SOLID
  5
369
100
AcDbEntity
  8
0
100
AcDbTrace
 62
5
  6
CONTINUOUS
 10
365.5213150587
 20
311.9097349841
 11
367.0027965402
 21
312.1319594669
 12
367.1509446883
 22
311.9097349841
 13
367.1509446883
 23
311.9097349841
  0
SOLID
  5
36A
100
AcDbEntity
  8
0
100
AcDbTrace
 62
5
  6
CONTINUOUS
 10
364.3361298735
 20
312.057878046
 11
364.0398335772
 21
311.9097349841
 12
362.3361298735
 22
311.8356597798
 13
362.3361298735
 23
311.8356597798
  0
SOLID
  5
36B
100
AcDbEntity
  8
0
100
AcDbTrace
 62
5
  6
CONTINUOUS
 10
364.7805743179
 20
312.1319594669
 11
364.3361298735
 21
312.057878046
 12
362.3361298735
 22
311.8356597798
 13
362.3361298735
 23
311.8356597798
  0
SOLID
  5
36C
100
AcDbEntity
  8
0
100
AcDbTrace
 62
5
  6
CONTINUOUS
 10
364.7805743179
 20
312.1319594669
 11
362.3361298735
 21
311.8356597798
 12
362.6324261698
 22
312.2801042242
 13
362.6324261698
 23
312.2801042242
  0
SOLID
  5
36D
100
AcDbEntity
  8
0
100
AcDbTrace
 62
5
  6
CONTINUOUS
 10
362.3361298735
 20
311.8356597798
 11
364.0398335772
 21
311.9097349841
 12
363.6694632068
 22
311.6875116316
 13
363.6694632068
 23
311.6875116316
  0
SOLID
  5
36E
100
AcDbEntity
  8
0
100
AcDbTrace
 62
5
  6
CONTINUOUS
 10
367.1509446883
 20
311.9097349841
 11
365.8916854291
 21
311.6134375575
 12
365.5213150587
 22
311.9097349841
 13
365.5213150587
 23
311.9097349841
  0
SOLID
  5
36F
100
AcDbEntity
  8
0
100
AcDbTrace
 62
5
  6
CONTINUOUS
 10
365.8916854291
 20
311.6134375575
 11
367.1509446883
 21
311.9097349841
 12
367.3731669105
 22
311.5393634835
 13
367.3731669105
 23
311.5393634835
  0
SOLID
  5
370
100
AcDbEntity
  8
0
100
AcDbTrace
 62
5
  6
CONTINUOUS
 10
363.6694632068
 20
311.6875116316
 11
362.1139076513
 21
311.3912153353
 12
362.3361298735
 22
311.8356597798
 13
362.3361298735
 23
311.8356597798
  0
SOLID
  5
371
100
AcDbEntity
  8
0
100
AcDbTrace
 62
5
  6
CONTINUOUS
 10
362.1139076513
 20
311.3912153353
 11
363.6694632068
 21
311.6875116316
 12
363.4472409846
 22
311.3912153353
 13
363.4472409846
 23
311.3912153353
  0
SOLID
  5
372
100
AcDbEntity
  8
0
100
AcDbTrace
 62
5
  6
CONTINUOUS
 10
367.3731669105
 20
311.5393634835
 11
366.1879817254
 21
311.3171412613
 12
365.8916854291
 22
311.6134375575
 13
365.8916854291
 23
311.6134375575
  0
SOLID
  5
373
100
AcDbEntity
  8
0
100
AcDbTrace
 62
5
  6
CONTINUOUS
 10
366.1879817254
 20
311.3171412613
 11
367.3731669105
 21
311.5393634835
 12
367.5213150587
 22
311.2430671872
 13
367.5213150587
 23
311.2430671872
  0
SOLID
  5
374
100
AcDbEntity
  8
0
100
AcDbTrace
 62
5
  6
CONTINUOUS
 10
367.5213150587
 20
311.2430671872
 11
366.3361298735
 21
311.094919039
 12
366.1879817254
 22
311.3171412613
 13
366.1879817254
 23
311.3171412613
  0
SOLID
  5
375
100
AcDbEntity
  8
0
100
AcDbTrace
 62
5
  6
CONTINUOUS
 10
363.4472409846
 20
311.3912153353
 11
363.2990928365
 21
311.1689931131
 12
361.8916854291
 22
310.9467708909
 13
361.8916854291
 23
310.9467708909
  0
SOLID
  5
376
100
AcDbEntity
  8
0
100
AcDbTrace
 62
5
  6
CONTINUOUS
 10
363.4472409846
 20
311.3912153353
 11
361.8916854291
 21
310.9467708909
 12
362.1139076513
 22
311.3912153353
 13
362.1139076513
 23
311.3912153353
  0
SOLID
  5
377
100
AcDbEntity
  8
0
100
AcDbTrace
 62
5
  6
CONTINUOUS
 10
361.8916854291
 20
310.9467708909
 11
363.2990928365
 21
311.1689931131
 12
363.1509446883
 22
310.8726968168
 13
363.1509446883
 23
310.8726968168
  0
SOLID
  5
378
100
AcDbEntity
  8
0
100
AcDbTrace
 62
5
  6
CONTINUOUS
 10
366.4102039476
 20
310.7986244382
 11
366.3361298735
 21
311.094919039
 12
367.5213150587
 22
311.2430671872
 13
367.5213150587
 23
311.2430671872
  0
SOLID
  5
379
100
AcDbEntity
  8
0
100
AcDbTrace
 62
5
  6
CONTINUOUS
 10
366.4102039476
 20
310.7986244382
 11
367.5213150587
 21
311.2430671872
 12
367.6694632068
 22
310.7986244382
 13
367.6694632068
 23
310.7986244382
  0
SOLID
  5
37A
100
AcDbEntity
  8
0
100
AcDbTrace
 62
5
  6
CONTINUOUS
 10
367.6694632068
 20
310.7986244382
 11
366.5583520957
 21
310.4282478512
 12
366.4102039476
 22
310.7986244382
 13
366.4102039476
 23
310.7986244382
  0
SOLID
  5
37B
100
AcDbEntity
  8
0
100
AcDbTrace
 62
5
  6
CONTINUOUS
 10
366.5583520957
 20
310.4282478512
 11
367.6694632068
 21
310.7986244382
 12
367.817611355
 22
310.4282478512
 13
367.817611355
 23
310.4282478512
  0
SOLID
  5
37C
100
AcDbEntity
  8
0
100
AcDbTrace
 62
5
  6
CONTINUOUS
 10
363.1509446883
 20
310.8726968168
 11
363.0768706142
 21
310.5023264464
 12
361.7435372809
 22
310.3541782983
 13
361.7435372809
 23
310.3541782983
  0
SOLID
  5
37D
100
AcDbEntity
  8
0
100
AcDbTrace
 62
5
  6
CONTINUOUS
 10
363.1509446883
 20
310.8726968168
 11
361.7435372809
 21
310.3541782983
 12
361.8916854291
 22
310.9467708909
 13
361.8916854291
 23
310.9467708909
  0
SOLID
  5
37E
100
AcDbEntity
  8
0
100
AcDbTrace
 62
5
  6
CONTINUOUS
 10
361.7435372809
 20
310.3541782983
 11
363.0768706142
 21
310.5023264464
 12
363.0027965402
 22
310.1319560761
 13
363.0027965402
 23
310.1319560761
  0
SOLID
  5
37F
100
AcDbEntity
  8
0
100
AcDbTrace
 62
5
  6
CONTINUOUS
 10
367.817611355
 20
310.4282478512
 11
366.6324261698
 21
310.057882002
 12
366.5583520957
 22
310.4282478512
 13
366.5583520957
 23
310.4282478512
  0
SOLID
  5
380
100
AcDbEntity
  8
0
100
AcDbTrace
 62
5
  6
CONTINUOUS
 10
366.6324261698
 20
310.057882002
 11
367.817611355
 21
310.4282478512
 12
367.8916854291
 22
309.9097338538
 13
367.8916854291
 23
309.9097338538
  0
SOLID
  5
381
100
AcDbEntity
  8
0
100
AcDbTrace
 62
5
  6
CONTINUOUS
 10
363.0027965402
 20
310.1319560761
 11
361.6694632068
 21
309.6875138922
 12
361.7435372809
 22
310.3541782983
 13
361.7435372809
 23
310.3541782983
  0
SOLID
  5
382
100
AcDbEntity
  8
0
100
AcDbTrace
 62
5
  6
CONTINUOUS
 10
361.6694632068
 20
309.6875138922
 11
363.0027965402
 21
310.1319560761
 12
362.9287224661
 22
309.6875138922
 13
362.9287224661
 23
309.6875138922
  0
SOLID
  5
383
100
AcDbEntity
  8
0
100
AcDbTrace
 62
5
  6
CONTINUOUS
 10
367.8916854291
 20
309.9097338538
 11
366.6324261698
 21
309.6875138922
 12
366.6324261698
 22
310.057882002
 13
366.6324261698
 23
310.057882002
  0
SOLID
  5
384
100
AcDbEntity
  8
0
100
AcDbTrace
 62
5
  6
CONTINUOUS
 10
366.6324261698
 20
309.6875138922
 11
367.8916854291
 21
309.9097338538
 12
367.9657595031
 22
309.3912153353
 13
367.9657595031
 23
309.3912153353
  0
SOLID
  5
385
100
AcDbEntity
  8
0
100
AcDbTrace
 62
5
  6
CONTINUOUS
 10
367.9657595031
 20
309.3912153353
 11
366.7065002439
 21
309.1689942434
 12
366.6324261698
 22
309.6875138922
 13
366.6324261698
 23
309.6875138922
  0
SOLID
  5
386
100
AcDbEntity
  8
0
100
AcDbTrace
 62
5
  6
CONTINUOUS
 10
362.9287224661
 20
309.6875138922
 11
362.854648392
 21
309.1689942434
 12
361.5953891328
 22
308.8726968168
 13
361.5953891328
 23
308.8726968168
  0
SOLID
  5
387
100
AcDbEntity
  8
0
100
AcDbTrace
 62
5
  6
CONTINUOUS
 10
362.9287224661
 20
309.6875138922
 11
361.5953891328
 21
308.8726968168
 12
361.6694632068
 22
309.6875138922
 13
361.6694632068
 23
309.6875138922
  0
SOLID
  5
388
100
AcDbEntity
  8
0
100
AcDbTrace
 62
5
  6
CONTINUOUS
 10
366.7065002439
 20
309.1689942434
 11
367.9657595031
 21
309.3912153353
 12
367.9657595031
 22
308.7245486687
 13
367.9657595031
 23
308.7245486687
  0
SOLID
  5
389
100
AcDbEntity
  8
0
100
AcDbTrace
 62
5
  6
CONTINUOUS
 10
361.5953891328
 20
308.8726968168
 11
362.854648392
 21
309.1689942434
 12
362.854648392
 22
308.6504745946
 13
362.854648392
 23
308.6504745946
  0
SOLID
  5
38A
100
AcDbEntity
  8
0
100
AcDbTrace
 62
5
  6
CONTINUOUS
 10
367.9657595031
 20
308.7245486687
 11
366.7065002439
 21
308.6504745946
 12
366.7065002439
 22
309.1689942434
 13
366.7065002439
 23
309.1689942434
  0
SOLID
  5
38B
100
AcDbEntity
  8
0
100
AcDbTrace
 62
5
  6
CONTINUOUS
 10
362.854648392
 20
308.6504745946
 11
361.5953891328
 21
308.0578836974
 12
361.5953891328
 22
308.8726968168
 13
361.5953891328
 23
308.8726968168
  0
SOLID
  5
38C
100
AcDbEntity
  8
0
100
AcDbTrace
 62
5
  6
CONTINUOUS
 10
361.5953891328
 20
308.0578836974
 11
362.854648392
 21
308.6504745946
 12
362.854648392
 22
308.0578836974
 13
362.854648392
 23
308.0578836974
  0
SOLID
  5
38D
100
AcDbEntity
  8
0
100
AcDbTrace
 62
5
  6
CONTINUOUS
 10
366.7805743179
 20
308.0578836974
 11
366.7065002439
 21
308.6504745946
 12
367.9657595031
 22
308.7245486687
 13
367.9657595031
 23
308.7245486687
  0
SOLID
  5
38E
100
AcDbEntity
  8
0
100
AcDbTrace
 62
5
  6
CONTINUOUS
 10
366.7805743179
 20
308.0578836974
 11
367.9657595031
 21
308.7245486687
 12
368.0398335772
 22
308.0578836974
 13
368.0398335772
 23
308.0578836974
  0
SOLID
  5
38F
100
AcDbEntity
  8
0
100
AcDbTrace
 62
5
  6
CONTINUOUS
 10
368.0398335772
 20
308.0578836974
 11
366.7065002439
 21
307.4652928002
 12
366.7805743179
 22
308.0578836974
 13
366.7805743179
 23
308.0578836974
  0
SOLID
  5
390
100
AcDbEntity
  8
0
100
AcDbTrace
 62
5
  6
CONTINUOUS
 10
362.854648392
 20
308.0578836974
 11
362.854648392
 21
307.4652928002
 12
361.5953891328
 22
307.3912153353
 13
361.5953891328
 23
307.3912153353
  0
SOLID
  5
391
100
AcDbEntity
  8
0
100
AcDbTrace
 62
5
  6
CONTINUOUS
 10
362.854648392
 20
308.0578836974
 11
361.5953891328
 21
307.3912153353
 12
361.5953891328
 22
308.0578836974
 13
361.5953891328
 23
308.0578836974
  0
SOLID
  5
392
100
AcDbEntity
  8
0
100
AcDbTrace
 62
5
  6
CONTINUOUS
 10
366.7065002439
 20
307.4652928002
 11
368.0398335772
 21
308.0578836974
 12
367.9657595031
 22
307.2430671872
 13
367.9657595031
 23
307.2430671872
  0
SOLID
  5
393
100
AcDbEntity
  8
0
100
AcDbTrace
 62
5
  6
CONTINUOUS
 10
361.5953891328
 20
307.3912153353
 11
362.854648392
 21
307.4652928002
 12
362.854648392
 22
306.9467731514
 13
362.854648392
 23
306.9467731514
  0
SOLID
  5
394
100
AcDbEntity
  8
0
100
AcDbTrace
 62
5
  6
CONTINUOUS
 10
367.9657595031
 20
307.2430671872
 11
366.7065002439
 21
306.9467731514
 12
366.7065002439
 22
307.4652928002
 13
366.7065002439
 23
307.4652928002
  0
SOLID
  5
395
100
AcDbEntity
  8
0
100
AcDbTrace
 62
5
  6
CONTINUOUS
 10
362.854648392
 20
306.9467731514
 11
361.5953891328
 21
306.7245486687
 12
361.5953891328
 22
307.3912153353
 13
361.5953891328
 23
307.3912153353
  0
SOLID
  5
396
100
AcDbEntity
  8
0
100
AcDbTrace
 62
5
  6
CONTINUOUS
 10
366.7065002439
 20
306.9467731514
 11
367.9657595031
 21
307.2430671872
 12
367.8916854291
 22
306.5023264464
 13
367.8916854291
 23
306.5023264464
  0
SOLID
  5
397
100
AcDbEntity
  8
0
100
AcDbTrace
 62
5
  6
CONTINUOUS
 10
361.5953891328
 20
306.7245486687
 11
362.854648392
 21
306.9467731514
 12
362.9287224661
 22
306.4282535026
 13
362.9287224661
 23
306.4282535026
  0
SOLID
  5
398
100
AcDbEntity
  8
0
100
AcDbTrace
 62
5
  6
CONTINUOUS
 10
367.8916854291
 20
306.5023264464
 11
366.6324261698
 21
306.4282535026
 12
366.7065002439
 22
306.9467731514
 13
366.7065002439
 23
306.9467731514
  0
SOLID
  5
399
100
AcDbEntity
  8
0
100
AcDbTrace
 62
5
  6
CONTINUOUS
 10
362.9287224661
 20
306.4282535026
 11
361.6694632068
 21
306.2060301501
 12
361.5953891328
 22
306.7245486687
 13
361.5953891328
 23
306.7245486687
  0
SOLID
  5
39A
100
AcDbEntity
  8
0
100
AcDbTrace
 62
5
  6
CONTINUOUS
 10
361.6694632068
 20
306.2060301501
 11
362.9287224661
 21
306.4282535026
 12
362.9287224661
 22
305.9838053848
 13
362.9287224661
 23
305.9838053848
  0
SOLID
  5
39B
100
AcDbEntity
  8
0
100
AcDbTrace
 62
5
  6
CONTINUOUS
 10
366.6324261698
 20
305.9838053848
 11
366.6324261698
 21
306.4282535026
 12
367.8916854291
 22
306.5023264464
 13
367.8916854291
 23
306.5023264464
  0
SOLID
  5
39C
100
AcDbEntity
  8
0
100
AcDbTrace
 62
5
  6
CONTINUOUS
 10
366.6324261698
 20
305.9838053848
 11
367.8916854291
 21
306.5023264464
 12
367.817611355
 22
305.8356597798
 13
367.817611355
 23
305.8356597798
  0
SOLID
  5
39D
100
AcDbEntity
  8
0
100
AcDbTrace
 62
5
  6
CONTINUOUS
 10
362.9287224661
 20
305.9838053848
 11
361.817611355
 21
305.6134384053
 12
361.6694632068
 22
306.2060301501
 13
361.6694632068
 23
306.2060301501
  0
SOLID
  5
39E
100
AcDbEntity
  8
0
100
AcDbTrace
 62
5
  6
CONTINUOUS
 10
361.817611355
 20
305.6134384053
 11
362.9287224661
 21
305.9838053848
 12
363.0768706142
 22
305.6134384053
 13
363.0768706142
 23
305.6134384053
  0
SOLID
  5
39F
100
AcDbEntity
  8
0
100
AcDbTrace
 62
5
  6
CONTINUOUS
 10
367.817611355
 20
305.8356597798
 11
366.5583520957
 21
305.6134384053
 12
366.6324261698
 22
305.9838053848
 13
366.6324261698
 23
305.9838053848
  0
SOLID
  5
3A0
100
AcDbEntity
  8
0
100
AcDbTrace
 62
5
  6
CONTINUOUS
 10
366.4102039476
 20
305.3171429567
 11
366.5583520957
 21
305.6134384053
 12
367.817611355
 22
305.8356597798
 13
367.817611355
 23
305.8356597798
  0
SOLID
  5
3A1
100
AcDbEntity
  8
0
100
AcDbTrace
 62
5
  6
CONTINUOUS
 10
366.4102039476
 20
305.3171429567
 11
367.817611355
 21
305.8356597798
 12
367.6694632068
 22
305.2430671872
 13
367.6694632068
 23
305.2430671872
  0
SOLID
  5
3A2
100
AcDbEntity
  8
0
100
AcDbTrace
 62
5
  6
CONTINUOUS
 10
363.0768706142
 20
305.6134384053
 11
363.1509446883
 21
305.3171429567
 12
361.9657595031
 22
305.1689931131
 13
361.9657595031
 23
305.1689931131
  0
SOLID
  5
3A3
100
AcDbEntity
  8
0
100
AcDbTrace
 62
5
  6
CONTINUOUS
 10
363.0768706142
 20
305.6134384053
 11
361.9657595031
 21
305.1689931131
 12
361.817611355
 22
305.6134384053
 13
361.817611355
 23
305.6134384053
  0
SOLID
  5
3A4
100
AcDbEntity
  8
0
100
AcDbTrace
 62
5
  6
CONTINUOUS
 10
361.9657595031
 20
305.1689931131
 11
363.1509446883
 21
305.3171429567
 12
363.2250187624
 22
305.0208475081
 13
363.2250187624
 23
305.0208475081
  0
SOLID
  5
3A5
100
AcDbEntity
  8
0
100
AcDbTrace
 62
5
  6
CONTINUOUS
 10
367.6694632068
 20
305.2430671872
 11
366.3361298735
 21
305.0208475081
 12
366.4102039476
 22
305.3171429567
 13
366.4102039476
 23
305.3171429567
  0
SOLID
  5
3A6
100
AcDbEntity
  8
0
100
AcDbTrace
 62
5
  6
CONTINUOUS
 10
363.2250187624
 20
305.0208475081
 11
363.3731669105
 21
304.7986233079
 12
362.1139076513
 22
304.7245520595
 13
362.1139076513
 23
304.7245520595
  0
SOLID
  5
3A7
100
AcDbEntity
  8
0
100
AcDbTrace
 62
5
  6
CONTINUOUS
 10
363.2250187624
 20
305.0208475081
 11
362.1139076513
 21
304.7245520595
 12
361.9657595031
 22
305.1689931131
 13
361.9657595031
 23
305.1689931131
  0
SOLID
  5
3A8
100
AcDbEntity
  8
0
100
AcDbTrace
 62
5
  6
CONTINUOUS
 10
366.1879817254
 20
304.7986233079
 11
366.3361298735
 21
305.0208475081
 12
367.6694632068
 22
305.2430671872
 13
367.6694632068
 23
305.2430671872
  0
SOLID
  5
3A9
100
AcDbEntity
  8
0
100
AcDbTrace
 62
5
  6
CONTINUOUS
 10
366.1879817254
 20
304.7986233079
 11
367.6694632068
 21
305.2430671872
 12
367.4472409846
 22
304.7245520595
 13
367.4472409846
 23
304.7245520595
  0
SOLID
  5
3AA
100
AcDbEntity
  8
0
100
AcDbTrace
 62
5
  6
CONTINUOUS
 10
367.4472409846
 20
304.7245520595
 11
365.8916854291
 21
304.5023264464
 12
366.1879817254
 22
304.7986233079
 13
366.1879817254
 23
304.7986233079
  0
SOLID
  5
3AB
100
AcDbEntity
  8
0
100
AcDbTrace
 62
5
  6
CONTINUOUS
 10
362.1139076513
 20
304.7245520595
 11
363.3731669105
 21
304.7986233079
 12
363.6694632068
 22
304.4282523724
 13
363.6694632068
 23
304.4282523724
  0
SOLID
  5
3AC
100
AcDbEntity
  8
0
100
AcDbTrace
 62
5
  6
CONTINUOUS
 10
363.6694632068
 20
304.4282523724
 11
362.3361298735
 21
304.3541782983
 12
362.1139076513
 22
304.7245520595
 13
362.1139076513
 23
304.7245520595
  0
SOLID
  5
3AD
100
AcDbEntity
  8
0
100
AcDbTrace
 62
5
  6
CONTINUOUS
 10
365.8916854291
 20
304.5023264464
 11
367.4472409846
 21
304.7245520595
 12
367.2250187624
 22
304.2801042242
 13
367.2250187624
 23
304.2801042242
  0
SOLID
  5
3AE
100
AcDbEntity
  8
0
100
AcDbTrace
 62
5
  6
CONTINUOUS
 10
362.3361298735
 20
304.3541782983
 11
363.6694632068
 21
304.4282523724
 12
364.0398335772
 22
304.2060323401
 13
364.0398335772
 23
304.2060323401
  0
SOLID
  5
3AF
100
AcDbEntity
  8
0
100
AcDbTrace
 62
5
  6
CONTINUOUS
 10
367.2250187624
 20
304.2801042242
 11
365.5213150587
 21
304.2060323401
 12
365.8916854291
 22
304.5023264464
 13
365.8916854291
 23
304.5023264464
  0
SOLID
  5
3B0
100
AcDbEntity
  8
0
100
AcDbTrace
 62
5
  6
CONTINUOUS
 10
364.7805743179
 20
304.0578795295
 11
365.1509446883
 21
304.0578795295
 12
362.5583520957
 22
303.9838079279
 13
362.5583520957
 23
303.9838079279
  0
SOLID
  5
3B1
100
AcDbEntity
  8
0
100
AcDbTrace
 62
5
  6
CONTINUOUS
 10
364.4102039476
 20
304.0578795295
 11
364.7805743179
 21
304.0578795295
 12
362.5583520957
 22
303.9838079279
 13
362.5583520957
 23
303.9838079279
  0
SOLID
  5
3B2
100
AcDbEntity
  8
0
100
AcDbTrace
 62
5
  6
CONTINUOUS
 10
364.0398335772
 20
304.2060323401
 11
364.4102039476
 21
304.0578795295
 12
362.5583520957
 22
303.9838079279
 13
362.5583520957
 23
303.9838079279
  0
SOLID
  5
3B3
100
AcDbEntity
  8
0
100
AcDbTrace
 62
5
  6
CONTINUOUS
 10
364.0398335772
 20
304.2060323401
 11
362.5583520957
 21
303.9838079279
 12
362.3361298735
 22
304.3541782983
 13
362.3361298735
 23
304.3541782983
  0
SOLID
  5
3B4
100
AcDbEntity
  8
0
100
AcDbTrace
 62
5
  6
CONTINUOUS
 10
365.1509446883
 20
304.0578795295
 11
365.5213150587
 21
304.2060323401
 12
367.2250187624
 22
304.2801042242
 13
367.2250187624
 23
304.2801042242
  0
SOLID
  5
3B5
100
AcDbEntity
  8
0
100
AcDbTrace
 62
5
  6
CONTINUOUS
 10
366.9287224661
 20
303.8356597798
 11
362.5583520957
 21
303.9838079279
 12
365.1509446883
 22
304.0578795295
 13
365.1509446883
 23
304.0578795295
  0
SOLID
  5
3B6
100
AcDbEntity
  8
0
100
AcDbTrace
 62
5
  6
CONTINUOUS
 10
365.1509446883
 20
304.0578795295
 11
367.2250187624
 21
304.2801042242
 12
366.9287224661
 22
303.8356597798
 13
366.9287224661
 23
303.8356597798
  0
SOLID
  5
3B7
100
AcDbEntity
  8
0
100
AcDbTrace
 62
5
  6
CONTINUOUS
 10
366.9287224661
 20
303.8356597798
 11
362.7805743179
 21
303.7615857057
 12
362.5583520957
 22
303.9838079279
 13
362.5583520957
 23
303.9838079279
  0
SOLID
  5
3B8
100
AcDbEntity
  8
0
100
AcDbTrace
 62
5
  6
CONTINUOUS
 10
363.0027965402
 20
303.539359916
 11
362.7805743179
 21
303.7615857057
 12
366.9287224661
 22
303.8356597798
 13
366.9287224661
 23
303.8356597798
  0
SOLID
  5
3B9
100
AcDbEntity
  8
0
100
AcDbTrace
 62
5
  6
CONTINUOUS
 10
363.0027965402
 20
303.539359916
 11
366.9287224661
 21
303.8356597798
 12
366.5583520957
 22
303.539359916
 13
366.5583520957
 23
303.539359916
  0
SOLID
  5
3BA
100
AcDbEntity
  8
0
100
AcDbTrace
 62
5
  6
CONTINUOUS
 10
366.5583520957
 20
303.539359916
 11
363.2250187624
 21
303.3912153353
 12
363.0027965402
 22
303.539359916
 13
363.0027965402
 23
303.539359916
  0
SOLID
  5
3BB
100
AcDbEntity
  8
0
100
AcDbTrace
 62
5
  6
CONTINUOUS
 10
363.2250187624
 20
303.3912153353
 11
366.5583520957
 21
303.539359916
 12
366.1879817254
 22
303.3171412613
 13
366.1879817254
 23
303.3171412613
  0
SOLID
  5
3BC
100
AcDbEntity
  8
0
100
AcDbTrace
 62
5
  6
CONTINUOUS
 10
366.1879817254
 20
303.3171412613
 11
363.5213150587
 21
303.2430671872
 12
363.2250187624
 22
303.3912153353
 13
363.2250187624
 23
303.3912153353
  0
SOLID
  5
3BD
100
AcDbEntity
  8
0
100
AcDbTrace
 62
5
  6
CONTINUOUS
 10
363.817611355
 20
303.1689931131
 11
363.5213150587
 21
303.2430671872
 12
366.1879817254
 22
303.3171412613
 13
366.1879817254
 23
303.3171412613
  0
SOLID
  5
3BE
100
AcDbEntity
  8
0
100
AcDbTrace
 62
5
  6
CONTINUOUS
 10
363.817611355
 20
303.1689931131
 11
366.1879817254
 21
303.3171412613
 12
365.7435372809
 22
303.1689931131
 13
365.7435372809
 23
303.1689931131
  0
SOLID
  5
3BF
100
AcDbEntity
  8
0
100
AcDbTrace
 62
5
  6
CONTINUOUS
 10
365.7435372809
 20
303.1689931131
 11
364.1139076513
 21
303.0949217808
 12
363.817611355
 22
303.1689931131
 13
363.817611355
 23
303.1689931131
  0
SOLID
  5
3C0
100
AcDbEntity
  8
0
100
AcDbTrace
 62
5
  6
CONTINUOUS
 10
364.4102039476
 20
303.0949217808
 11
364.1139076513
 21
303.0949217808
 12
365.7435372809
 22
303.1689931131
 13
365.7435372809
 23
303.1689931131
  0
SOLID
  5
3C1
100
AcDbEntity
  8
0
100
AcDbTrace
 62
5
  6
CONTINUOUS
 10
364.4102039476
 20
303.0949217808
 11
365.7435372809
 21
303.1689931131
 12
365.2990928365
 22
303.0949217808
 13
365.2990928365
 23
303.0949217808
  0
SOLID
  5
3C2
100
AcDbEntity
  8
0
100
AcDbTrace
 62
5
  6
CONTINUOUS
 10
365.2990928365
 20
303.0949217808
 11
364.7805743179
 21
303.020844965
 12
364.4102039476
 22
303.0949217808
 13
364.4102039476
 23
303.0949217808
  0
SOLID
  5
3C3
100
AcDbEntity
  8
0
100
AcDbTrace
 62
5
  6
CONTINUOUS
 10
371.9657595031
 20
313.0949167785
 11
372.4842780216
 21
313.1689931131
 12
372.854648392
 22
313.0949167785
 13
372.854648392
 23
313.0949167785
  0
SOLID
  5
3C4
100
AcDbEntity
  8
0
100
AcDbTrace
 62
5
  6
CONTINUOUS
 10
372.854648392
 20
313.0949167785
 11
371.5213150587
 21
313.0208460952
 12
371.9657595031
 22
313.0949167785
 13
371.9657595031
 23
313.0949167785
  0
SOLID
  5
3C5
100
AcDbEntity
  8
0
100
AcDbTrace
 62
5
  6
CONTINUOUS
 10
371.5213150587
 20
313.0208460952
 11
372.854648392
 21
313.0949167785
 12
373.2250187624
 22
313.0208460952
 13
373.2250187624
 23
313.0208460952
  0
SOLID
  5
3C6
100
AcDbEntity
  8
0
100
AcDbTrace
 62
5
  6
CONTINUOUS
 10
373.2250187624
 20
313.0208460952
 11
373.5953891328
 21
312.9467708909
 12
371.0768706142
 22
312.7986216125
 13
371.0768706142
 23
312.7986216125
  0
SOLID
  5
3C7
100
AcDbEntity
  8
0
100
AcDbTrace
 62
5
  6
CONTINUOUS
 10
373.2250187624
 20
313.0208460952
 11
371.0768706142
 21
312.7986216125
 12
371.5213150587
 22
313.0208460952
 13
371.5213150587
 23
313.0208460952
  0
SOLID
  5
3C8
100
AcDbEntity
  8
0
100
AcDbTrace
 62
5
  6
CONTINUOUS
 10
371.0768706142
 20
312.7986216125
 11
373.5953891328
 21
312.9467708909
 12
373.8916854291
 22
312.7986216125
 13
373.8916854291
 23
312.7986216125
  0
SOLID
  5
3C9
100
AcDbEntity
  8
0
100
AcDbTrace
 62
5
  6
CONTINUOUS
 10
373.8916854291
 20
312.7986216125
 11
374.1879817254
 21
312.6504745946
 12
370.7065002439
 22
312.5764005205
 13
370.7065002439
 23
312.5764005205
  0
SOLID
  5
3CA
100
AcDbEntity
  8
0
100
AcDbTrace
 62
5
  6
CONTINUOUS
 10
373.8916854291
 20
312.7986216125
 11
370.7065002439
 21
312.5764005205
 12
371.0768706142
 22
312.7986216125
 13
371.0768706142
 23
312.7986216125
  0
SOLID
  5
3CB
100
AcDbEntity
  8
0
100
AcDbTrace
 62
5
  6
CONTINUOUS
 10
370.7065002439
 20
312.5764005205
 11
374.1879817254
 21
312.6504745946
 12
374.4842780216
 22
312.4282523724
 13
374.4842780216
 23
312.4282523724
  0
SOLID
  5
3CC
100
AcDbEntity
  8
0
100
AcDbTrace
 62
5
  6
CONTINUOUS
 10
374.4842780216
 20
312.4282523724
 11
370.3361298735
 21
312.2801042242
 12
370.7065002439
 22
312.5764005205
 13
370.7065002439
 23
312.5764005205
  0
SOLID
  5
3CD
100
AcDbEntity
  8
0
100
AcDbTrace
 62
5
  6
CONTINUOUS
 10
372.4842780216
 20
312.1319594669
 11
370.3361298735
 21
312.2801042242
 12
374.4842780216
 22
312.4282523724
 13
374.4842780216
 23
312.4282523724
  0
SOLID
  5
3CE
100
AcDbEntity
  8
0
100
AcDbTrace
 62
5
  6
CONTINUOUS
 10
372.4842780216
 20
312.1319594669
 11
374.4842780216
 21
312.4282523724
 12
374.7065002439
 22
312.1319594669
 13
374.7065002439
 23
312.1319594669
  0
SOLID
  5
3CF
100
AcDbEntity
  8
0
100
AcDbTrace
 62
5
  6
CONTINUOUS
 10
374.7065002439
 20
312.1319594669
 11
372.854648392
 21
312.057878046
 12
372.4842780216
 22
312.1319594669
 13
372.4842780216
 23
312.1319594669
  0
SOLID
  5
3D0
100
AcDbEntity
  8
0
100
AcDbTrace
 62
5
  6
CONTINUOUS
 10
373.2250187624
 20
311.9097349841
 11
372.854648392
 21
312.057878046
 12
374.7065002439
 22
312.1319594669
 13
374.7065002439
 23
312.1319594669
  0
SOLID
  5
3D1
100
AcDbEntity
  8
0
100
AcDbTrace
 62
5
  6
CONTINUOUS
 10
373.2250187624
 20
311.9097349841
 11
374.7065002439
 21
312.1319594669
 12
374.854648392
 22
311.9097349841
 13
374.854648392
 23
311.9097349841
  0
SOLID
  5
3D2
100
AcDbEntity
  8
0
100
AcDbTrace
 62
5
  6
CONTINUOUS
 10
372.0398335772
 20
312.057878046
 11
371.7435372809
 21
311.9097349841
 12
370.0398335772
 22
311.8356597798
 13
370.0398335772
 23
311.8356597798
  0
SOLID
  5
3D3
100
AcDbEntity
  8
0
100
AcDbTrace
 62
5
  6
CONTINUOUS
 10
372.4842780216
 20
312.1319594669
 11
372.0398335772
 21
312.057878046
 12
370.0398335772
 22
311.8356597798
 13
370.0398335772
 23
311.8356597798
  0
SOLID
  5
3D4
100
AcDbEntity
  8
0
100
AcDbTrace
 62
5
  6
CONTINUOUS
 10
372.4842780216
 20
312.1319594669
 11
370.0398335772
 21
311.8356597798
 12
370.3361298735
 22
312.2801042242
 13
370.3361298735
 23
312.2801042242
  0
SOLID
  5
3D5
100
AcDbEntity
  8
0
100
AcDbTrace
 62
5
  6
CONTINUOUS
 10
370.0398335772
 20
311.8356597798
 11
371.7435372809
 21
311.9097349841
 12
371.3731669105
 22
311.6875116316
 13
371.3731669105
 23
311.6875116316
  0
SOLID
  5
3D6
100
AcDbEntity
  8
0
100
AcDbTrace
 62
5
  6
CONTINUOUS
 10
374.854648392
 20
311.9097349841
 11
373.5953891328
 21
311.6134375575
 12
373.2250187624
 22
311.9097349841
 13
373.2250187624
 23
311.9097349841
  0
SOLID
  5
3D7
100
AcDbEntity
  8
0
100
AcDbTrace
 62
5
  6
CONTINUOUS
 10
373.5953891328
 20
311.6134375575
 11
374.854648392
 21
311.9097349841
 12
375.0768706142
 22
311.5393634835
 13
375.0768706142
 23
311.5393634835
  0
SOLID
  5
3D8
100
AcDbEntity
  8
0
100
AcDbTrace
 62
5
  6
CONTINUOUS
 10
371.3731669105
 20
311.6875116316
 11
369.817611355
 21
311.3912153353
 12
370.0398335772
 22
311.8356597798
 13
370.0398335772
 23
311.8356597798
  0
SOLID
  5
3D9
100
AcDbEntity
  8
0
100
AcDbTrace
 62
5
  6
CONTINUOUS
 10
369.817611355
 20
311.3912153353
 11
371.3731669105
 21
311.6875116316
 12
371.1509446883
 22
311.3912153353
 13
371.1509446883
 23
311.3912153353
  0
SOLID
  5
3DA
100
AcDbEntity
  8
0
100
AcDbTrace
 62
5
  6
CONTINUOUS
 10
375.0768706142
 20
311.5393634835
 11
373.8916854291
 21
311.3171412613
 12
373.5953891328
 22
311.6134375575
 13
373.5953891328
 23
311.6134375575
  0
SOLID
  5
3DB
100
AcDbEntity
  8
0
100
AcDbTrace
 62
5
  6
CONTINUOUS
 10
373.8916854291
 20
311.3171412613
 11
375.0768706142
 21
311.5393634835
 12
375.2250187624
 22
311.2430671872
 13
375.2250187624
 23
311.2430671872
  0
SOLID
  5
3DC
100
AcDbEntity
  8
0
100
AcDbTrace
 62
5
  6
CONTINUOUS
 10
375.2250187624
 20
311.2430671872
 11
374.0398335772
 21
311.094919039
 12
373.8916854291
 22
311.3171412613
 13
373.8916854291
 23
311.3171412613
  0
SOLID
  5
3DD
100
AcDbEntity
  8
0
100
AcDbTrace
 62
5
  6
CONTINUOUS
 10
371.1509446883
 20
311.3912153353
 11
371.0027965402
 21
311.1689931131
 12
369.5953891328
 22
310.9467708909
 13
369.5953891328
 23
310.9467708909
  0
SOLID
  5
3DE
100
AcDbEntity
  8
0
100
AcDbTrace
 62
5
  6
CONTINUOUS
 10
371.1509446883
 20
311.3912153353
 11
369.5953891328
 21
310.9467708909
 12
369.817611355
 22
311.3912153353
 13
369.817611355
 23
311.3912153353
  0
SOLID
  5
3DF
100
AcDbEntity
  8
0
100
AcDbTrace
 62
5
  6
CONTINUOUS
 10
369.5953891328
 20
310.9467708909
 11
371.0027965402
 21
311.1689931131
 12
370.854648392
 22
310.8726968168
 13
370.854648392
 23
310.8726968168
  0
SOLID
  5
3E0
100
AcDbEntity
  8
0
100
AcDbTrace
 62
5
  6
CONTINUOUS
 10
374.1139076513
 20
310.7986244382
 11
374.0398335772
 21
311.094919039
 12
375.2250187624
 22
311.2430671872
 13
375.2250187624
 23
311.2430671872
  0
SOLID
  5
3E1
100
AcDbEntity
  8
0
100
AcDbTrace
 62
5
  6
CONTINUOUS
 10
374.1139076513
 20
310.7986244382
 11
375.2250187624
 21
311.2430671872
 12
375.3731669105
 22
310.7986244382
 13
375.3731669105
 23
310.7986244382
  0
SOLID
  5
3E2
100
AcDbEntity
  8
0
100
AcDbTrace
 62
5
  6
CONTINUOUS
 10
375.3731669105
 20
310.7986244382
 11
374.2620557994
 21
310.4282478512
 12
374.1139076513
 22
310.7986244382
 13
374.1139076513
 23
310.7986244382
  0
SOLID
  5
3E3
100
AcDbEntity
  8
0
100
AcDbTrace
 62
5
  6
CONTINUOUS
 10
374.2620557994
 20
310.4282478512
 11
375.3731669105
 21
310.7986244382
 12
375.5213150587
 22
310.4282478512
 13
375.5213150587
 23
310.4282478512
  0
SOLID
  5
3E4
100
AcDbEntity
  8
0
100
AcDbTrace
 62
5
  6
CONTINUOUS
 10
370.854648392
 20
310.8726968168
 11
370.7805743179
 21
310.5023264464
 12
369.4472409846
 22
310.3541782983
 13
369.4472409846
 23
310.3541782983
  0
SOLID
  5
3E5
100
AcDbEntity
  8
0
100
AcDbTrace
 62
5
  6
CONTINUOUS
 10
370.854648392
 20
310.8726968168
 11
369.4472409846
 21
310.3541782983
 12
369.5953891328
 22
310.9467708909
 13
369.5953891328
 23
310.9467708909
  0
SOLID
  5
3E6
100
AcDbEntity
  8
0
100
AcDbTrace
 62
5
  6
CONTINUOUS
 10
369.4472409846
 20
310.3541782983
 11
370.7805743179
 21
310.5023264464
 12
370.7065002439
 22
310.1319560761
 13
370.7065002439
 23
310.1319560761
  0
SOLID
  5
3E7
100
AcDbEntity
  8
0
100
AcDbTrace
 62
5
  6
CONTINUOUS
 10
375.5213150587
 20
310.4282478512
 11
374.3361298735
 21
310.057882002
 12
374.2620557994
 22
310.4282478512
 13
374.2620557994
 23
310.4282478512
  0
SOLID
  5
3E8
100
AcDbEntity
  8
0
100
AcDbTrace
 62
5
  6
CONTINUOUS
 10
374.3361298735
 20
310.057882002
 11
375.5213150587
 21
310.4282478512
 12
375.5953891328
 22
309.9097338538
 13
375.5953891328
 23
309.9097338538
  0
SOLID
  5
3E9
100
AcDbEntity
  8
0
100
AcDbTrace
 62
5
  6
CONTINUOUS
 10
370.7065002439
 20
310.1319560761
 11
369.3731669105
 21
309.6875138922
 12
369.4472409846
 22
310.3541782983
 13
369.4472409846
 23
310.3541782983
  0
SOLID
  5
3EA
100
AcDbEntity
  8
0
100
AcDbTrace
 62
5
  6
CONTINUOUS
 10
369.3731669105
 20
309.6875138922
 11
370.7065002439
 21
310.1319560761
 12
370.6324261698
 22
309.6875138922
 13
370.6324261698
 23
309.6875138922
  0
SOLID
  5
3EB
100
AcDbEntity
  8
0
100
AcDbTrace
 62
5
  6
CONTINUOUS
 10
375.5953891328
 20
309.9097338538
 11
374.3361298735
 21
309.6875138922
 12
374.3361298735
 22
310.057882002
 13
374.3361298735
 23
310.057882002
  0
SOLID
  5
3EC
100
AcDbEntity
  8
0
100
AcDbTrace
 62
5
  6
CONTINUOUS
 10
374.3361298735
 20
309.6875138922
 11
375.5953891328
 21
309.9097338538
 12
375.6694632068
 22
309.3912153353
 13
375.6694632068
 23
309.3912153353
  0
SOLID
  5
3ED
100
AcDbEntity
  8
0
100
AcDbTrace
 62
5
  6
CONTINUOUS
 10
375.6694632068
 20
309.3912153353
 11
374.4102039476
 21
309.1689942434
 12
374.3361298735
 22
309.6875138922
 13
374.3361298735
 23
309.6875138922
  0
SOLID
  5
3EE
100
AcDbEntity
  8
0
100
AcDbTrace
 62
5
  6
CONTINUOUS
 10
370.6324261698
 20
309.6875138922
 11
370.5583520957
 21
309.1689942434
 12
369.2990928365
 22
308.8726968168
 13
369.2990928365
 23
308.8726968168
  0
SOLID
  5
3EF
100
AcDbEntity
  8
0
100
AcDbTrace
 62
5
  6
CONTINUOUS
 10
370.6324261698
 20
309.6875138922
 11
369.2990928365
 21
308.8726968168
 12
369.3731669105
 22
309.6875138922
 13
369.3731669105
 23
309.6875138922
  0
SOLID
  5
3F0
100
AcDbEntity
  8
0
100
AcDbTrace
 62
5
  6
CONTINUOUS
 10
374.4102039476
 20
309.1689942434
 11
375.6694632068
 21
309.3912153353
 12
375.6694632068
 22
308.7245486687
 13
375.6694632068
 23
308.7245486687
  0
SOLID
  5
3F1
100
AcDbEntity
  8
0
100
AcDbTrace
 62
5
  6
CONTINUOUS
 10
369.2990928365
 20
308.8726968168
 11
370.5583520957
 21
309.1689942434
 12
370.5583520957
 22
308.6504745946
 13
370.5583520957
 23
308.6504745946
  0
SOLID
  5
3F2
100
AcDbEntity
  8
0
100
AcDbTrace
 62
5
  6
CONTINUOUS
 10
375.6694632068
 20
308.7245486687
 11
374.4102039476
 21
308.6504745946
 12
374.4102039476
 22
309.1689942434
 13
374.4102039476
 23
309.1689942434
  0
SOLID
  5
3F3
100
AcDbEntity
  8
0
100
AcDbTrace
 62
5
  6
CONTINUOUS
 10
370.5583520957
 20
308.6504745946
 11
369.2990928365
 21
308.0578836974
 12
369.2990928365
 22
308.8726968168
 13
369.2990928365
 23
308.8726968168
  0
SOLID
  5
3F4
100
AcDbEntity
  8
0
100
AcDbTrace
 62
5
  6
CONTINUOUS
 10
369.2990928365
 20
308.0578836974
 11
370.5583520957
 21
308.6504745946
 12
370.5583520957
 22
308.0578836974
 13
370.5583520957
 23
308.0578836974
  0
SOLID
  5
3F5
100
AcDbEntity
  8
0
100
AcDbTrace
 62
5
  6
CONTINUOUS
 10
374.4842780216
 20
308.0578836974
 11
374.4102039476
 21
308.6504745946
 12
375.6694632068
 22
308.7245486687
 13
375.6694632068
 23
308.7245486687
  0
SOLID
  5
3F6
100
AcDbEntity
  8
0
100
AcDbTrace
 62
5
  6
CONTINUOUS
 10
374.4842780216
 20
308.0578836974
 11
375.6694632068
 21
308.7245486687
 12
375.7435372809
 22
308.0578836974
 13
375.7435372809
 23
308.0578836974
  0
SOLID
  5
3F7
100
AcDbEntity
  8
0
100
AcDbTrace
 62
5
  6
CONTINUOUS
 10
375.7435372809
 20
308.0578836974
 11
374.4102039476
 21
307.4652928002
 12
374.4842780216
 22
308.0578836974
 13
374.4842780216
 23
308.0578836974
  0
SOLID
  5
3F8
100
AcDbEntity
  8
0
100
AcDbTrace
 62
5
  6
CONTINUOUS
 10
370.5583520957
 20
308.0578836974
 11
370.5583520957
 21
307.4652928002
 12
369.2990928365
 22
307.3912153353
 13
369.2990928365
 23
307.3912153353
  0
SOLID
  5
3F9
100
AcDbEntity
  8
0
100
AcDbTrace
 62
5
  6
CONTINUOUS
 10
370.5583520957
 20
308.0578836974
 11
369.2990928365
 21
307.3912153353
 12
369.2990928365
 22
308.0578836974
 13
369.2990928365
 23
308.0578836974
  0
SOLID
  5
3FA
100
AcDbEntity
  8
0
100
AcDbTrace
 62
5
  6
CONTINUOUS
 10
374.4102039476
 20
307.4652928002
 11
375.7435372809
 21
308.0578836974
 12
375.6694632068
 22
307.2430671872
 13
375.6694632068
 23
307.2430671872
  0
SOLID
  5
3FB
100
AcDbEntity
  8
0
100
AcDbTrace
 62
5
  6
CONTINUOUS
 10
369.2990928365
 20
307.3912153353
 11
370.5583520957
 21
307.4652928002
 12
370.5583520957
 22
306.9467731514
 13
370.5583520957
 23
306.9467731514
  0
SOLID
  5
3FC
100
AcDbEntity
  8
0
100
AcDbTrace
 62
5
  6
CONTINUOUS
 10
375.6694632068
 20
307.2430671872
 11
374.4102039476
 21
306.9467731514
 12
374.4102039476
 22
307.4652928002
 13
374.4102039476
 23
307.4652928002
  0
SOLID
  5
3FD
100
AcDbEntity
  8
0
100
AcDbTrace
 62
5
  6
CONTINUOUS
 10
370.5583520957
 20
306.9467731514
 11
369.2990928365
 21
306.7245486687
 12
369.2990928365
 22
307.3912153353
 13
369.2990928365
 23
307.3912153353
  0
SOLID
  5
3FE
100
AcDbEntity
  8
0
100
AcDbTrace
 62
5
  6
CONTINUOUS
 10
374.4102039476
 20
306.9467731514
 11
375.6694632068
 21
307.2430671872
 12
375.5953891328
 22
306.5023264464
 13
375.5953891328
 23
306.5023264464
  0
SOLID
  5
3FF
100
AcDbEntity
  8
0
100
AcDbTrace
 62
5
  6
CONTINUOUS
 10
369.2990928365
 20
306.7245486687
 11
370.5583520957
 21
306.9467731514
 12
370.6324261698
 22
306.4282535026
 13
370.6324261698
 23
306.4282535026
  0
SOLID
  5
400
100
AcDbEntity
  8
0
100
AcDbTrace
 62
5
  6
CONTINUOUS
 10
375.5953891328
 20
306.5023264464
 11
374.3361298735
 21
306.4282535026
 12
374.4102039476
 22
306.9467731514
 13
374.4102039476
 23
306.9467731514
  0
SOLID
  5
401
100
AcDbEntity
  8
0
100
AcDbTrace
 62
5
  6
CONTINUOUS
 10
370.6324261698
 20
306.4282535026
 11
369.3731669105
 21
306.2060301501
 12
369.2990928365
 22
306.7245486687
 13
369.2990928365
 23
306.7245486687
  0
SOLID
  5
402
100
AcDbEntity
  8
0
100
AcDbTrace
 62
5
  6
CONTINUOUS
 10
369.3731669105
 20
306.2060301501
 11
370.6324261698
 21
306.4282535026
 12
370.6324261698
 22
305.9838053848
 13
370.6324261698
 23
305.9838053848
  0
SOLID
  5
403
100
AcDbEntity
  8
0
100
AcDbTrace
 62
5
  6
CONTINUOUS
 10
374.3361298735
 20
305.9838053848
 11
374.3361298735
 21
306.4282535026
 12
375.5953891328
 22
306.5023264464
 13
375.5953891328
 23
306.5023264464
  0
SOLID
  5
404
100
AcDbEntity
  8
0
100
AcDbTrace
 62
5
  6
CONTINUOUS
 10
374.3361298735
 20
305.9838053848
 11
375.5953891328
 21
306.5023264464
 12
375.5213150587
 22
305.8356597798
 13
375.5213150587
 23
305.8356597798
  0
SOLID
  5
405
100
AcDbEntity
  8
0
100
AcDbTrace
 62
5
  6
CONTINUOUS
 10
370.6324261698
 20
305.9838053848
 11
369.5213150587
 21
305.6134384053
 12
369.3731669105
 22
306.2060301501
 13
369.3731669105
 23
306.2060301501
  0
SOLID
  5
406
100
AcDbEntity
  8
0
100
AcDbTrace
 62
5
  6
CONTINUOUS
 10
369.5213150587
 20
305.6134384053
 11
370.6324261698
 21
305.9838053848
 12
370.7805743179
 22
305.6134384053
 13
370.7805743179
 23
305.6134384053
  0
SOLID
  5
407
100
AcDbEntity
  8
0
100
AcDbTrace
 62
5
  6
CONTINUOUS
 10
375.5213150587
 20
305.8356597798
 11
374.2620557994
 21
305.6134384053
 12
374.3361298735
 22
305.9838053848
 13
374.3361298735
 23
305.9838053848
  0
SOLID
  5
408
100
AcDbEntity
  8
0
100
AcDbTrace
 62
5
  6
CONTINUOUS
 10
374.1139076513
 20
305.3171429567
 11
374.2620557994
 21
305.6134384053
 12
375.5213150587
 22
305.8356597798
 13
375.5213150587
 23
305.8356597798
  0
SOLID
  5
409
100
AcDbEntity
  8
0
100
AcDbTrace
 62
5
  6
CONTINUOUS
 10
374.1139076513
 20
305.3171429567
 11
375.5213150587
 21
305.8356597798
 12
375.3731669105
 22
305.2430671872
 13
375.3731669105
 23
305.2430671872
  0
SOLID
  5
40A
100
AcDbEntity
  8
0
100
AcDbTrace
 62
5
  6
CONTINUOUS
 10
370.7805743179
 20
305.6134384053
 11
370.854648392
 21
305.3171429567
 12
369.6694632068
 22
305.1689931131
 13
369.6694632068
 23
305.1689931131
  0
SOLID
  5
40B
100
AcDbEntity
  8
0
100
AcDbTrace
 62
5
  6
CONTINUOUS
 10
370.7805743179
 20
305.6134384053
 11
369.6694632068
 21
305.1689931131
 12
369.5213150587
 22
305.6134384053
 13
369.5213150587
 23
305.6134384053
  0
SOLID
  5
40C
100
AcDbEntity
  8
0
100
AcDbTrace
 62
5
  6
CONTINUOUS
 10
369.6694632068
 20
305.1689931131
 11
370.854648392
 21
305.3171429567
 12
370.9287224661
 22
305.0208475081
 13
370.9287224661
 23
305.0208475081
  0
SOLID
  5
40D
100
AcDbEntity
  8
0
100
AcDbTrace
 62
5
  6
CONTINUOUS
 10
375.3731669105
 20
305.2430671872
 11
374.0398335772
 21
305.0208475081
 12
374.1139076513
 22
305.3171429567
 13
374.1139076513
 23
305.3171429567
  0
SOLID
  5
40E
100
AcDbEntity
  8
0
100
AcDbTrace
 62
5
  6
CONTINUOUS
 10
370.9287224661
 20
305.0208475081
 11
371.0768706142
 21
304.7986233079
 12
369.817611355
 22
304.7245520595
 13
369.817611355
 23
304.7245520595
  0
SOLID
  5
40F
100
AcDbEntity
  8
0
100
AcDbTrace
 62
5
  6
CONTINUOUS
 10
370.9287224661
 20
305.0208475081
 11
369.817611355
 21
304.7245520595
 12
369.6694632068
 22
305.1689931131
 13
369.6694632068
 23
305.1689931131
  0
SOLID
  5
410
100
AcDbEntity
  8
0
100
AcDbTrace
 62
5
  6
CONTINUOUS
 10
373.8916854291
 20
304.7986233079
 11
374.0398335772
 21
305.0208475081
 12
375.3731669105
 22
305.2430671872
 13
375.3731669105
 23
305.2430671872
  0
SOLID
  5
411
100
AcDbEntity
  8
0
100
AcDbTrace
 62
5
  6
CONTINUOUS
 10
373.8916854291
 20
304.7986233079
 11
375.3731669105
 21
305.2430671872
 12
375.1509446883
 22
304.7245520595
 13
375.1509446883
 23
304.7245520595
  0
SOLID
  5
412
100
AcDbEntity
  8
0
100
AcDbTrace
 62
5
  6
CONTINUOUS
 10
375.1509446883
 20
304.7245520595
 11
373.5953891328
 21
304.5023264464
 12
373.8916854291
 22
304.7986233079
 13
373.8916854291
 23
304.7986233079
  0
SOLID
  5
413
100
AcDbEntity
  8
0
100
AcDbTrace
 62
5
  6
CONTINUOUS
 10
369.817611355
 20
304.7245520595
 11
371.0768706142
 21
304.7986233079
 12
371.3731669105
 22
304.4282523724
 13
371.3731669105
 23
304.4282523724
  0
SOLID
  5
414
100
AcDbEntity
  8
0
100
AcDbTrace
 62
5
  6
CONTINUOUS
 10
371.3731669105
 20
304.4282523724
 11
370.0398335772
 21
304.3541782983
 12
369.817611355
 22
304.7245520595
 13
369.817611355
 23
304.7245520595
  0
SOLID
  5
415
100
AcDbEntity
  8
0
100
AcDbTrace
 62
5
  6
CONTINUOUS
 10
373.5953891328
 20
304.5023264464
 11
375.1509446883
 21
304.7245520595
 12
374.9287224661
 22
304.2801042242
 13
374.9287224661
 23
304.2801042242
  0
SOLID
  5
416
100
AcDbEntity
  8
0
100
AcDbTrace
 62
5
  6
CONTINUOUS
 10
370.0398335772
 20
304.3541782983
 11
371.3731669105
 21
304.4282523724
 12
371.7435372809
 22
304.2060323401
 13
371.7435372809
 23
304.2060323401
  0
SOLID
  5
417
100
AcDbEntity
  8
0
100
AcDbTrace
 62
5
  6
CONTINUOUS
 10
374.9287224661
 20
304.2801042242
 11
373.2250187624
 21
304.2060323401
 12
373.5953891328
 22
304.5023264464
 13
373.5953891328
 23
304.5023264464
  0
SOLID
  5
418
100
AcDbEntity
  8
0
100
AcDbTrace
 62
5
  6
CONTINUOUS
 10
372.4842780216
 20
304.0578795295
 11
372.854648392
 21
304.0578795295
 12
370.2620557994
 22
303.9838079279
 13
370.2620557994
 23
303.9838079279
  0
SOLID
  5
419
100
AcDbEntity
  8
0
100
AcDbTrace
 62
5
  6
CONTINUOUS
 10
372.1139076513
 20
304.0578795295
 11
372.4842780216
 21
304.0578795295
 12
370.2620557994
 22
303.9838079279
 13
370.2620557994
 23
303.9838079279
  0
SOLID
  5
41A
100
AcDbEntity
  8
0
100
AcDbTrace
 62
5
  6
CONTINUOUS
 10
371.7435372809
 20
304.2060323401
 11
372.1139076513
 21
304.0578795295
 12
370.2620557994
 22
303.9838079279
 13
370.2620557994
 23
303.9838079279
  0
SOLID
  5
41B
100
AcDbEntity
  8
0
100
AcDbTrace
 62
5
  6
CONTINUOUS
 10
371.7435372809
 20
304.2060323401
 11
370.2620557994
 21
303.9838079279
 12
370.0398335772
 22
304.3541782983
 13
370.0398335772
 23
304.3541782983
  0
SOLID
  5
41C
100
AcDbEntity
  8
0
100
AcDbTrace
 62
5
  6
CONTINUOUS
 10
372.854648392
 20
304.0578795295
 11
373.2250187624
 21
304.2060323401
 12
374.9287224661
 22
304.2801042242
 13
374.9287224661
 23
304.2801042242
  0
SOLID
  5
41D
100
AcDbEntity
  8
0
100
AcDbTrace
 62
5
  6
CONTINUOUS
 10
374.6324261698
 20
303.8356597798
 11
370.2620557994
 21
303.9838079279
 12
372.854648392
 22
304.0578795295
 13
372.854648392
 23
304.0578795295
  0
SOLID
  5
41E
100
AcDbEntity
  8
0
100
AcDbTrace
 62
5
  6
CONTINUOUS
 10
372.854648392
 20
304.0578795295
 11
374.9287224661
 21
304.2801042242
 12
374.6324261698
 22
303.8356597798
 13
374.6324261698
 23
303.8356597798
  0
SOLID
  5
41F
100
AcDbEntity
  8
0
100
AcDbTrace
 62
5
  6
CONTINUOUS
 10
374.6324261698
 20
303.8356597798
 11
370.4842780216
 21
303.7615857057
 12
370.2620557994
 22
303.9838079279
 13
370.2620557994
 23
303.9838079279
  0
SOLID
  5
420
100
AcDbEntity
  8
0
100
AcDbTrace
 62
5
  6
CONTINUOUS
 10
370.7065002439
 20
303.539359916
 11
370.4842780216
 21
303.7615857057
 12
374.6324261698
 22
303.8356597798
 13
374.6324261698
 23
303.8356597798
  0
SOLID
  5
421
100
AcDbEntity
  8
0
100
AcDbTrace
 62
5
  6
CONTINUOUS
 10
370.7065002439
 20
303.539359916
 11
374.6324261698
 21
303.8356597798
 12
374.2620557994
 22
303.539359916
 13
374.2620557994
 23
303.539359916
  0
SOLID
  5
422
100
AcDbEntity
  8
0
100
AcDbTrace
 62
5
  6
CONTINUOUS
 10
374.2620557994
 20
303.539359916
 11
370.9287224661
 21
303.3912153353
 12
370.7065002439
 22
303.539359916
 13
370.7065002439
 23
303.539359916
  0
SOLID
  5
423
100
AcDbEntity
  8
0
100
AcDbTrace
 62
5
  6
CONTINUOUS
 10
370.9287224661
 20
303.3912153353
 11
374.2620557994
 21
303.539359916
 12
373.8916854291
 22
303.3171412613
 13
373.8916854291
 23
303.3171412613
  0
SOLID
  5
424
100
AcDbEntity
  8
0
100
AcDbTrace
 62
5
  6
CONTINUOUS
 10
373.8916854291
 20
303.3171412613
 11
371.2250187624
 21
303.2430671872
 12
370.9287224661
 22
303.3912153353
 13
370.9287224661
 23
303.3912153353
  0
SOLID
  5
425
100
AcDbEntity
  8
0
100
AcDbTrace
 62
5
  6
CONTINUOUS
 10
371.5213150587
 20
303.1689931131
 11
371.2250187624
 21
303.2430671872
 12
373.8916854291
 22
303.3171412613
 13
373.8916854291
 23
303.3171412613
  0
SOLID
  5
426
100
AcDbEntity
  8
0
100
AcDbTrace
 62
5
  6
CONTINUOUS
 10
371.5213150587
 20
303.1689931131
 11
373.8916854291
 21
303.3171412613
 12
373.4472409846
 22
303.1689931131
 13
373.4472409846
 23
303.1689931131
  0
SOLID
  5
427
100
AcDbEntity
  8
0
100
AcDbTrace
 62
5
  6
CONTINUOUS
 10
373.4472409846
 20
303.1689931131
 11
371.817611355
 21
303.0949217808
 12
371.5213150587
 22
303.1689931131
 13
371.5213150587
 23
303.1689931131
  0
SOLID
  5
428
100
AcDbEntity
  8
0
100
AcDbTrace
 62
5
  6
CONTINUOUS
 10
372.1139076513
 20
303.0949217808
 11
371.817611355
 21
303.0949217808
 12
373.4472409846
 22
303.1689931131
 13
373.4472409846
 23
303.1689931131
  0
SOLID
  5
429
100
AcDbEntity
  8
0
100
AcDbTrace
 62
5
  6
CONTINUOUS
 10
372.1139076513
 20
303.0949217808
 11
373.4472409846
 21
303.1689931131
 12
373.0027965402
 22
303.0949217808
 13
373.0027965402
 23
303.0949217808
  0
SOLID
  5
42A
100
AcDbEntity
  8
0
100
AcDbTrace
 62
5
  6
CONTINUOUS
 10
373.0027965402
 20
303.0949217808
 11
372.4842780216
 21
303.020844965
 12
372.1139076513
 22
303.0949217808
 13
372.1139076513
 23
303.0949217808
  0
LINE
  5
42B
100
AcDbEntity
  8
0
100
AcDbLine
 62
7
  6
CONTINUOUS
 10
120.9581079183
 20
82.5848855987
 11
120.9581079183
 21
382.5848855987
  0
LINE
  5
42C
100
AcDbEntity
  8
0
100
AcDbLine
 62
7
  6
CONTINUOUS
 10
130.9581079183
 20
82.5848855987
 11
130.9581079183
 21
363.5848855987
  0
LINE
  5
42D
100
AcDbEntity
  8
0
100
AcDbLine
 62
7
  6
CONTINUOUS
 10
141.9581079183
 20
82.5848855987
 11
141.9581079183
 21
242.5848855987
  0
LINE
  5
42E
100
AcDbEntity
  8
0
100
AcDbLine
 62
7
  6
CONTINUOUS
 10
120.9581079183
 20
82.5848855987
 11
540.9581079183
 21
82.5848855987
  0
LWPOLYLINE
  5
42F
100
AcDbEntity
  8
DIMENSIONS
100
AcDbPolyline
 62
5
  6
CONTINUOUS
 90
3
 70
0
 10
135.0295345459
 20
74.9955991516
 10
135.7438191833
 20
75.7098837891
 10
135.7438191833
 20
73.2098830261
  0
LWPOLYLINE
  5
430
100
AcDbEntity
  8
DIMENSIONS
100
AcDbPolyline
 62
5
  6
CONTINUOUS
 90
3
 70
0
 10
136.4581038208
 20
74.9955991516
 10
137.172397522
 20
75.7098837891
 10
137.172397522
 20
73.2098830261
  0
LINE
  5
431
100
AcDbEntity
  8
0
100
AcDbLine
 62
7
  6
CONTINUOUS
 10
141.9581079183
 20
242.5848855987
 11
540.9581079183
 21
242.5848855987
  0
LINE
  5
432
100
AcDbEntity
  8
0
100
AcDbLine
 62
7
  6
CONTINUOUS
 10
141.9581079183
 20
363.5848855987
 11
540.9581079183
 21
363.5848855987
  0
LINE
  5
433
100
AcDbEntity
  8
0
100
AcDbLine
 62
7
  6
CONTINUOUS
 10
120.9581079183
 20
382.5848855987
 11
540.9581079183
 21
382.5848855987
  0
LWPOLYLINE
  5
434
100
AcDbEntity
  8
DIMENSIONS
100
AcDbPolyline
 62
5
  6
CONTINUOUS
 90
3
 70
0
 10
548.5473984375
 20
300.6741870117
 10
547.8331047363
 20
301.388444458
 10
550.3330964355
 20
301.388444458
  0
LWPOLYLINE
  5
435
100
AcDbEntity
  8
DIMENSIONS
100
AcDbPolyline
 62
5
  6
CONTINUOUS
 90
3
 70
0
 10
548.5473984375
 20
304.06702771
 10
547.8331047363
 20
304.7813214111
 10
550.3330964355
 20
304.7813214111
  0
LINE
  5
436
100
AcDbEntity
  8
0
100
AcDbLine
 62
7
  6
CONTINUOUS
 10
540.9581079183
 20
82.5848855987
 11
540.9581079183
 21
382.5848855987
  0
LWPOLYLINE
  5
437
100
AcDbEntity
  8
DIMENSIONS
100
AcDbPolyline
 62
5
  6
CONTINUOUS
 90
7
 70
0
 10
550.3330964355
 20
303.3527340088
 10
550.3330964355
 20
302.1027381592
 10
548.5473984375
 20
303.3527340088
 10
548.1902515869
 20
303.3527340088
 10
547.8331047363
 20
302.9955871582
 10
547.8331047363
 20
302.4598850098
 10
548.3688068848
 20
302.1027381592
  0
LINE
  5
438
100
AcDbEntity
  8
0
100
AcDbLine
 62
7
  6
CONTINUOUS
 10
50.5568167425
 20
82.5848855987
 11
69.5568167425
 21
82.5848855987
  0
LWPOLYLINE
  5
439
100
AcDbEntity
  8
DIMENSIONS
100
AcDbPolyline
 62
5
  6
CONTINUOUS
 90
10
 70
0
 10
54.4318166656
 20
393.2098809814
 10
55.1461013031
 20
393.9241746826
 10
55.3246747284
 20
394.6384683838
 10
55.3246747284
 20
395.3527258301
 10
54.9675324097
 20
395.7098726807
 10
54.4318166656
 20
395.7098726807
 10
54.0746743469
 20
395.3527258301
 10
54.0746743469
 20
394.6384683838
 10
54.4318166656
 20
394.2813215332
 10
55.2056272888
 20
394.2813215332
  0
LINE
  5
43A
100
AcDbEntity
  8
0
100
AcDbLine
 62
7
  6
CONTINUOUS
 10
50.5568167425
 20
82.5848855987
 11
50.5568167425
 21
382.5848855987
  0
LINE
  5
43B
100
AcDbEntity
  8
0
100
AcDbLine
 62
7
  6
CONTINUOUS
 10
59.5568167425
 20
363.5848855987
 11
59.5568167425
 21
242.5848855987
  0
LINE
  5
43C
100
AcDbEntity
  8
DEFAULT_2
100
AcDbLine
 62
8
  6
HIDDEN
 10
59.5568167425
 20
82.5848855987
 11
59.5568167425
 21
242.5848855987
  0
LINE
  5
43D
100
AcDbEntity
  8
ACHSEN
100
AcDbLine
 62
8
  6
HIDDEN
 10
59.5568167425
 20
363.5848855987
 11
59.5568167425
 21
369.0848855987
  0
LINE
  5
43E
100
AcDbEntity
  8
0
100
AcDbLine
 62
7
  6
CONTINUOUS
 10
69.5568167425
 20
382.5848855987
 11
69.5568167425
 21
82.5848855987
  0
LINE
  5
43F
100
AcDbEntity
  8
0
100
AcDbLine
 62
7
  6
CONTINUOUS
 10
59.5568167425
 20
242.5848855987
 11
50.5568167425
 21
242.5848855987
  0
LINE
  5
440
100
AcDbEntity
  8
0
100
AcDbLine
 62
7
  6
CONTINUOUS
 10
50.5568167425
 20
363.5848855987
 11
59.5568167425
 21
363.5848855987
  0
LINE
  5
441
100
AcDbEntity
  8
ACHSEN
100
AcDbLine
 62
8
  6
HIDDEN
 10
59.5568167425
 20
369.0848855987
 11
50.5568167425
 21
369.0848855987
  0
LINE
  5
442
100
AcDbEntity
  8
0
100
AcDbLine
 62
7
  6
CONTINUOUS
 10
50.5568167425
 20
382.5848855987
 11
69.5568167425
 21
382.5848855987
  0
ARC
  5
443
100
AcDbEntity
  8
0
100
AcDbCircle
 62
7
  6
CONTINUOUS
 10
136.4581079183
 20
363.5848855987
 40
5.5
100
AcDbArc
 50
0.0
 51
180.0
  0
ENDSEC
  0
SECTION
  2
OBJECTS
  0
DICTIONARY
  5
C
100
AcDbDictionary
280
0
281
1
  3
ACAD_GROUP
350
D
  3
ACAD_MLINESTYLE
350
17
  3
ACAD_LAYOUT
350
1A
  3
ACAD_PLOTSETTINGS
350
19
  3
ACAD_PLOTSTYLENAME
350
E
  0
DICTIONARY
  5
D
102
{ACAD_REACTORS
330
C
102
}
100
AcDbDictionary
280
0
281
1
  0
ACDBDICTIONARYWDFLT
  5
E
102
{ACAD_REACTORS
330
C
102
}
100
AcDbDictionary
281
1
  3
Normal
350
F
100
AcDbDictionaryWithDefault
340
F
  0
DICTIONARY
  5
17
102
{ACAD_REACTORS
330
C
102
}
100
AcDbDictionary
280
0
281
1
  3
Standard
350
18
  0
DICTIONARY
  5
19
102
{ACAD_REACTORS
330
C
102
}
100
AcDbDictionary
281
1
  0
DICTIONARY
  5
1A
102
{ACAD_REACTORS
330
C
102
}
100
AcDbDictionary
281
1
  3
Layout1
350
1E
  3
Model
350
22
  0
ACDBPLACEHOLDER
  5
F
102
{ACAD_REACTORS
330
E
102
}
  0
MLINESTYLE
  5
18
102
{ACAD_REACTORS
330
17
102
}
100
AcDbMlineStyle
  2
STANDARD
 70
0
  3

 62
256
 51
90.0
 52
90.0
 71
2
 49
0.5
 62
256
  6
BYLAYER
 49
-0.5
 62
256
  6
BYLAYER
  0
LAYOUT
  5
1E
102
{ACAD_REACTORS
330
1A
102
}
100
AcDbPlotSettings
  1

  2

  4

  6

 40
0.0
 41
0.0
 42
0.0
 43
0.0
 44
0.0
 45
0.0
 46
0.0
 47
0.0
 48
0.0
 49
0.0
140
0.0
141
0.0
142
1.0
143
1.0
 70
0
 72
0
 73
0
 74
0
  7

 75
0
147
1.0
148
0.0
149
0.0
100
AcDbLayout
  1
Layout1
 70
0
 71
0
 10
0.0
 20
0.0
 11
0.0
 21
0.0
 12
0.0
 22
0.0
 32
0.0
 14
0.0
 24
0.0
 34
0.0
 15
0.0
 25
0.0
 35
0.0
146
0.0
 13
0.0
 23
0.0
 33
0.0
 16
0.0
 26
0.0
 36
0.0
 17
0.0
 27
0.0
 37
0.0
 76
0
330
1B
331
0
345
0
346
0
  0
LAYOUT
  5
22
102
{ACAD_REACTORS
330
1A
102
}
100
AcDbPlotSettings
  1

  2

  4

  6

 40
0.0
 41
0.0
 42
0.0
 43
0.0
 44
0.0
 45
0.0
 46
0.0
 47
0.0
 48
0.0
 49
0.0
140
0.0
141
0.0
142
1.0
143
1.0
 70
1024
 72
0
 73
0
 74
0
  7

 75
0
147
1.0
148
0.0
149
0.0
100
AcDbLayout
  1
Model
 70
0
 71
0
 10
0.0
 20
0.0
 11
0.0
 21
0.0
 12
0.0
 22
0.0
 32
0.0
 14
0.0
 24
0.0
 34
0.0
 15
0.0
 25
0.0
 35
0.0
146
0.0
 13
0.0
 23
0.0
 33
0.0
 16
0.0
 26
0.0
 36
0.0
 17
0.0
 27
0.0
 37
0.0
 76
0
330
1F
331
0
345
0
346
0
  0
ENDSEC
  0
EOF
