999
DXF file: korpus_frameline_1201_1600.dxf
999
Pro/ENGINEER 2009400 by Parametric Technology Corporation
  0
SECTION
  2
HEADER
  9
$ACADVER
  1
AC1015
  9
$DWGCODEPAGE
  3
ANSI_1252
  9
$EXTMAX
 10
500.0
 20
1000.0
 30
0.0
  9
$EXTMIN
 10
0.0
 20
0.0
 30
0.0
  9
$LIMMIN
 10
0.0
 20
0.0
  9
$LIMMAX
 10
500.0
 20
1000.0
  9
$VIEWCTR
 10
250.0
 20
500.0
  9
$VIEWSIZE
 40
1000.0
  9
$CLAYER
  8
0
  9
$LTSCALE
 40
65.1851851852
  9
$CELTYPE
  6
BYLAYER
  9
$DIMSCALE
 40
1.0
  9
$DIMASZ
 40
2.5
  9
$DIMEXO
 40
7.4074074074
  9
$DIMDLI
 40
45.037037037
  9
$DIMEXE
 40
21.3333333333
  9
$DIMCEN
 40
10.6666666667
  9
$DIMLFAC
 40
1.0
  9
$DIMBLK
  1
_FILLED
  9
$DIMTXT
 40
2.5
  9
$DIMTOL
 70
1
  9
$DIMLIM
 70
0
  9
$DIMTFAC
 40
1.0
  9
$DIMTP
 40
0.01
  9
$DIMTM
 40
0.01
  9
$PDMODE
 70
3
  9
$PDSIZE
 40
0.5
  9
$HANDSEED
  5
4F8
  9
$MEASUREMENT
 70
1
  9
$INSUNITS
 70
4
  0
ENDSEC
  0
SECTION
  2
CLASSES
  0
CLASS
  1
ACDBDICTIONARYWDFLT
  2
AcDbDictionaryWithDefault
  3
AutoCAD 2000
 90
0
280
0
281
0
  0
CLASS
  1
ACDBPLACEHOLDER
  2
AcDbPlaceHolder
  3
AutoCAD 2000
 90
0
280
0
281
0
  0
CLASS
  1
LAYOUT
  2
AcDbLayout
  3
AutoCAD 2000
 90
0
280
0
281
0
  0
ENDSEC
  0
SECTION
  2
TABLES
  0
TABLE
  2
VPORT
  5
8
100
AcDbSymbolTable
 70
2
  0
VPORT
  5
1F4
100
AcDbSymbolTableRecord
100
AcDbViewportTableRecord
  2
*ACTIVE
 70
0
 10
0.0
 20
0.0
 11
1.0
 21
1.0
 12
250.0
 22
500.0
 13
0.0
 23
0.0
 14
1.0
 24
1.0
 15
0.0
 25
0.0
 16
0.0
 26
0.0
 36
1.0
 17
0.0
 27
0.0
 37
0.0
 40
1000.0
 41
0.5
 42
50.0
 43
0.0
 44
0.0
 50
0.0
 51
0.0
 71
0
 72
100
 73
1
 74
1
 75
0
 76
0
 77
0
 78
0
  0
ENDTAB
  0
TABLE
  2
LTYPE
  5
5
100
AcDbSymbolTable
 70
6
  0
LTYPE
  5
14
100
AcDbSymbolTableRecord
100
AcDbLinetypeTableRecord
  2
BYBLOCK
 70
0
  3

 72
65
 73
0
 40
0.0
  0
LTYPE
  5
15
100
AcDbSymbolTableRecord
100
AcDbLinetypeTableRecord
  2
BYLAYER
 70
0
  3

 72
65
 73
0
 40
0.0
  0
LTYPE
  5
16
100
AcDbSymbolTableRecord
100
AcDbLinetypeTableRecord
  2
CONTINUOUS
 70
64
  3
Solid line
 72
65
 73
0
 40
0.0
  0
LTYPE
  5
1F5
100
AcDbSymbolTableRecord
100
AcDbLinetypeTableRecord
  2
CENTER
 70
64
  3
____ _ ____ _ ____ _ ____ _ ____ _ ____ _ ____
 72
65
 73
4
 40
0.6
 49
0.375
 74
0
 49
-0.075
 74
0
 49
0.075
 74
0
 49
-0.075
 74
0
  0
LTYPE
  5
1F6
100
AcDbSymbolTableRecord
100
AcDbLinetypeTableRecord
  2
HIDDEN
 70
64
  3
- - - - - - - - - - - - - - - - - - - -
 72
65
 73
2
 40
0.2
 49
0.1
 74
0
 49
-0.1
 74
0
  0
LTYPE
  5
1F7
100
AcDbSymbolTableRecord
100
AcDbLinetypeTableRecord
  2
PHANTOM
 70
64
  3
_____ _ _ _____ _ _ _____ _ _ _____
 72
65
 73
6
 40
0.8
 49
0.45
 74
0
 49
-0.05
 74
0
 49
0.1
 74
0
 49
-0.05
 74
0
 49
0.1
 74
0
 49
-0.05
 74
0
  0
LTYPE
  5
1F8
100
AcDbSymbolTableRecord
100
AcDbLinetypeTableRecord
  2
DOT
 70
64
  3
. . . . . . . . . . . . . . . . . . . .
 72
65
 73
2
 40
0.2
 49
0.1
 74
0
 49
-0.1
 74
0
  0
LTYPE
  5
1F9
100
AcDbSymbolTableRecord
100
AcDbLinetypeTableRecord
  2
DASHED
 70
64
  3
- - - - - - - - - - - - - - - - - - - -
 72
65
 73
2
 40
0.2
 49
0.1
 74
0
 49
-0.1
 74
0
  0
ENDTAB
  0
TABLE
  2
LAYER
  5
2
100
AcDbSymbolTable
 70
36
  0
LAYER
  5
10
100
AcDbSymbolTableRecord
100
AcDbLayerTableRecord
  2
0
 70
0
 62
7
  6
CONTINUOUS
370
-3
390
F
  0
LAYER
  5
1FA
100
AcDbSymbolTableRecord
100
AcDbLayerTableRecord
  2
DEFAULT_1
 70
0
 62
7
  6
CENTER
370
-3
390
F
  0
LAYER
  5
1FB
100
AcDbSymbolTableRecord
100
AcDbLayerTableRecord
  2
DEFAULT_2
 70
0
 62
8
  6
HIDDEN
370
-3
390
F
  0
LAYER
  5
1FC
100
AcDbSymbolTableRecord
100
AcDbLayerTableRecord
  2
DEFAULT_3
 70
0
 62
7
  6
PHANTOM
370
-3
390
F
  0
LAYER
  5
1FD
100
AcDbSymbolTableRecord
100
AcDbLayerTableRecord
  2
_2D_DELETED_OBJS
 70
0
 62
7
  6
CONTINUOUS
370
-3
390
F
  0
LAYER
  5
1FE
100
AcDbSymbolTableRecord
100
AcDbLayerTableRecord
  2
_BLACK_HOLE
 70
0
 62
7
  6
CONTINUOUS
370
-3
390
F
  0
LAYER
  5
1FF
100
AcDbSymbolTableRecord
100
AcDbLayerTableRecord
  2
ACHSEN
 70
0
 62
7
  6
CONTINUOUS
370
-3
390
F
  0
LAYER
  5
200
100
AcDbSymbolTableRecord
100
AcDbLayerTableRecord
  2
AXIS
 70
0
 62
7
  6
CONTINUOUS
370
-3
390
F
  0
LAYER
  5
201
100
AcDbSymbolTableRecord
100
AcDbLayerTableRecord
  2
A_EBENEN
 70
0
 62
7
  6
CONTINUOUS
370
-3
390
F
  0
LAYER
  5
202
100
AcDbSymbolTableRecord
100
AcDbLayerTableRecord
  2
BODIES
 70
0
 62
7
  6
CONTINUOUS
370
-3
390
F
  0
LAYER
  5
203
100
AcDbSymbolTableRecord
100
AcDbLayerTableRecord
  2
BOHRUNGEN
 70
0
 62
7
  6
CONTINUOUS
370
-3
390
F
  0
LAYER
  5
204
100
AcDbSymbolTableRecord
100
AcDbLayerTableRecord
  2
CHAMFER
 70
0
 62
7
  6
CONTINUOUS
370
-3
390
F
  0
LAYER
  5
205
100
AcDbSymbolTableRecord
100
AcDbLayerTableRecord
  2
COSYS
 70
0
 62
7
  6
CONTINUOUS
370
-3
390
F
  0
LAYER
  5
206
100
AcDbSymbolTableRecord
100
AcDbLayerTableRecord
  2
CURVES
 70
0
 62
7
  6
CONTINUOUS
370
-3
390
F
  0
LAYER
  5
207
100
AcDbSymbolTableRecord
100
AcDbLayerTableRecord
  2
DATUM-PLANES
 70
0
 62
7
  6
CONTINUOUS
370
-3
390
F
  0
LAYER
  5
208
100
AcDbSymbolTableRecord
100
AcDbLayerTableRecord
  2
DIMENSIONS
 70
0
 62
7
  6
CONTINUOUS
370
-3
390
F
  0
LAYER
  5
209
100
AcDbSymbolTableRecord
100
AcDbLayerTableRecord
  2
EBENEN
 70
0
 62
7
  6
CONTINUOUS
370
-3
390
F
  0
LAYER
  5
20A
100
AcDbSymbolTableRecord
100
AcDbLayerTableRecord
  2
FASEN
 70
0
 62
7
  6
CONTINUOUS
370
-3
390
F
  0
LAYER
  5
20B
100
AcDbSymbolTableRecord
100
AcDbLayerTableRecord
  2
FLAECHEN
 70
0
 62
7
  6
CONTINUOUS
370
-3
390
F
  0
LAYER
  5
20C
100
AcDbSymbolTableRecord
100
AcDbLayerTableRecord
  2
GEWINDE
 70
0
 62
7
  6
CONTINUOUS
370
-3
390
F
  0
LAYER
  5
20D
100
AcDbSymbolTableRecord
100
AcDbLayerTableRecord
  2
HOLES
 70
0
 62
7
  6
CONTINUOUS
370
-3
390
F
  0
LAYER
  5
20E
100
AcDbSymbolTableRecord
100
AcDbLayerTableRecord
  2
KOERPER
 70
0
 62
7
  6
CONTINUOUS
370
-3
390
F
  0
LAYER
  5
20F
100
AcDbSymbolTableRecord
100
AcDbLayerTableRecord
  2
KOORDSYS
 70
0
 62
7
  6
CONTINUOUS
370
-3
390
F
  0
LAYER
  5
210
100
AcDbSymbolTableRecord
100
AcDbLayerTableRecord
  2
KURVEN
 70
0
 62
7
  6
CONTINUOUS
370
-3
390
F
  0
LAYER
  5
211
100
AcDbSymbolTableRecord
100
AcDbLayerTableRecord
  2
ORI_FL
 70
0
 62
7
  6
CONTINUOUS
370
-3
390
F
  0
LAYER
  5
212
100
AcDbSymbolTableRecord
100
AcDbLayerTableRecord
  2
POINTS
 70
0
 62
7
  6
CONTINUOUS
370
-3
390
F
  0
LAYER
  5
213
100
AcDbSymbolTableRecord
100
AcDbLayerTableRecord
  2
PUNKTE
 70
0
 62
7
  6
CONTINUOUS
370
-3
390
F
  0
LAYER
  5
214
100
AcDbSymbolTableRecord
100
AcDbLayerTableRecord
  2
QUILTS
 70
0
 62
7
  6
CONTINUOUS
370
-3
390
F
  0
LAYER
  5
215
100
AcDbSymbolTableRecord
100
AcDbLayerTableRecord
  2
ROUNDS
 70
0
 62
7
  6
CONTINUOUS
370
-3
390
F
  0
LAYER
  5
216
100
AcDbSymbolTableRecord
100
AcDbLayerTableRecord
  2
RUNDUNGEN
 70
0
 62
7
  6
CONTINUOUS
370
-3
390
F
  0
LAYER
  5
217
100
AcDbSymbolTableRecord
100
AcDbLayerTableRecord
  2
S-EBENEN
 70
0
 62
7
  6
CONTINUOUS
370
-3
390
F
  0
LAYER
  5
218
100
AcDbSymbolTableRecord
100
AcDbLayerTableRecord
  2
S-KOORDINATENSYSTEM
 70
0
 62
7
  6
CONTINUOUS
370
-3
390
F
  0
LAYER
  5
219
100
AcDbSymbolTableRecord
100
AcDbLayerTableRecord
  2
SAMMELFLAECHEN
 70
0
 62
7
  6
CONTINUOUS
370
-3
390
F
  0
LAYER
  5
21A
100
AcDbSymbolTableRecord
100
AcDbLayerTableRecord
  2
SKETCH
 70
0
 62
7
  6
CONTINUOUS
370
-3
390
F
  0
LAYER
  5
21B
100
AcDbSymbolTableRecord
100
AcDbLayerTableRecord
  2
SOLIDS
 70
0
 62
7
  6
CONTINUOUS
370
-3
390
F
  0
LAYER
  5
21C
100
AcDbSymbolTableRecord
100
AcDbLayerTableRecord
  2
SURFACES
 70
0
 62
7
  6
CONTINUOUS
370
-3
390
F
  0
LAYER
  5
21D
100
AcDbSymbolTableRecord
100
AcDbLayerTableRecord
  2
TEMP_QUILTS
 70
0
 62
7
  6
CONTINUOUS
370
-3
390
F
  0
LAYER
  5
21E
100
AcDbSymbolTableRecord
100
AcDbLayerTableRecord
  2
XSEC_DATUMS
 70
0
 62
7
  6
CONTINUOUS
370
-3
390
F
  0
ENDTAB
  0
TABLE
  2
STYLE
  5
3
100
AcDbSymbolTable
 70
1
  0
STYLE
  5
11
100
AcDbSymbolTableRecord
100
AcDbTextStyleTableRecord
  2
STANDARD
 70
0
 40
0.0
 41
0.8
 50
0.0
 71
0
 42
0.2
  3
txt
  4

  0
ENDTAB
  0
TABLE
  2
VIEW
  5
6
100
AcDbSymbolTable
 70
0
  0
ENDTAB
  0
TABLE
  2
UCS
  5
7
100
AcDbSymbolTable
 70
0
  0
ENDTAB
  0
TABLE
  2
APPID
  5
9
100
AcDbSymbolTable
 70
1
  0
APPID
  5
21F
100
AcDbSymbolTableRecord
100
AcDbRegAppTableRecord
  2
ACAD
 70
0
  0
ENDTAB
  0
TABLE
  2
BLOCK_RECORD
  5
1
100
AcDbSymbolTable
 70
0
  0
BLOCK_RECORD
  5
1F
100
AcDbSymbolTableRecord
100
AcDbBlockTableRecord
  2
*MODEL_SPACE
  0
BLOCK_RECORD
  5
1B
100
AcDbSymbolTableRecord
100
AcDbBlockTableRecord
  2
*PAPER_SPACE
  0
BLOCK_RECORD
  5
220
100
AcDbSymbolTableRecord
100
AcDbBlockTableRecord
  2
_FILLED
  0
BLOCK_RECORD
  5
221
100
AcDbSymbolTableRecord
100
AcDbBlockTableRecord
  2
*D0
  0
BLOCK_RECORD
  5
222
100
AcDbSymbolTableRecord
100
AcDbBlockTableRecord
  2
*D1
  0
BLOCK_RECORD
  5
223
100
AcDbSymbolTableRecord
100
AcDbBlockTableRecord
  2
*D2
  0
BLOCK_RECORD
  5
224
100
AcDbSymbolTableRecord
100
AcDbBlockTableRecord
  2
*D3
  0
BLOCK_RECORD
  5
225
100
AcDbSymbolTableRecord
100
AcDbBlockTableRecord
  2
*D4
  0
BLOCK_RECORD
  5
226
100
AcDbSymbolTableRecord
100
AcDbBlockTableRecord
  2
*D5
  0
ENDTAB
  0
TABLE
  2
DIMSTYLE
  5
A
100
AcDbSymbolTable
 70
1
100
AcDbDimStyleTable
 71
0
  0
DIMSTYLE
105
227
100
AcDbSymbolTableRecord
100
AcDbDimStyleTableRecord
  2
STANDARD
 70
0
  3

  4

 40
1.0
 41
2.5
 42
0.0625
 43
0.38
 44
0.18
 45
0.0
 46
0.0
 47
0.01
 48
0.01
140
2.5
141
0.09
142
0.0
143
25.4
144
1.0
145
0.0
146
1.0
147
0.09
 71
1.0
 72
0.0
 73
0
 74
0
 75
0
 76
0
 77
1
 78
8
170
0
171
2
172
0
173
0
174
0
175
0
176
0
177
0
178
5
270
2
271
2
272
2
273
2
274
2
275
0
280
0
281
0
282
0
283
1
284
8
285
0
286
0
287
3
288
0
340
11
341
220
342
220
343
220
344
220
  0
DIMSTYLE
105
228
100
AcDbSymbolTableRecord
100
AcDbDimStyleTableRecord
  2
DIMSTYLE_1
 70
0
  3

  4

 40
1.0
 41
2.5
 42
0.0625
 43
0.38
 44
0.18
 45
0.0
 46
0.0
 47
0.2
 48
0.2
140
2.5
141
0.09
142
0.0
143
25.4
144
1.0
145
0.0
146
1.0
147
0.09
 71
0.0
 72
0.0
 73
0
 74
0
 75
0
 76
0
 77
1
 78
8
170
0
171
2
172
0
173
0
174
0
175
0
176
0
177
0
178
5
270
2
271
2
272
2
273
2
274
2
275
0
280
0
281
0
282
0
283
1
284
8
285
0
286
0
287
3
288
0
340
11
341
220
342
220
343
220
344
220
  0
DIMSTYLE
105
229
100
AcDbSymbolTableRecord
100
AcDbDimStyleTableRecord
  2
DIMSTYLE_2
 70
0
  3

  4

 40
1.0
 41
2.5
 42
0.0625
 43
0.38
 44
0.18
 45
0.0
 46
0.0
 47
0.5
 48
0.5
140
2.5
141
0.09
142
0.0
143
25.4
144
1.0
145
0.0
146
1.0
147
0.09
 71
0.0
 72
0.0
 73
0
 74
0
 75
0
 76
0
 77
1
 78
8
170
0
171
2
172
0
173
0
174
0
175
0
176
0
177
0
178
5
270
2
271
2
272
2
273
2
274
2
275
0
280
0
281
0
282
0
283
1
284
8
285
0
286
0
287
3
288
0
340
11
341
220
342
220
343
220
344
220
  0
DIMSTYLE
105
22A
100
AcDbSymbolTableRecord
100
AcDbDimStyleTableRecord
  2
DIMSTYLE_3
 70
0
  3

  4

 40
1.0
 41
2.5
 42
0.0625
 43
0.38
 44
0.18
 45
0.0
 46
0.0
 47
0.1
 48
0.1
140
2.5
141
0.09
142
0.0
143
25.4
144
1.0
145
0.0
146
1.0
147
0.09
 71
0.0
 72
0.0
 73
0
 74
0
 75
0
 76
0
 77
1
 78
8
170
0
171
2
172
0
173
0
174
0
175
0
176
0
177
0
178
5
270
2
271
2
272
2
273
2
274
2
275
0
280
0
281
0
282
0
283
1
284
8
285
0
286
0
287
3
288
0
340
11
341
220
342
220
343
220
344
220
  0
ENDTAB
  0
ENDSEC
  0
SECTION
  2
BLOCKS
  0
BLOCK
  5
20
100
AcDbEntity
  8
0
100
AcDbBlockBegin
  2
*MODEL_SPACE
 70
0
 10
0.0
 20
0.0
 30
0.0
  3
*MODEL_SPACE
  1

  0
ENDBLK
  5
21
100
AcDbEntity
  8
0
100
AcDbBlockEnd
  0
BLOCK
  5
1C
100
AcDbEntity
  8
0
100
AcDbBlockBegin
  2
*PAPER_SPACE
 70
0
 10
0.0
 20
0.0
 30
0.0
  3
*PAPER_SPACE
  1

  0
ENDBLK
  5
1D
100
AcDbEntity
  8
0
100
AcDbBlockEnd
  0
BLOCK
  5
22B
100
AcDbEntity
  8
DIMENSIONS
100
AcDbBlockBegin
 62
2
  6
CONTINUOUS
  2
*D0
 70
65
 10
0.0
 20
0.0
  3
*D0
  1

  0
LINE
  5
22C
100
AcDbEntity
  8
DIMENSIONS
100
AcDbLine
 62
2
  6
CONTINUOUS
 10
67.8901793276
 20
946.8331221163
 11
57.8901793276
 21
946.8331221163
  0
LINE
  5
22D
100
AcDbEntity
  8
DIMENSIONS
100
AcDbLine
 62
2
  6
CONTINUOUS
 10
67.8901793276
 20
927.8331221163
 11
57.8901793276
 21
927.8331221163
  0
LINE
  5
22E
100
AcDbEntity
  8
DIMENSIONS
100
AcDbLine
 62
2
  6
CONTINUOUS
 10
58.8901793276
 20
946.8331221163
 11
58.8901793276
 21
937.3331221163
  0
LINE
  5
22F
100
AcDbEntity
  8
DIMENSIONS
100
AcDbLine
 62
2
  6
CONTINUOUS
 10
58.8901793276
 20
927.8331221163
 11
58.8901793276
 21
937.3331221163
  0
INSERT
  5
230
100
AcDbEntity
  8
DIMENSIONS
100
AcDbBlockReference
 62
2
  6
CONTINUOUS
  2
_FILLED
 10
58.8901793276
 20
946.8331221163
 41
2.5
 42
2.5
 43
2.5
 50
90.0
  0
INSERT
  5
231
100
AcDbEntity
  8
DIMENSIONS
100
AcDbBlockReference
 62
2
  6
CONTINUOUS
  2
_FILLED
 10
58.8901793276
 20
927.8331221163
 41
2.5
 42
2.5
 43
2.5
 50
270.0
  0
ENDBLK
  5
232
100
AcDbEntity
  8
0
  6
BYBLOCK
 62
0
100
AcDbBlockEnd
  0
BLOCK
  5
233
100
AcDbEntity
  8
DIMENSIONS
100
AcDbBlockBegin
 62
2
  6
CONTINUOUS
  2
*D1
 70
65
 10
0.0
 20
0.0
  3
*D1
  1

  0
LINE
  5
234
100
AcDbEntity
  8
DIMENSIONS
100
AcDbLine
 62
2
  6
CONTINUOUS
 10
67.8901793276
 20
792.8331221163
 11
57.8901793276
 21
792.8331221163
  0
LINE
  5
235
100
AcDbEntity
  8
DIMENSIONS
100
AcDbLine
 62
2
  6
CONTINUOUS
 10
67.8901793276
 20
927.8331221163
 11
57.8901793276
 21
927.8331221163
  0
LINE
  5
236
100
AcDbEntity
  8
DIMENSIONS
100
AcDbLine
 62
2
  6
CONTINUOUS
 10
58.8901793276
 20
792.8331221163
 11
58.8901793276
 21
860.3331221163
  0
LINE
  5
237
100
AcDbEntity
  8
DIMENSIONS
100
AcDbLine
 62
2
  6
CONTINUOUS
 10
58.8901793276
 20
927.8331221163
 11
58.8901793276
 21
860.3331221163
  0
INSERT
  5
238
100
AcDbEntity
  8
DIMENSIONS
100
AcDbBlockReference
 62
2
  6
CONTINUOUS
  2
_FILLED
 10
58.8901793276
 20
792.8331221163
 41
2.5
 42
2.5
 43
2.5
 50
270.0
  0
INSERT
  5
239
100
AcDbEntity
  8
DIMENSIONS
100
AcDbBlockReference
 62
2
  6
CONTINUOUS
  2
_FILLED
 10
58.8901793276
 20
927.8331221163
 41
2.5
 42
2.5
 43
2.5
 50
90.0
  0
ENDBLK
  5
23A
100
AcDbEntity
  8
0
  6
BYBLOCK
 62
0
100
AcDbBlockEnd
  0
BLOCK
  5
23B
100
AcDbEntity
  8
DIMENSIONS
100
AcDbBlockBegin
 62
2
  6
CONTINUOUS
  2
*D2
 70
65
 10
0.0
 20
0.0
  3
*D2
  1

  0
LINE
  5
23C
100
AcDbEntity
  8
DIMENSIONS
100
AcDbLine
 62
2
  6
CONTINUOUS
 10
362.8901793276
 20
898.8331221163
 11
362.8901793276
 21
960.5755873268
  0
LINE
  5
23D
100
AcDbEntity
  8
DIMENSIONS
100
AcDbLine
 62
2
  6
CONTINUOUS
 10
68.8901793276
 20
947.8331221163
 11
68.8901793276
 21
960.5755873268
  0
LINE
  5
23E
100
AcDbEntity
  8
DIMENSIONS
100
AcDbLine
 62
2
  6
CONTINUOUS
 10
362.8901793276
 20
959.5755873268
 11
215.8901793276
 21
959.5755873268
  0
LINE
  5
23F
100
AcDbEntity
  8
DIMENSIONS
100
AcDbLine
 62
2
  6
CONTINUOUS
 10
68.8901793276
 20
959.5755873268
 11
215.8901793276
 21
959.5755873268
  0
INSERT
  5
240
100
AcDbEntity
  8
DIMENSIONS
100
AcDbBlockReference
 62
2
  6
CONTINUOUS
  2
_FILLED
 10
362.8901793276
 20
959.5755873268
 41
2.5
 42
2.5
 43
2.5
  0
INSERT
  5
241
100
AcDbEntity
  8
DIMENSIONS
100
AcDbBlockReference
 62
2
  6
CONTINUOUS
  2
_FILLED
 10
68.8901793276
 20
959.5755873268
 41
2.5
 42
2.5
 43
2.5
 50
180.0
  0
ENDBLK
  5
242
100
AcDbEntity
  8
0
  6
BYBLOCK
 62
0
100
AcDbBlockEnd
  0
BLOCK
  5
243
100
AcDbEntity
  8
DIMENSIONS
100
AcDbBlockBegin
 62
2
  6
CONTINUOUS
  2
*D3
 70
65
 10
0.0
 20
0.0
  3
*D3
  1

  0
LINE
  5
244
100
AcDbEntity
  8
DIMENSIONS
100
AcDbLine
 62
2
  6
CONTINUOUS
 10
67.8901793276
 20
171.7054656561
 11
52.5339270648
 21
171.7054656561
  0
LINE
  5
245
100
AcDbEntity
  8
DIMENSIONS
100
AcDbLine
 62
2
  6
CONTINUOUS
 10
69.8901793276
 20
176.7054656561
 11
52.5339270648
 21
176.7054656561
  0
LINE
  5
246
100
AcDbEntity
  8
DIMENSIONS
100
AcDbLine
 62
2
  6
CONTINUOUS
 10
53.5339270648
 20
171.7054656561
 11
53.5339270648
 21
164.2054656561
  0
LINE
  5
247
100
AcDbEntity
  8
DIMENSIONS
100
AcDbLine
 62
2
  6
CONTINUOUS
 10
53.5339270648
 20
164.2054656561
 11
53.5339270648
 21
174.2054656561
  0
LINE
  5
248
100
AcDbEntity
  8
DIMENSIONS
100
AcDbLine
 62
2
  6
CONTINUOUS
 10
53.5339270648
 20
176.7054656561
 11
53.5339270648
 21
184.2054656561
  0
LINE
  5
249
100
AcDbEntity
  8
DIMENSIONS
100
AcDbLine
 62
2
  6
CONTINUOUS
 10
53.5339270648
 20
184.2054656561
 11
53.5339270648
 21
174.2054656561
  0
INSERT
  5
24A
100
AcDbEntity
  8
DIMENSIONS
100
AcDbBlockReference
 62
2
  6
CONTINUOUS
  2
_FILLED
 10
53.5339270648
 20
171.7054656561
 41
2.5
 42
2.5
 43
2.5
 50
90.0
  0
INSERT
  5
24B
100
AcDbEntity
  8
DIMENSIONS
100
AcDbBlockReference
 62
2
  6
CONTINUOUS
  2
_FILLED
 10
53.5339270648
 20
176.7054656561
 41
2.5
 42
2.5
 43
2.5
 50
270.0
  0
ENDBLK
  5
24C
100
AcDbEntity
  8
0
  6
BYBLOCK
 62
0
100
AcDbBlockEnd
  0
BLOCK
  5
24D
100
AcDbEntity
  8
DIMENSIONS
100
AcDbBlockBegin
 62
2
  6
CONTINUOUS
  2
*D4
 70
65
 10
0.0
 20
0.0
  3
*D4
  1

  0
LINE
  5
24E
100
AcDbEntity
  8
DIMENSIONS
100
AcDbLine
 62
2
  6
CONTINUOUS
 10
68.6002109125
 20
171.7054656561
 11
58.179196637
 21
171.7054656561
  0
LINE
  5
24F
100
AcDbEntity
  8
DIMENSIONS
100
AcDbLine
 62
2
  6
CONTINUOUS
 10
68.513025282
 20
167.7054656561
 11
58.179196637
 21
167.7054656561
  0
LINE
  5
250
100
AcDbEntity
  8
DIMENSIONS
100
AcDbLine
 62
2
  6
CONTINUOUS
 10
59.179196637
 20
171.7054656561
 11
59.179196637
 21
179.2054656561
  0
LINE
  5
251
100
AcDbEntity
  8
DIMENSIONS
100
AcDbLine
 62
2
  6
CONTINUOUS
 10
59.179196637
 20
179.2054656561
 11
59.179196637
 21
169.7054656561
  0
LINE
  5
252
100
AcDbEntity
  8
DIMENSIONS
100
AcDbLine
 62
2
  6
CONTINUOUS
 10
59.179196637
 20
167.7054656561
 11
59.179196637
 21
161.0278863965
  0
LINE
  5
253
100
AcDbEntity
  8
DIMENSIONS
100
AcDbLine
 62
2
  6
CONTINUOUS
 10
59.179196637
 20
161.0278863965
 11
59.179196637
 21
169.7054656561
  0
INSERT
  5
254
100
AcDbEntity
  8
DIMENSIONS
100
AcDbBlockReference
 62
2
  6
CONTINUOUS
  2
_FILLED
 10
59.179196637
 20
171.7054656561
 41
2.5
 42
2.5
 43
2.5
 50
270.0
  0
INSERT
  5
255
100
AcDbEntity
  8
DIMENSIONS
100
AcDbBlockReference
 62
2
  6
CONTINUOUS
  2
_FILLED
 10
59.179196637
 20
167.7054656561
 41
2.5
 42
2.5
 43
2.5
 50
90.0
  0
ENDBLK
  5
256
100
AcDbEntity
  8
0
  6
BYBLOCK
 62
0
100
AcDbBlockEnd
  0
BLOCK
  5
257
100
AcDbEntity
  8
DIMENSIONS
100
AcDbBlockBegin
 62
2
  6
CONTINUOUS
  2
*D5
 70
65
 10
0.0
 20
0.0
  3
*D5
  1

  0
LINE
  5
258
100
AcDbEntity
  8
DIMENSIONS
100
AcDbLine
 62
2
  6
CONTINUOUS
 10
76.8901793276
 20
171.8808366131
 11
76.8901793276
 21
184.3736577016
  0
LINE
  5
259
100
AcDbEntity
  8
DIMENSIONS
100
AcDbLine
 62
2
  6
CONTINUOUS
 10
68.8901793276
 20
175.3682618315
 11
68.8901793276
 21
184.3736577016
  0
LINE
  5
25A
100
AcDbEntity
  8
DIMENSIONS
100
AcDbLine
 62
2
  6
CONTINUOUS
 10
76.8901793276
 20
183.3736577016
 11
72.8901793276
 21
183.3736577016
  0
LINE
  5
25B
100
AcDbEntity
  8
DIMENSIONS
100
AcDbLine
 62
2
  6
CONTINUOUS
 10
68.8901793276
 20
183.3736577016
 11
72.8901793276
 21
183.3736577016
  0
INSERT
  5
25C
100
AcDbEntity
  8
DIMENSIONS
100
AcDbBlockReference
 62
2
  6
CONTINUOUS
  2
_FILLED
 10
76.8901793276
 20
183.3736577016
 41
2.5
 42
2.5
 43
2.5
  0
INSERT
  5
25D
100
AcDbEntity
  8
DIMENSIONS
100
AcDbBlockReference
 62
2
  6
CONTINUOUS
  2
_FILLED
 10
68.8901793276
 20
183.3736577016
 41
2.5
 42
2.5
 43
2.5
 50
180.0
  0
ENDBLK
  5
25E
100
AcDbEntity
  8
0
  6
BYBLOCK
 62
0
100
AcDbBlockEnd
  0
BLOCK
  5
25F
100
AcDbEntity
  8
0
100
AcDbBlockBegin
  2
_FILLED
 70
64
 10
0.0
 20
0.0
  3
_FILLED
  1

  0
SOLID
  5
260
100
AcDbEntity
  8
0
  6
BYBLOCK
 62
0
100
AcDbTrace
 10
0.0
 20
0.0
 11
-1.0
 21
0.15
 12
-1.0
 22
-0.15
 13
-1.0
 23
-0.15
  0
ENDBLK
  5
261
100
AcDbEntity
  8
0
  6
BYBLOCK
 62
0
100
AcDbBlockEnd
  0
ENDSEC
  0
SECTION
  2
ENTITIES
  0
LINE
  5
262
100
AcDbEntity
  8
0
100
AcDbLine
 62
7
  6
CONTINUOUS
 10
441.4209500584
 20
871.8331221163
 11
441.4209500584
 21
889.4331221163
  0
SOLID
  5
263
100
AcDbEntity
  8
0
100
AcDbTrace
 62
7
  6
CONTINUOUS
 10
440.6709500584
 20
875.8331221163
 11
441.4209500584
 21
871.8331221163
 12
442.1709500584
 22
875.8331221163
 13
442.1709500584
 23
875.8331221163
  0
LINE
  5
264
100
AcDbEntity
  8
0
100
AcDbLine
 62
7
  6
CONTINUOUS
 10
46.3594085968
 20
871.8331221163
 11
46.3594085968
 21
889.4331221163
  0
SOLID
  5
265
100
AcDbEntity
  8
0
100
AcDbTrace
 62
7
  6
CONTINUOUS
 10
45.6094085968
 20
875.8331221163
 11
46.3594085968
 21
871.8331221163
 12
47.1094085968
 22
875.8331221163
 13
47.1094085968
 23
875.8331221163
  0
DIMENSION
  5
266
100
AcDbEntity
  8
DIMENSIONS
100
AcDbDimension
 62
2
  6
CONTINUOUS
  2
*D0
 10
58.8901793276
 20
927.8331221163
 11
58.2651793276
 21
935.6366935448
 70
160
 42
19.0
  3
DIMSTYLE_1
100
AcDbAlignedDimension
 13
67.8901793276
 23
946.8331221163
 14
67.8901793276
 24
927.8331221163
 50
270.0
100
AcDbRotatedDimension
  0
DIMENSION
  5
267
100
AcDbEntity
  8
DIMENSIONS
100
AcDbDimension
 62
2
  6
CONTINUOUS
  2
*D1
 10
58.8901793276
 20
927.8331221163
 11
58.2651793276
 21
857.8331221163
 70
160
 42
135.0
  3
DIMSTYLE_2
100
AcDbAlignedDimension
 13
67.8901793276
 23
792.8331221163
 14
67.8901793276
 24
927.8331221163
 50
90.0
100
AcDbRotatedDimension
  0
DIMENSION
  5
268
100
AcDbEntity
  8
DIMENSIONS
100
AcDbDimension
 62
2
  6
CONTINUOUS
  2
*D2
 10
68.8901793276
 20
959.5755873268
 11
198.3930788637
 21
960.2005873268
 70
160
 42
294.0
  3
DIMSTYLE_2
100
AcDbAlignedDimension
 13
362.8901793276
 23
898.8331221163
 14
68.8901793276
 24
947.8331221163
 50
180.0
100
AcDbRotatedDimension
  0
DIMENSION
  5
269
100
AcDbEntity
  8
DIMENSIONS
100
AcDbDimension
 62
2
  6
CONTINUOUS
  2
*D3
 10
53.5339270648
 20
176.7054656561
 11
52.9089270648
 21
173.3126085133
 70
160
 42
5.0
  3
DIMSTYLE_3
100
AcDbAlignedDimension
 13
67.8901793276
 23
171.7054656561
 14
69.8901793276
 24
176.7054656561
 50
90.0
100
AcDbRotatedDimension
  0
DIMENSION
  5
26A
100
AcDbEntity
  8
DIMENSIONS
100
AcDbDimension
 62
2
  6
CONTINUOUS
  2
*D4
 10
59.179196637
 20
167.7054656561
 11
58.554196637
 21
161.0278863965
 70
160
 42
4.0
  3
DIMSTYLE_3
100
AcDbAlignedDimension
 13
68.6002109125
 23
171.7054656561
 14
68.513025282
 24
167.7054656561
 50
270.0
100
AcDbRotatedDimension
  0
DIMENSION
  5
26B
100
AcDbEntity
  8
DIMENSIONS
100
AcDbDimension
 62
2
  6
CONTINUOUS
  2
*D5
 10
68.8901793276
 20
183.3736577016
 11
71.9080364704
 21
183.9986577016
 70
160
 42
8.0
  3
DIMSTYLE_1
100
AcDbAlignedDimension
 13
76.8901793276
 23
171.8808366131
 14
68.8901793276
 24
175.3682618315
 50
180.0
100
AcDbRotatedDimension
  0
SOLID
  5
26C
100
AcDbEntity
  8
0
100
AcDbTrace
 62
5
  6
CONTINUOUS
 10
148.5481932269
 20
861.4509784664
 11
146.4741191529
 21
860.7102377256
 12
146.9185635973
 22
861.4509784664
 13
146.9185635973
 23
861.4509784664
  0
SOLID
  5
26D
100
AcDbEntity
  8
0
100
AcDbTrace
 62
5
  6
CONTINUOUS
 10
146.0296747084
 20
857.0065340219
 11
142.0296747084
 21
856.8583858738
 12
143.0667117455
 22
857.4509784664
 13
143.0667117455
 23
857.4509784664
  0
SOLID
  5
26E
100
AcDbEntity
  8
0
100
AcDbTrace
 62
5
  6
CONTINUOUS
 10
141.1407858195
 20
856.4139414293
 11
142.0296747084
 21
856.8583858738
 12
146.0296747084
 22
857.0065340219
 13
146.0296747084
 23
857.0065340219
  0
SOLID
  5
26F
100
AcDbEntity
  8
0
100
AcDbTrace
 62
5
  6
CONTINUOUS
 10
141.1407858195
 20
856.4139414293
 11
146.0296747084
 21
857.0065340219
 12
144.9926376714
 22
856.117645133
 13
144.9926376714
 23
856.117645133
  0
SOLID
  5
270
100
AcDbEntity
  8
0
100
AcDbTrace
 62
5
  6
CONTINUOUS
 10
143.659304338
 20
855.2287562441
 11
142.3259710047
 21
854.4880155034
 12
141.1407858195
 22
854.043571059
 13
141.1407858195
 23
854.043571059
  0
SOLID
  5
271
100
AcDbEntity
  8
0
100
AcDbTrace
 62
5
  6
CONTINUOUS
 10
144.9926376714
 20
856.117645133
 11
143.659304338
 21
855.2287562441
 12
141.1407858195
 22
854.043571059
 13
141.1407858195
 23
854.043571059
  0
SOLID
  5
272
100
AcDbEntity
  8
0
100
AcDbTrace
 62
5
  6
CONTINUOUS
 10
144.9926376714
 20
856.117645133
 11
141.1407858195
 21
854.043571059
 12
141.1407858195
 22
856.4139414293
 13
141.1407858195
 23
856.4139414293
  0
SOLID
  5
273
100
AcDbEntity
  8
0
100
AcDbTrace
 62
5
  6
CONTINUOUS
 10
146.0296747084
 20
860.117645133
 11
146.4741191529
 21
860.7102377256
 12
148.5481932269
 22
861.4509784664
 13
148.5481932269
 23
861.4509784664
  0
SOLID
  5
274
100
AcDbEntity
  8
0
100
AcDbTrace
 62
5
  6
CONTINUOUS
 10
145.4370821158
 20
859.3769043923
 11
146.0296747084
 21
860.117645133
 12
148.5481932269
 22
861.4509784664
 13
148.5481932269
 23
861.4509784664
  0
SOLID
  5
275
100
AcDbEntity
  8
0
100
AcDbTrace
 62
5
  6
CONTINUOUS
 10
144.6963413751
 20
858.7843117997
 11
145.4370821158
 21
859.3769043923
 12
148.5481932269
 22
861.4509784664
 13
148.5481932269
 23
861.4509784664
  0
SOLID
  5
276
100
AcDbEntity
  8
0
100
AcDbTrace
 62
5
  6
CONTINUOUS
 10
143.8074524862
 20
858.043571059
 11
144.6963413751
 21
858.7843117997
 12
148.5481932269
 22
861.4509784664
 13
148.5481932269
 23
861.4509784664
  0
SOLID
  5
277
100
AcDbEntity
  8
0
100
AcDbTrace
 62
5
  6
CONTINUOUS
 10
143.0667117455
 20
857.4509784664
 11
143.8074524862
 21
858.043571059
 12
148.5481932269
 22
861.4509784664
 13
148.5481932269
 23
861.4509784664
  0
SOLID
  5
278
100
AcDbEntity
  8
0
100
AcDbTrace
 62
5
  6
CONTINUOUS
 10
146.0296747084
 20
857.0065340219
 11
143.0667117455
 21
857.4509784664
 12
148.5481932269
 22
861.4509784664
 13
148.5481932269
 23
861.4509784664
  0
SOLID
  5
279
100
AcDbEntity
  8
0
100
AcDbTrace
 62
5
  6
CONTINUOUS
 10
146.0296747084
 20
841.4509784664
 11
146.0296747084
 21
857.0065340219
 12
148.5481932269
 22
861.4509784664
 13
148.5481932269
 23
861.4509784664
  0
SOLID
  5
27A
100
AcDbEntity
  8
0
100
AcDbTrace
 62
5
  6
CONTINUOUS
 10
146.0296747084
 20
841.4509784664
 11
148.5481932269
 21
861.4509784664
 12
148.5481932269
 22
841.4509784664
 13
148.5481932269
 23
841.4509784664
  0
SOLID
  5
27B
100
AcDbEntity
  8
0
100
AcDbTrace
 62
5
  6
CONTINUOUS
 10
159.8074524862
 20
861.3028393605
 11
161.1407858195
 21
861.4509784664
 12
162.4741191529
 22
861.3028393605
 13
162.4741191529
 23
861.3028393605
  0
SOLID
  5
27C
100
AcDbEntity
  8
0
100
AcDbTrace
 62
5
  6
CONTINUOUS
 10
162.4741191529
 20
861.3028393605
 11
158.622267301
 21
861.006538543
 12
159.8074524862
 22
861.3028393605
 13
159.8074524862
 23
861.3028393605
  0
SOLID
  5
27D
100
AcDbEntity
  8
0
100
AcDbTrace
 62
5
  6
CONTINUOUS
 10
158.622267301
 20
861.006538543
 11
162.4741191529
 21
861.3028393605
 12
163.659304338
 22
861.006538543
 13
163.659304338
 23
861.006538543
  0
SOLID
  5
27E
100
AcDbEntity
  8
0
100
AcDbTrace
 62
5
  6
CONTINUOUS
 10
163.659304338
 20
861.006538543
 11
157.585230264
 21
860.5620986197
 12
158.622267301
 22
861.006538543
 13
158.622267301
 23
861.006538543
  0
SOLID
  5
27F
100
AcDbEntity
  8
0
100
AcDbTrace
 62
5
  6
CONTINUOUS
 10
157.585230264
 20
860.5620986197
 11
163.659304338
 21
861.006538543
 12
164.6963413751
 22
860.5620986197
 13
164.6963413751
 23
860.5620986197
  0
SOLID
  5
280
100
AcDbEntity
  8
0
100
AcDbTrace
 62
5
  6
CONTINUOUS
 10
164.6963413751
 20
860.5620986197
 11
156.6963413751
 21
859.9694969849
 12
157.585230264
 22
860.5620986197
 13
157.585230264
 23
860.5620986197
  0
SOLID
  5
281
100
AcDbEntity
  8
0
100
AcDbTrace
 62
5
  6
CONTINUOUS
 10
156.6963413751
 20
859.9694969849
 11
164.6963413751
 21
860.5620986197
 12
165.585230264
 22
859.8213488367
 13
165.585230264
 23
859.8213488367
  0
SOLID
  5
282
100
AcDbEntity
  8
0
100
AcDbTrace
 62
5
  6
CONTINUOUS
 10
161.1407858195
 20
859.3769043923
 11
160.2518969306
 21
859.2287585047
 12
155.9556006343
 22
859.0805979235
 13
155.9556006343
 23
859.0805979235
  0
SOLID
  5
283
100
AcDbEntity
  8
0
100
AcDbTrace
 62
5
  6
CONTINUOUS
 10
165.585230264
 20
859.8213488367
 11
161.1407858195
 21
859.3769043923
 12
155.9556006343
 22
859.0805979235
 13
155.9556006343
 23
859.0805979235
  0
SOLID
  5
284
100
AcDbEntity
  8
0
100
AcDbTrace
 62
5
  6
CONTINUOUS
 10
165.585230264
 20
859.8213488367
 11
155.9556006343
 21
859.0805979235
 12
156.6963413751
 22
859.9694969849
 13
156.6963413751
 23
859.9694969849
  0
SOLID
  5
285
100
AcDbEntity
  8
0
100
AcDbTrace
 62
5
  6
CONTINUOUS
 10
155.9556006343
 20
859.0805979235
 11
160.2518969306
 21
859.2287585047
 12
159.5111561899
 22
859.0805979235
 13
159.5111561899
 23
859.0805979235
  0
SOLID
  5
286
100
AcDbEntity
  8
0
100
AcDbTrace
 62
5
  6
CONTINUOUS
 10
161.8815265603
 20
859.2287585047
 11
161.1407858195
 21
859.3769043923
 12
165.585230264
 22
859.8213488367
 13
165.585230264
 23
859.8213488367
  0
SOLID
  5
287
100
AcDbEntity
  8
0
100
AcDbTrace
 62
5
  6
CONTINUOUS
 10
162.622267301
 20
859.0805979235
 11
161.8815265603
 21
859.2287585047
 12
165.585230264
 22
859.8213488367
 13
165.585230264
 23
859.8213488367
  0
SOLID
  5
288
100
AcDbEntity
  8
0
100
AcDbTrace
 62
5
  6
CONTINUOUS
 10
162.622267301
 20
859.0805979235
 11
165.585230264
 21
859.8213488367
 12
166.3259710047
 22
858.9324599478
 13
166.3259710047
 23
858.9324599478
  0
SOLID
  5
289
100
AcDbEntity
  8
0
100
AcDbTrace
 62
5
  6
CONTINUOUS
 10
166.3259710047
 20
858.9324599478
 11
163.2148598936
 21
858.7843117997
 12
162.622267301
 22
859.0805979235
 13
162.622267301
 23
859.0805979235
  0
SOLID
  5
28A
100
AcDbEntity
  8
0
100
AcDbTrace
 62
5
  6
CONTINUOUS
 10
158.7704154492
 20
858.6361636515
 11
158.3259710047
 21
858.1917192071
 12
155.3630080418
 22
858.0435789709
 13
155.3630080418
 23
858.0435789709
  0
SOLID
  5
28B
100
AcDbEntity
  8
0
100
AcDbTrace
 62
5
  6
CONTINUOUS
 10
159.5111561899
 20
859.0805979235
 11
158.7704154492
 21
858.6361636515
 12
155.3630080418
 22
858.0435789709
 13
155.3630080418
 23
858.0435789709
  0
SOLID
  5
28C
100
AcDbEntity
  8
0
100
AcDbTrace
 62
5
  6
CONTINUOUS
 10
159.5111561899
 20
859.0805979235
 11
155.3630080418
 21
858.0435789709
 12
155.9556006343
 22
859.0805979235
 13
155.9556006343
 23
859.0805979235
  0
SOLID
  5
28D
100
AcDbEntity
  8
0
100
AcDbTrace
 62
5
  6
CONTINUOUS
 10
163.8074524862
 20
858.3398673553
 11
163.2148598936
 21
858.7843117997
 12
166.3259710047
 22
858.9324599478
 13
166.3259710047
 23
858.9324599478
  0
SOLID
  5
28E
100
AcDbEntity
  8
0
100
AcDbTrace
 62
5
  6
CONTINUOUS
 10
163.8074524862
 20
858.3398673553
 11
166.3259710047
 21
858.9324599478
 12
166.9185635973
 22
858.0435789709
 13
166.9185635973
 23
858.0435789709
  0
SOLID
  5
28F
100
AcDbEntity
  8
0
100
AcDbTrace
 62
5
  6
CONTINUOUS
 10
166.9185635973
 20
858.0435789709
 11
164.2518969306
 21
857.8954229108
 12
163.8074524862
 22
858.3398673553
 13
163.8074524862
 23
858.3398673553
  0
SOLID
  5
290
100
AcDbEntity
  8
0
100
AcDbTrace
 62
5
  6
CONTINUOUS
 10
155.3630080418
 20
858.0435789709
 11
158.3259710047
 21
858.1917192071
 12
157.8815265603
 22
857.5991266145
 13
157.8815265603
 23
857.5991266145
  0
SOLID
  5
291
100
AcDbEntity
  8
0
100
AcDbTrace
 62
5
  6
CONTINUOUS
 10
164.5481932269
 20
857.3028303182
 11
164.2518969306
 21
857.8954229108
 12
166.9185635973
 22
858.0435789709
 13
166.9185635973
 23
858.0435789709
  0
SOLID
  5
292
100
AcDbEntity
  8
0
100
AcDbTrace
 62
5
  6
CONTINUOUS
 10
164.5481932269
 20
857.3028303182
 11
166.9185635973
 21
858.0435789709
 12
167.2148598936
 22
857.006538543
 13
167.2148598936
 23
857.006538543
  0
SOLID
  5
293
100
AcDbEntity
  8
0
100
AcDbTrace
 62
5
  6
CONTINUOUS
 10
157.8815265603
 20
857.5991266145
 11
157.4370821158
 21
857.006538543
 12
154.9185635973
 22
856.8583858738
 13
154.9185635973
 23
856.8583858738
  0
SOLID
  5
294
100
AcDbEntity
  8
0
100
AcDbTrace
 62
5
  6
CONTINUOUS
 10
157.8815265603
 20
857.5991266145
 11
154.9185635973
 21
856.8583858738
 12
155.3630080418
 22
858.0435789709
 13
155.3630080418
 23
858.0435789709
  0
SOLID
  5
295
100
AcDbEntity
  8
0
100
AcDbTrace
 62
5
  6
CONTINUOUS
 10
167.2148598936
 20
857.006538543
 11
164.6963413751
 21
856.7102377256
 12
164.5481932269
 22
857.3028303182
 13
164.5481932269
 23
857.3028303182
  0
SOLID
  5
296
100
AcDbEntity
  8
0
100
AcDbTrace
 62
5
  6
CONTINUOUS
 10
154.9185635973
 20
856.8583858738
 11
157.4370821158
 21
857.006538543
 12
157.2889339677
 22
856.2657932812
 13
157.2889339677
 23
856.2657932812
  0
SOLID
  5
297
100
AcDbEntity
  8
0
100
AcDbTrace
 62
5
  6
CONTINUOUS
 10
164.8444895232
 20
855.9694969849
 11
164.6963413751
 21
856.7102377256
 12
167.2148598936
 22
857.006538543
 13
167.2148598936
 23
857.006538543
  0
SOLID
  5
298
100
AcDbEntity
  8
0
100
AcDbTrace
 62
5
  6
CONTINUOUS
 10
164.8444895232
 20
855.9694969849
 11
167.2148598936
 21
857.006538543
 12
167.3630080418
 22
855.8213488367
 13
167.3630080418
 23
855.8213488367
  0
SOLID
  5
299
100
AcDbEntity
  8
0
100
AcDbTrace
 62
5
  6
CONTINUOUS
 10
157.2889339677
 20
856.2657932812
 11
154.7704154492
 21
855.6732006886
 12
154.9185635973
 22
856.8583858738
 13
154.9185635973
 23
856.8583858738
  0
SOLID
  5
29A
100
AcDbEntity
  8
0
100
AcDbTrace
 62
5
  6
CONTINUOUS
 10
154.7704154492
 20
855.6732006886
 11
157.2889339677
 21
856.2657932812
 12
157.2889339677
 22
855.3769043923
 13
157.2889339677
 23
855.3769043923
  0
SOLID
  5
29B
100
AcDbEntity
  8
0
100
AcDbTrace
 62
5
  6
CONTINUOUS
 10
167.3630080418
 20
855.8213488367
 11
164.6963413751
 21
855.2287562441
 12
164.8444895232
 22
855.9694969849
 13
164.8444895232
 23
855.9694969849
  0
SOLID
  5
29C
100
AcDbEntity
  8
0
100
AcDbTrace
 62
5
  6
CONTINUOUS
 10
164.6963413751
 20
855.2287562441
 11
167.3630080418
 21
855.8213488367
 12
167.2148598936
 22
854.7843117997
 13
167.2148598936
 23
854.7843117997
  0
SOLID
  5
29D
100
AcDbEntity
  8
0
100
AcDbTrace
 62
5
  6
CONTINUOUS
 10
167.2148598936
 20
854.7843117997
 11
164.5481932269
 21
854.6361636515
 12
164.6963413751
 22
855.2287562441
 13
164.6963413751
 23
855.2287562441
  0
SOLID
  5
29E
100
AcDbEntity
  8
0
100
AcDbTrace
 62
5
  6
CONTINUOUS
 10
164.1037487825
 20
853.8954229108
 11
164.5481932269
 21
854.6361636515
 12
167.2148598936
 22
854.7843117997
 13
167.2148598936
 23
854.7843117997
  0
SOLID
  5
29F
100
AcDbEntity
  8
0
100
AcDbTrace
 62
5
  6
CONTINUOUS
 10
164.1037487825
 20
853.8954229108
 11
167.2148598936
 21
854.7843117997
 12
166.7704154492
 22
853.5991266145
 13
166.7704154492
 23
853.5991266145
  0
SOLID
  5
2A0
100
AcDbEntity
  8
0
100
AcDbTrace
 62
5
  6
CONTINUOUS
 10
166.7704154492
 20
853.5991266145
 11
163.659304338
 21
853.1546821701
 12
164.1037487825
 22
853.8954229108
 13
164.1037487825
 23
853.8954229108
  0
SOLID
  5
2A1
100
AcDbEntity
  8
0
100
AcDbTrace
 62
5
  6
CONTINUOUS
 10
163.659304338
 20
853.1546821701
 11
166.7704154492
 21
853.5991266145
 12
166.622267301
 22
853.0065340219
 13
166.622267301
 23
853.0065340219
  0
SOLID
  5
2A2
100
AcDbEntity
  8
0
100
AcDbTrace
 62
5
  6
CONTINUOUS
 10
166.622267301
 20
853.0065340219
 11
163.3630080418
 21
852.7102377256
 12
163.659304338
 22
853.1546821701
 13
163.659304338
 23
853.1546821701
  0
SOLID
  5
2A3
100
AcDbEntity
  8
0
100
AcDbTrace
 62
5
  6
CONTINUOUS
 10
163.3630080418
 20
852.7102377256
 11
166.622267301
 21
853.0065340219
 12
166.1778228566
 22
852.4139414293
 13
166.1778228566
 23
852.4139414293
  0
SOLID
  5
2A4
100
AcDbEntity
  8
0
100
AcDbTrace
 62
5
  6
CONTINUOUS
 10
166.1778228566
 20
852.4139414293
 11
162.9185635973
 21
852.2657932812
 12
163.3630080418
 22
852.7102377256
 13
163.3630080418
 23
852.7102377256
  0
SOLID
  5
2A5
100
AcDbEntity
  8
0
100
AcDbTrace
 62
5
  6
CONTINUOUS
 10
162.4741191529
 20
851.8213590093
 11
162.9185635973
 21
852.2657932812
 12
166.1778228566
 22
852.4139414293
 13
166.1778228566
 23
852.4139414293
  0
SOLID
  5
2A6
100
AcDbEntity
  8
0
100
AcDbTrace
 62
5
  6
CONTINUOUS
 10
162.4741191529
 20
851.8213590093
 11
166.1778228566
 21
852.4139414293
 12
165.7333784121
 22
851.8213590093
 13
165.7333784121
 23
851.8213590093
  0
SOLID
  5
2A7
100
AcDbEntity
  8
0
100
AcDbTrace
 62
5
  6
CONTINUOUS
 10
165.7333784121
 20
851.8213590093
 11
162.0296747084
 21
851.3769043923
 12
162.4741191529
 22
851.8213590093
 13
162.4741191529
 23
851.8213590093
  0
SOLID
  5
2A8
100
AcDbEntity
  8
0
100
AcDbTrace
 62
5
  6
CONTINUOUS
 10
162.0296747084
 20
851.3769043923
 11
165.7333784121
 21
851.8213590093
 12
165.2889339677
 22
851.080608096
 13
165.2889339677
 23
851.080608096
  0
SOLID
  5
2A9
100
AcDbEntity
  8
0
100
AcDbTrace
 62
5
  6
CONTINUOUS
 10
165.2889339677
 20
851.080608096
 11
161.4370821158
 21
850.7843117997
 12
162.0296747084
 22
851.3769043923
 13
162.0296747084
 23
851.3769043923
  0
SOLID
  5
2AA
100
AcDbEntity
  8
0
100
AcDbTrace
 62
5
  6
CONTINUOUS
 10
161.4370821158
 20
850.7843117997
 11
165.2889339677
 21
851.080608096
 12
164.6963413751
 22
850.4880155034
 13
164.6963413751
 23
850.4880155034
  0
SOLID
  5
2AB
100
AcDbEntity
  8
0
100
AcDbTrace
 62
5
  6
CONTINUOUS
 10
164.6963413751
 20
850.4880155034
 11
160.6963413751
 21
850.1917192071
 12
161.4370821158
 22
850.7843117997
 13
161.4370821158
 23
850.7843117997
  0
SOLID
  5
2AC
100
AcDbEntity
  8
0
100
AcDbTrace
 62
5
  6
CONTINUOUS
 10
160.1037487825
 20
849.5991187025
 11
160.6963413751
 21
850.1917192071
 12
164.6963413751
 22
850.4880155034
 13
164.6963413751
 23
850.4880155034
  0
SOLID
  5
2AD
100
AcDbEntity
  8
0
100
AcDbTrace
 62
5
  6
CONTINUOUS
 10
160.1037487825
 20
849.5991187025
 11
164.6963413751
 21
850.4880155034
 12
163.8074524862
 22
849.5991187025
 13
163.8074524862
 23
849.5991187025
  0
SOLID
  5
2AE
100
AcDbEntity
  8
0
100
AcDbTrace
 62
5
  6
CONTINUOUS
 10
163.8074524862
 20
849.5991187025
 11
159.2148598936
 21
848.8583858738
 12
160.1037487825
 22
849.5991187025
 13
160.1037487825
 23
849.5991187025
  0
SOLID
  5
2AF
100
AcDbEntity
  8
0
100
AcDbTrace
 62
5
  6
CONTINUOUS
 10
159.2148598936
 20
848.8583858738
 11
163.8074524862
 21
849.5991187025
 12
162.7704154492
 22
848.7102377256
 13
162.7704154492
 23
848.7102377256
  0
SOLID
  5
2B0
100
AcDbEntity
  8
0
100
AcDbTrace
 62
5
  6
CONTINUOUS
 10
162.7704154492
 20
848.7102377256
 11
158.3259710047
 21
848.117645133
 12
159.2148598936
 22
848.8583858738
 13
159.2148598936
 23
848.8583858738
  0
SOLID
  5
2B1
100
AcDbEntity
  8
0
100
AcDbTrace
 62
5
  6
CONTINUOUS
 10
158.3259710047
 20
848.117645133
 11
162.7704154492
 21
848.7102377256
 12
161.585230264
 22
847.6732006886
 13
161.585230264
 23
847.6732006886
  0
SOLID
  5
2B2
100
AcDbEntity
  8
0
100
AcDbTrace
 62
5
  6
CONTINUOUS
 10
161.585230264
 20
847.6732006886
 11
157.4370821158
 21
847.2287562441
 12
158.3259710047
 22
848.117645133
 13
158.3259710047
 23
848.117645133
  0
SOLID
  5
2B3
100
AcDbEntity
  8
0
100
AcDbTrace
 62
5
  6
CONTINUOUS
 10
157.4370821158
 20
847.2287562441
 11
161.585230264
 21
847.6732006886
 12
160.6963413751
 22
846.7843117997
 13
160.6963413751
 23
846.7843117997
  0
SOLID
  5
2B4
100
AcDbEntity
  8
0
100
AcDbTrace
 62
5
  6
CONTINUOUS
 10
160.6963413751
 20
846.7843117997
 11
156.6963413751
 21
846.4880155034
 12
157.4370821158
 22
847.2287562441
 13
157.4370821158
 23
847.2287562441
  0
SOLID
  5
2B5
100
AcDbEntity
  8
0
100
AcDbTrace
 62
5
  6
CONTINUOUS
 10
156.6963413751
 20
846.4880155034
 11
160.6963413751
 21
846.7843117997
 12
159.8074524862
 22
846.1917192071
 13
159.8074524862
 23
846.1917192071
  0
SOLID
  5
2B6
100
AcDbEntity
  8
0
100
AcDbTrace
 62
5
  6
CONTINUOUS
 10
159.8074524862
 20
846.1917192071
 11
156.1037487825
 21
845.8954229108
 12
156.6963413751
 22
846.4880155034
 13
156.6963413751
 23
846.4880155034
  0
SOLID
  5
2B7
100
AcDbEntity
  8
0
100
AcDbTrace
 62
5
  6
CONTINUOUS
 10
156.1037487825
 20
845.8954229108
 11
159.8074524862
 21
846.1917192071
 12
159.2148598936
 22
845.5991266145
 13
159.2148598936
 23
845.5991266145
  0
SOLID
  5
2B8
100
AcDbEntity
  8
0
100
AcDbTrace
 62
5
  6
CONTINUOUS
 10
159.2148598936
 20
845.5991266145
 11
158.7704154492
 21
845.1546821701
 12
155.2148598936
 22
844.5620983371
 13
155.2148598936
 23
844.5620983371
  0
SOLID
  5
2B9
100
AcDbEntity
  8
0
100
AcDbTrace
 62
5
  6
CONTINUOUS
 10
159.2148598936
 20
845.5991266145
 11
155.2148598936
 21
844.5620983371
 12
156.1037487825
 22
845.8954229108
 13
156.1037487825
 23
845.8954229108
  0
SOLID
  5
2BA
100
AcDbEntity
  8
0
100
AcDbTrace
 62
5
  6
CONTINUOUS
 10
155.2148598936
 20
844.5620983371
 11
158.7704154492
 21
845.1546821701
 12
158.1778228566
 22
844.5620983371
 13
158.1778228566
 23
844.5620983371
  0
SOLID
  5
2BB
100
AcDbEntity
  8
0
100
AcDbTrace
 62
5
  6
CONTINUOUS
 10
157.7333784121
 20
843.9694983977
 11
167.5111561899
 21
843.9694983977
 12
154.622267301
 22
843.080608096
 13
154.622267301
 23
843.080608096
  0
SOLID
  5
2BC
100
AcDbEntity
  8
0
100
AcDbTrace
 62
5
  6
CONTINUOUS
 10
158.1778228566
 20
844.5620983371
 11
157.7333784121
 21
843.9694983977
 12
154.622267301
 22
843.080608096
 13
154.622267301
 23
843.080608096
  0
SOLID
  5
2BD
100
AcDbEntity
  8
0
100
AcDbTrace
 62
5
  6
CONTINUOUS
 10
158.1778228566
 20
844.5620983371
 11
154.622267301
 21
843.080608096
 12
155.2148598936
 22
844.5620983371
 13
155.2148598936
 23
844.5620983371
  0
SOLID
  5
2BE
100
AcDbEntity
  8
0
100
AcDbTrace
 62
5
  6
CONTINUOUS
 10
154.4741191529
 20
842.3398673553
 11
154.622267301
 21
843.080608096
 12
167.5111561899
 22
843.9694983977
 13
167.5111561899
 23
843.9694983977
  0
SOLID
  5
2BF
100
AcDbEntity
  8
0
100
AcDbTrace
 62
5
  6
CONTINUOUS
 10
154.4741191529
 20
841.4509784664
 11
154.4741191529
 21
842.3398673553
 12
167.5111561899
 22
843.9694983977
 13
167.5111561899
 23
843.9694983977
  0
SOLID
  5
2C0
100
AcDbEntity
  8
0
100
AcDbTrace
 62
5
  6
CONTINUOUS
 10
154.4741191529
 20
841.4509784664
 11
167.5111561899
 21
843.9694983977
 12
167.5111561899
 22
841.4509784664
 13
167.5111561899
 23
841.4509784664
  0
SOLID
  5
2C1
100
AcDbEntity
  8
0
100
AcDbTrace
 62
5
  6
CONTINUOUS
 10
175.659304338
 20
861.3028257971
 11
176.6963413751
 21
861.4509784664
 12
177.4370821158
 22
861.3028257971
 13
177.4370821158
 23
861.3028257971
  0
SOLID
  5
2C2
100
AcDbEntity
  8
0
100
AcDbTrace
 62
5
  6
CONTINUOUS
 10
177.4370821158
 20
861.3028257971
 11
174.7704154492
 21
861.1546844306
 12
175.659304338
 22
861.3028257971
 13
175.659304338
 23
861.3028257971
  0
SOLID
  5
2C3
100
AcDbEntity
  8
0
100
AcDbTrace
 62
5
  6
CONTINUOUS
 10
174.7704154492
 20
861.1546844306
 11
177.4370821158
 21
861.3028257971
 12
178.1778228566
 22
861.1546844306
 13
178.1778228566
 23
861.1546844306
  0
SOLID
  5
2C4
100
AcDbEntity
  8
0
100
AcDbTrace
 62
5
  6
CONTINUOUS
 10
178.1778228566
 20
861.1546844306
 11
178.9185635973
 21
861.0065340219
 12
173.8815265603
 22
860.7102354651
 13
173.8815265603
 23
860.7102354651
  0
SOLID
  5
2C5
100
AcDbEntity
  8
0
100
AcDbTrace
 62
5
  6
CONTINUOUS
 10
178.1778228566
 20
861.1546844306
 11
173.8815265603
 21
860.7102354651
 12
174.7704154492
 22
861.1546844306
 13
174.7704154492
 23
861.1546844306
  0
SOLID
  5
2C6
100
AcDbEntity
  8
0
100
AcDbTrace
 62
5
  6
CONTINUOUS
 10
173.8815265603
 20
860.7102354651
 11
178.9185635973
 21
861.0065340219
 12
179.5111561899
 22
860.7102354651
 13
179.5111561899
 23
860.7102354651
  0
SOLID
  5
2C7
100
AcDbEntity
  8
0
100
AcDbTrace
 62
5
  6
CONTINUOUS
 10
179.5111561899
 20
860.7102354651
 11
180.1037487825
 21
860.4139414293
 12
173.1407858195
 22
860.2657932812
 13
173.1407858195
 23
860.2657932812
  0
SOLID
  5
2C8
100
AcDbEntity
  8
0
100
AcDbTrace
 62
5
  6
CONTINUOUS
 10
179.5111561899
 20
860.7102354651
 11
173.1407858195
 21
860.2657932812
 12
173.8815265603
 22
860.7102354651
 13
173.8815265603
 23
860.7102354651
  0
SOLID
  5
2C9
100
AcDbEntity
  8
0
100
AcDbTrace
 62
5
  6
CONTINUOUS
 10
173.1407858195
 20
860.2657932812
 11
180.1037487825
 21
860.4139414293
 12
180.6963413751
 22
859.9694969849
 13
180.6963413751
 23
859.9694969849
  0
SOLID
  5
2CA
100
AcDbEntity
  8
0
100
AcDbTrace
 62
5
  6
CONTINUOUS
 10
180.6963413751
 20
859.9694969849
 11
172.4000450788
 21
859.6732006886
 12
173.1407858195
 22
860.2657932812
 13
173.1407858195
 23
860.2657932812
  0
SOLID
  5
2CB
100
AcDbEntity
  8
0
100
AcDbTrace
 62
5
  6
CONTINUOUS
 10
176.6963413751
 20
859.376911174
 11
172.4000450788
 21
859.6732006886
 12
180.6963413751
 22
859.9694969849
 13
180.6963413751
 23
859.9694969849
  0
SOLID
  5
2CC
100
AcDbEntity
  8
0
100
AcDbTrace
 62
5
  6
CONTINUOUS
 10
176.6963413751
 20
859.376911174
 11
180.6963413751
 21
859.9694969849
 12
181.1407858195
 22
859.376911174
 13
181.1407858195
 23
859.376911174
  0
SOLID
  5
2CD
100
AcDbEntity
  8
0
100
AcDbTrace
 62
5
  6
CONTINUOUS
 10
181.1407858195
 20
859.376911174
 11
177.4370821158
 21
859.2287483322
 12
176.6963413751
 22
859.376911174
 13
176.6963413751
 23
859.376911174
  0
SOLID
  5
2CE
100
AcDbEntity
  8
0
100
AcDbTrace
 62
5
  6
CONTINUOUS
 10
178.1778228566
 20
858.9324622084
 11
177.4370821158
 21
859.2287483322
 12
181.1407858195
 22
859.376911174
 13
181.1407858195
 23
859.376911174
  0
SOLID
  5
2CF
100
AcDbEntity
  8
0
100
AcDbTrace
 62
5
  6
CONTINUOUS
 10
178.1778228566
 20
858.9324622084
 11
181.1407858195
 21
859.376911174
 12
181.4370821158
 22
858.9324622084
 13
181.4370821158
 23
858.9324622084
  0
SOLID
  5
2D0
100
AcDbEntity
  8
0
100
AcDbTrace
 62
5
  6
CONTINUOUS
 10
175.8074524862
 20
859.2287483322
 11
175.2148598936
 21
858.9324622084
 12
171.8074524862
 22
858.7843117997
 13
171.8074524862
 23
858.7843117997
  0
SOLID
  5
2D1
100
AcDbEntity
  8
0
100
AcDbTrace
 62
5
  6
CONTINUOUS
 10
176.6963413751
 20
859.376911174
 11
175.8074524862
 21
859.2287483322
 12
171.8074524862
 22
858.7843117997
 13
171.8074524862
 23
858.7843117997
  0
SOLID
  5
2D2
100
AcDbEntity
  8
0
100
AcDbTrace
 62
5
  6
CONTINUOUS
 10
176.6963413751
 20
859.376911174
 11
171.8074524862
 21
858.7843117997
 12
172.4000450788
 22
859.6732006886
 13
172.4000450788
 23
859.6732006886
  0
SOLID
  5
2D3
100
AcDbEntity
  8
0
100
AcDbTrace
 62
5
  6
CONTINUOUS
 10
171.8074524862
 20
858.7843117997
 11
175.2148598936
 21
858.9324622084
 12
174.4741191529
 22
858.4880155034
 13
174.4741191529
 23
858.4880155034
  0
SOLID
  5
2D4
100
AcDbEntity
  8
0
100
AcDbTrace
 62
5
  6
CONTINUOUS
 10
181.4370821158
 20
858.9324622084
 11
178.9185635973
 21
858.3398673553
 12
178.1778228566
 22
858.9324622084
 13
178.1778228566
 23
858.9324622084
  0
SOLID
  5
2D5
100
AcDbEntity
  8
0
100
AcDbTrace
 62
5
  6
CONTINUOUS
 10
178.9185635973
 20
858.3398673553
 11
181.4370821158
 21
858.9324622084
 12
181.8815265603
 22
858.1917192071
 13
181.8815265603
 23
858.1917192071
  0
SOLID
  5
2D6
100
AcDbEntity
  8
0
100
AcDbTrace
 62
5
  6
CONTINUOUS
 10
174.4741191529
 20
858.4880155034
 11
171.3630080418
 21
857.8954229108
 12
171.8074524862
 22
858.7843117997
 13
171.8074524862
 23
858.7843117997
  0
SOLID
  5
2D7
100
AcDbEntity
  8
0
100
AcDbTrace
 62
5
  6
CONTINUOUS
 10
171.3630080418
 20
857.8954229108
 11
174.4741191529
 21
858.4880155034
 12
174.0296747084
 22
857.8954229108
 13
174.0296747084
 23
857.8954229108
  0
SOLID
  5
2D8
100
AcDbEntity
  8
0
100
AcDbTrace
 62
5
  6
CONTINUOUS
 10
181.8815265603
 20
858.1917192071
 11
179.5111561899
 21
857.7472747627
 12
178.9185635973
 22
858.3398673553
 13
178.9185635973
 23
858.3398673553
  0
SOLID
  5
2D9
100
AcDbEntity
  8
0
100
AcDbTrace
 62
5
  6
CONTINUOUS
 10
179.5111561899
 20
857.7472747627
 11
181.8815265603
 21
858.1917192071
 12
182.1778228566
 22
857.5991266145
 13
182.1778228566
 23
857.5991266145
  0
SOLID
  5
2DA
100
AcDbEntity
  8
0
100
AcDbTrace
 62
5
  6
CONTINUOUS
 10
182.1778228566
 20
857.5991266145
 11
179.8074524862
 21
857.3028303182
 12
179.5111561899
 22
857.7472747627
 13
179.5111561899
 23
857.7472747627
  0
SOLID
  5
2DB
100
AcDbEntity
  8
0
100
AcDbTrace
 62
5
  6
CONTINUOUS
 10
174.0296747084
 20
857.8954229108
 11
173.7333784121
 21
857.4509784664
 12
170.9185635973
 22
857.0065340219
 13
170.9185635973
 23
857.0065340219
  0
SOLID
  5
2DC
100
AcDbEntity
  8
0
100
AcDbTrace
 62
5
  6
CONTINUOUS
 10
174.0296747084
 20
857.8954229108
 11
170.9185635973
 21
857.0065340219
 12
171.3630080418
 22
857.8954229108
 13
171.3630080418
 23
857.8954229108
  0
SOLID
  5
2DD
100
AcDbEntity
  8
0
100
AcDbTrace
 62
5
  6
CONTINUOUS
 10
170.9185635973
 20
857.0065340219
 11
173.7333784121
 21
857.4509784664
 12
173.4370821158
 22
856.8583858738
 13
173.4370821158
 23
856.8583858738
  0
SOLID
  5
2DE
100
AcDbEntity
  8
0
100
AcDbTrace
 62
5
  6
CONTINUOUS
 10
179.9556006343
 20
856.7102411165
 11
179.8074524862
 21
857.3028303182
 12
182.1778228566
 22
857.5991266145
 13
182.1778228566
 23
857.5991266145
  0
SOLID
  5
2DF
100
AcDbEntity
  8
0
100
AcDbTrace
 62
5
  6
CONTINUOUS
 10
179.9556006343
 20
856.7102411165
 11
182.1778228566
 21
857.5991266145
 12
182.4741191529
 22
856.7102411165
 13
182.4741191529
 23
856.7102411165
  0
SOLID
  5
2E0
100
AcDbEntity
  8
0
100
AcDbTrace
 62
5
  6
CONTINUOUS
 10
182.4741191529
 20
856.7102411165
 11
180.2518969306
 21
855.9694879426
 12
179.9556006343
 22
856.7102411165
 13
179.9556006343
 23
856.7102411165
  0
SOLID
  5
2E1
100
AcDbEntity
  8
0
100
AcDbTrace
 62
5
  6
CONTINUOUS
 10
180.2518969306
 20
855.9694879426
 11
182.4741191529
 21
856.7102411165
 12
182.7704154492
 22
855.9694879426
 13
182.7704154492
 23
855.9694879426
  0
SOLID
  5
2E2
100
AcDbEntity
  8
0
100
AcDbTrace
 62
5
  6
CONTINUOUS
 10
173.4370821158
 20
856.8583858738
 11
173.2889339677
 21
856.117645133
 12
170.622267301
 22
855.8213488367
 13
170.622267301
 23
855.8213488367
  0
SOLID
  5
2E3
100
AcDbEntity
  8
0
100
AcDbTrace
 62
5
  6
CONTINUOUS
 10
173.4370821158
 20
856.8583858738
 11
170.622267301
 21
855.8213488367
 12
170.9185635973
 22
857.0065340219
 13
170.9185635973
 23
857.0065340219
  0
SOLID
  5
2E4
100
AcDbEntity
  8
0
100
AcDbTrace
 62
5
  6
CONTINUOUS
 10
170.622267301
 20
855.8213488367
 11
173.2889339677
 21
856.117645133
 12
173.1407858195
 22
855.3769043923
 13
173.1407858195
 23
855.3769043923
  0
SOLID
  5
2E5
100
AcDbEntity
  8
0
100
AcDbTrace
 62
5
  6
CONTINUOUS
 10
182.7704154492
 20
855.9694879426
 11
180.4000450788
 21
855.2287562441
 12
180.2518969306
 22
855.9694879426
 13
180.2518969306
 23
855.9694879426
  0
SOLID
  5
2E6
100
AcDbEntity
  8
0
100
AcDbTrace
 62
5
  6
CONTINUOUS
 10
180.4000450788
 20
855.2287562441
 11
182.7704154492
 21
855.9694879426
 12
182.9185635973
 22
854.9324599478
 13
182.9185635973
 23
854.9324599478
  0
SOLID
  5
2E7
100
AcDbEntity
  8
0
100
AcDbTrace
 62
5
  6
CONTINUOUS
 10
173.1407858195
 20
855.3769043923
 11
170.4741191529
 21
854.4880200245
 12
170.622267301
 22
855.8213488367
 13
170.622267301
 23
855.8213488367
  0
SOLID
  5
2E8
100
AcDbEntity
  8
0
100
AcDbTrace
 62
5
  6
CONTINUOUS
 10
170.4741191529
 20
854.4880200245
 11
173.1407858195
 21
855.3769043923
 12
172.9926376714
 22
854.4880200245
 13
172.9926376714
 23
854.4880200245
  0
SOLID
  5
2E9
100
AcDbEntity
  8
0
100
AcDbTrace
 62
5
  6
CONTINUOUS
 10
182.9185635973
 20
854.9324599478
 11
180.4000450788
 21
854.4880200245
 12
180.4000450788
 22
855.2287562441
 13
180.4000450788
 23
855.2287562441
  0
SOLID
  5
2EA
100
AcDbEntity
  8
0
100
AcDbTrace
 62
5
  6
CONTINUOUS
 10
180.4000450788
 20
854.4880200245
 11
182.9185635973
 21
854.9324599478
 12
183.0667117455
 22
853.8954229108
 13
183.0667117455
 23
853.8954229108
  0
SOLID
  5
2EB
100
AcDbEntity
  8
0
100
AcDbTrace
 62
5
  6
CONTINUOUS
 10
183.0667117455
 20
853.8954229108
 11
180.5481932269
 21
853.4509807269
 12
180.4000450788
 22
854.4880200245
 13
180.4000450788
 23
854.4880200245
  0
SOLID
  5
2EC
100
AcDbEntity
  8
0
100
AcDbTrace
 62
5
  6
CONTINUOUS
 10
172.9926376714
 20
854.4880200245
 11
172.8444895232
 21
853.4509807269
 12
170.3259710047
 22
852.8583858738
 13
170.3259710047
 23
852.8583858738
  0
SOLID
  5
2ED
100
AcDbEntity
  8
0
100
AcDbTrace
 62
5
  6
CONTINUOUS
 10
172.9926376714
 20
854.4880200245
 11
170.3259710047
 21
852.8583858738
 12
170.4741191529
 22
854.4880200245
 13
170.4741191529
 23
854.4880200245
  0
SOLID
  5
2EE
100
AcDbEntity
  8
0
100
AcDbTrace
 62
5
  6
CONTINUOUS
 10
180.5481932269
 20
853.4509807269
 11
183.0667117455
 21
853.8954229108
 12
183.0667117455
 22
852.5620895775
 13
183.0667117455
 23
852.5620895775
  0
SOLID
  5
2EF
100
AcDbEntity
  8
0
100
AcDbTrace
 62
5
  6
CONTINUOUS
 10
170.3259710047
 20
852.8583858738
 11
172.8444895232
 21
853.4509807269
 12
172.8444895232
 22
852.4139414293
 13
172.8444895232
 23
852.4139414293
  0
SOLID
  5
2F0
100
AcDbEntity
  8
0
100
AcDbTrace
 62
5
  6
CONTINUOUS
 10
183.0667117455
 20
852.5620895775
 11
180.5481932269
 21
852.4139414293
 12
180.5481932269
 22
853.4509807269
 13
180.5481932269
 23
853.4509807269
  0
SOLID
  5
2F1
100
AcDbEntity
  8
0
100
AcDbTrace
 62
5
  6
CONTINUOUS
 10
172.8444895232
 20
852.4139414293
 11
170.3259710047
 21
851.228759635
 12
170.3259710047
 22
852.8583858738
 13
170.3259710047
 23
852.8583858738
  0
SOLID
  5
2F2
100
AcDbEntity
  8
0
100
AcDbTrace
 62
5
  6
CONTINUOUS
 10
170.3259710047
 20
851.228759635
 11
172.8444895232
 21
852.4139414293
 12
172.8444895232
 22
851.228759635
 13
172.8444895232
 23
851.228759635
  0
SOLID
  5
2F3
100
AcDbEntity
  8
0
100
AcDbTrace
 62
5
  6
CONTINUOUS
 10
180.6963413751
 20
851.228759635
 11
180.5481932269
 21
852.4139414293
 12
183.0667117455
 22
852.5620895775
 13
183.0667117455
 23
852.5620895775
  0
SOLID
  5
2F4
100
AcDbEntity
  8
0
100
AcDbTrace
 62
5
  6
CONTINUOUS
 10
180.6963413751
 20
851.228759635
 11
183.0667117455
 21
852.5620895775
 12
183.2148598936
 22
851.228759635
 13
183.2148598936
 23
851.228759635
  0
SOLID
  5
2F5
100
AcDbEntity
  8
0
100
AcDbTrace
 62
5
  6
CONTINUOUS
 10
183.2148598936
 20
851.228759635
 11
180.5481932269
 21
850.0435778406
 12
180.6963413751
 22
851.228759635
 13
180.6963413751
 23
851.228759635
  0
SOLID
  5
2F6
100
AcDbEntity
  8
0
100
AcDbTrace
 62
5
  6
CONTINUOUS
 10
172.8444895232
 20
851.228759635
 11
172.8444895232
 21
850.0435778406
 12
170.3259710047
 22
849.8954229108
 13
170.3259710047
 23
849.8954229108
  0
SOLID
  5
2F7
100
AcDbEntity
  8
0
100
AcDbTrace
 62
5
  6
CONTINUOUS
 10
172.8444895232
 20
851.228759635
 11
170.3259710047
 21
849.8954229108
 12
170.3259710047
 22
851.228759635
 13
170.3259710047
 23
851.228759635
  0
SOLID
  5
2F8
100
AcDbEntity
  8
0
100
AcDbTrace
 62
5
  6
CONTINUOUS
 10
180.5481932269
 20
850.0435778406
 11
183.2148598936
 21
851.228759635
 12
183.0667117455
 22
849.5991266145
 13
183.0667117455
 23
849.5991266145
  0
SOLID
  5
2F9
100
AcDbEntity
  8
0
100
AcDbTrace
 62
5
  6
CONTINUOUS
 10
170.3259710047
 20
849.8954229108
 11
172.8444895232
 21
850.0435778406
 12
172.8444895232
 22
849.006538543
 13
172.8444895232
 23
849.006538543
  0
SOLID
  5
2FA
100
AcDbEntity
  8
0
100
AcDbTrace
 62
5
  6
CONTINUOUS
 10
183.0667117455
 20
849.5991266145
 11
180.5481932269
 21
849.006538543
 12
180.5481932269
 22
850.0435778406
 13
180.5481932269
 23
850.0435778406
  0
SOLID
  5
2FB
100
AcDbEntity
  8
0
100
AcDbTrace
 62
5
  6
CONTINUOUS
 10
172.8444895232
 20
849.006538543
 11
170.3259710047
 21
848.5620895775
 12
170.3259710047
 22
849.8954229108
 13
170.3259710047
 23
849.8954229108
  0
SOLID
  5
2FC
100
AcDbEntity
  8
0
100
AcDbTrace
 62
5
  6
CONTINUOUS
 10
180.5481932269
 20
849.006538543
 11
183.0667117455
 21
849.5991266145
 12
182.9185635973
 22
848.117645133
 13
182.9185635973
 23
848.117645133
  0
SOLID
  5
2FD
100
AcDbEntity
  8
0
100
AcDbTrace
 62
5
  6
CONTINUOUS
 10
170.3259710047
 20
848.5620895775
 11
172.8444895232
 21
849.006538543
 12
172.9926376714
 22
847.9694992454
 13
172.9926376714
 23
847.9694992454
  0
SOLID
  5
2FE
100
AcDbEntity
  8
0
100
AcDbTrace
 62
5
  6
CONTINUOUS
 10
182.9185635973
 20
848.117645133
 11
180.4000450788
 21
847.9694992454
 12
180.5481932269
 22
849.006538543
 13
180.5481932269
 23
849.006538543
  0
SOLID
  5
2FF
100
AcDbEntity
  8
0
100
AcDbTrace
 62
5
  6
CONTINUOUS
 10
172.9926376714
 20
847.9694992454
 11
170.4741191529
 21
847.5250525404
 12
170.3259710047
 22
848.5620895775
 13
170.3259710047
 23
848.5620895775
  0
SOLID
  5
300
100
AcDbEntity
  8
0
100
AcDbTrace
 62
5
  6
CONTINUOUS
 10
170.4741191529
 20
847.5250525404
 11
172.9926376714
 21
847.9694992454
 12
172.9926376714
 22
847.0806030097
 13
172.9926376714
 23
847.0806030097
  0
SOLID
  5
301
100
AcDbEntity
  8
0
100
AcDbTrace
 62
5
  6
CONTINUOUS
 10
180.4000450788
 20
847.0806030097
 11
180.4000450788
 21
847.9694992454
 12
182.9185635973
 22
848.117645133
 13
182.9185635973
 23
848.117645133
  0
SOLID
  5
302
100
AcDbEntity
  8
0
100
AcDbTrace
 62
5
  6
CONTINUOUS
 10
180.4000450788
 20
847.0806030097
 11
182.9185635973
 21
848.117645133
 12
182.7704154492
 22
846.7843117997
 13
182.7704154492
 23
846.7843117997
  0
SOLID
  5
303
100
AcDbEntity
  8
0
100
AcDbTrace
 62
5
  6
CONTINUOUS
 10
172.9926376714
 20
847.0806030097
 11
170.7704154492
 21
846.3398690507
 12
170.4741191529
 22
847.5250525404
 13
170.4741191529
 23
847.5250525404
  0
SOLID
  5
304
100
AcDbEntity
  8
0
100
AcDbTrace
 62
5
  6
CONTINUOUS
 10
170.7704154492
 20
846.3398690507
 11
172.9926376714
 21
847.0806030097
 12
173.2889339677
 22
846.3398690507
 13
173.2889339677
 23
846.3398690507
  0
SOLID
  5
305
100
AcDbEntity
  8
0
100
AcDbTrace
 62
5
  6
CONTINUOUS
 10
182.7704154492
 20
846.7843117997
 11
180.2518969306
 21
846.3398690507
 12
180.4000450788
 22
847.0806030097
 13
180.4000450788
 23
847.0806030097
  0
SOLID
  5
306
100
AcDbEntity
  8
0
100
AcDbTrace
 62
5
  6
CONTINUOUS
 10
179.9556006343
 20
845.7472781535
 11
180.2518969306
 21
846.3398690507
 12
182.7704154492
 22
846.7843117997
 13
182.7704154492
 23
846.7843117997
  0
SOLID
  5
307
100
AcDbEntity
  8
0
100
AcDbTrace
 62
5
  6
CONTINUOUS
 10
179.9556006343
 20
845.7472781535
 11
182.7704154492
 21
846.7843117997
 12
182.4741191529
 22
845.5991266145
 13
182.4741191529
 23
845.5991266145
  0
SOLID
  5
308
100
AcDbEntity
  8
0
100
AcDbTrace
 62
5
  6
CONTINUOUS
 10
173.2889339677
 20
846.3398690507
 11
173.4370821158
 21
845.7472781535
 12
171.0667117455
 22
845.4509784664
 13
171.0667117455
 23
845.4509784664
  0
SOLID
  5
309
100
AcDbEntity
  8
0
100
AcDbTrace
 62
5
  6
CONTINUOUS
 10
173.2889339677
 20
846.3398690507
 11
171.0667117455
 21
845.4509784664
 12
170.7704154492
 22
846.3398690507
 13
170.7704154492
 23
846.3398690507
  0
SOLID
  5
30A
100
AcDbEntity
  8
0
100
AcDbTrace
 62
5
  6
CONTINUOUS
 10
171.0667117455
 20
845.4509784664
 11
173.4370821158
 21
845.7472781535
 12
173.585230264
 22
845.1546872563
 13
173.585230264
 23
845.1546872563
  0
SOLID
  5
30B
100
AcDbEntity
  8
0
100
AcDbTrace
 62
5
  6
CONTINUOUS
 10
182.4741191529
 20
845.5991266145
 11
179.8074524862
 21
845.1546872563
 12
179.9556006343
 22
845.7472781535
 13
179.9556006343
 23
845.7472781535
  0
SOLID
  5
30C
100
AcDbEntity
  8
0
100
AcDbTrace
 62
5
  6
CONTINUOUS
 10
173.585230264
 20
845.1546872563
 11
173.8815265603
 21
844.7102388559
 12
171.3630080418
 22
844.5620963592
 13
171.3630080418
 23
844.5620963592
  0
SOLID
  5
30D
100
AcDbEntity
  8
0
100
AcDbTrace
 62
5
  6
CONTINUOUS
 10
173.585230264
 20
845.1546872563
 11
171.3630080418
 21
844.5620963592
 12
171.0667117455
 22
845.4509784664
 13
171.0667117455
 23
845.4509784664
  0
SOLID
  5
30E
100
AcDbEntity
  8
0
100
AcDbTrace
 62
5
  6
CONTINUOUS
 10
179.5111561899
 20
844.7102388559
 11
179.8074524862
 21
845.1546872563
 12
182.4741191529
 22
845.5991266145
 13
182.4741191529
 23
845.5991266145
  0
SOLID
  5
30F
100
AcDbEntity
  8
0
100
AcDbTrace
 62
5
  6
CONTINUOUS
 10
179.5111561899
 20
844.7102388559
 11
182.4741191529
 21
845.5991266145
 12
182.0296747084
 22
844.5620963592
 13
182.0296747084
 23
844.5620963592
  0
SOLID
  5
310
100
AcDbEntity
  8
0
100
AcDbTrace
 62
5
  6
CONTINUOUS
 10
182.0296747084
 20
844.5620963592
 11
178.9185635973
 21
844.117645133
 12
179.5111561899
 22
844.7102388559
 13
179.5111561899
 23
844.7102388559
  0
SOLID
  5
311
100
AcDbEntity
  8
0
100
AcDbTrace
 62
5
  6
CONTINUOUS
 10
171.3630080418
 20
844.5620963592
 11
173.8815265603
 21
844.7102388559
 12
174.4741191529
 22
843.9694969849
 13
174.4741191529
 23
843.9694969849
  0
SOLID
  5
312
100
AcDbEntity
  8
0
100
AcDbTrace
 62
5
  6
CONTINUOUS
 10
174.4741191529
 20
843.9694969849
 11
171.8074524862
 21
843.8213488367
 12
171.3630080418
 22
844.5620963592
 13
171.3630080418
 23
844.5620963592
  0
SOLID
  5
313
100
AcDbEntity
  8
0
100
AcDbTrace
 62
5
  6
CONTINUOUS
 10
178.9185635973
 20
844.117645133
 11
182.0296747084
 21
844.5620963592
 12
181.585230264
 22
843.6732006886
 13
181.585230264
 23
843.6732006886
  0
SOLID
  5
314
100
AcDbEntity
  8
0
100
AcDbTrace
 62
5
  6
CONTINUOUS
 10
171.8074524862
 20
843.8213488367
 11
174.4741191529
 21
843.9694969849
 12
175.2148598936
 22
843.5250569203
 13
175.2148598936
 23
843.5250569203
  0
SOLID
  5
315
100
AcDbEntity
  8
0
100
AcDbTrace
 62
5
  6
CONTINUOUS
 10
181.585230264
 20
843.6732006886
 11
178.1778228566
 21
843.5250569203
 12
178.9185635973
 22
844.117645133
 13
178.9185635973
 23
844.117645133
  0
SOLID
  5
316
100
AcDbEntity
  8
0
100
AcDbTrace
 62
5
  6
CONTINUOUS
 10
176.6963413751
 20
843.2287512992
 11
177.4370821158
 21
843.2287512992
 12
172.2518969306
 22
843.080608096
 13
172.2518969306
 23
843.080608096
  0
SOLID
  5
317
100
AcDbEntity
  8
0
100
AcDbTrace
 62
5
  6
CONTINUOUS
 10
175.9556006343
 20
843.2287512992
 11
176.6963413751
 21
843.2287512992
 12
172.2518969306
 22
843.080608096
 13
172.2518969306
 23
843.080608096
  0
SOLID
  5
318
100
AcDbEntity
  8
0
100
AcDbTrace
 62
5
  6
CONTINUOUS
 10
175.2148598936
 20
843.5250569203
 11
175.9556006343
 21
843.2287512992
 12
172.2518969306
 22
843.080608096
 13
172.2518969306
 23
843.080608096
  0
SOLID
  5
319
100
AcDbEntity
  8
0
100
AcDbTrace
 62
5
  6
CONTINUOUS
 10
175.2148598936
 20
843.5250569203
 11
172.2518969306
 21
843.080608096
 12
171.8074524862
 22
843.8213488367
 13
171.8074524862
 23
843.8213488367
  0
SOLID
  5
31A
100
AcDbEntity
  8
0
100
AcDbTrace
 62
5
  6
CONTINUOUS
 10
177.4370821158
 20
843.2287512992
 11
178.1778228566
 21
843.5250569203
 12
181.585230264
 22
843.6732006886
 13
181.585230264
 23
843.6732006886
  0
SOLID
  5
31B
100
AcDbEntity
  8
0
100
AcDbTrace
 62
5
  6
CONTINUOUS
 10
180.9926376714
 20
842.7843117997
 11
172.2518969306
 21
843.080608096
 12
177.4370821158
 22
843.2287512992
 13
177.4370821158
 23
843.2287512992
  0
SOLID
  5
31C
100
AcDbEntity
  8
0
100
AcDbTrace
 62
5
  6
CONTINUOUS
 10
177.4370821158
 20
843.2287512992
 11
181.585230264
 21
843.6732006886
 12
180.9926376714
 22
842.7843117997
 13
180.9926376714
 23
842.7843117997
  0
SOLID
  5
31D
100
AcDbEntity
  8
0
100
AcDbTrace
 62
5
  6
CONTINUOUS
 10
180.9926376714
 20
842.7843117997
 11
172.6963413751
 21
842.6361636515
 12
172.2518969306
 22
843.080608096
 13
172.2518969306
 23
843.080608096
  0
SOLID
  5
31E
100
AcDbEntity
  8
0
100
AcDbTrace
 62
5
  6
CONTINUOUS
 10
173.1407858195
 20
842.1917120722
 11
172.6963413751
 21
842.6361636515
 12
180.9926376714
 22
842.7843117997
 13
180.9926376714
 23
842.7843117997
  0
SOLID
  5
31F
100
AcDbEntity
  8
0
100
AcDbTrace
 62
5
  6
CONTINUOUS
 10
173.1407858195
 20
842.1917120722
 11
180.9926376714
 21
842.7843117997
 12
180.2518969306
 22
842.1917120722
 13
180.2518969306
 23
842.1917120722
  0
SOLID
  5
320
100
AcDbEntity
  8
0
100
AcDbTrace
 62
5
  6
CONTINUOUS
 10
180.2518969306
 20
842.1917120722
 11
173.585230264
 21
841.8954229108
 12
173.1407858195
 22
842.1917120722
 13
173.1407858195
 23
842.1917120722
  0
SOLID
  5
321
100
AcDbEntity
  8
0
100
AcDbTrace
 62
5
  6
CONTINUOUS
 10
173.585230264
 20
841.8954229108
 11
180.2518969306
 21
842.1917120722
 12
179.5111561899
 22
841.7472747627
 13
179.5111561899
 23
841.7472747627
  0
SOLID
  5
322
100
AcDbEntity
  8
0
100
AcDbTrace
 62
5
  6
CONTINUOUS
 10
179.5111561899
 20
841.7472747627
 11
174.1778228566
 21
841.5991266145
 12
173.585230264
 22
841.8954229108
 13
173.585230264
 23
841.8954229108
  0
SOLID
  5
323
100
AcDbEntity
  8
0
100
AcDbTrace
 62
5
  6
CONTINUOUS
 10
174.7704154492
 20
841.4509784664
 11
174.1778228566
 21
841.5991266145
 12
179.5111561899
 22
841.7472747627
 13
179.5111561899
 23
841.7472747627
  0
SOLID
  5
324
100
AcDbEntity
  8
0
100
AcDbTrace
 62
5
  6
CONTINUOUS
 10
174.7704154492
 20
841.4509784664
 11
179.5111561899
 21
841.7472747627
 12
178.622267301
 22
841.4509784664
 13
178.622267301
 23
841.4509784664
  0
SOLID
  5
325
100
AcDbEntity
  8
0
100
AcDbTrace
 62
5
  6
CONTINUOUS
 10
178.622267301
 20
841.4509784664
 11
175.3630080418
 21
841.3028358018
 12
174.7704154492
 22
841.4509784664
 13
174.7704154492
 23
841.4509784664
  0
SOLID
  5
326
100
AcDbEntity
  8
0
100
AcDbTrace
 62
5
  6
CONTINUOUS
 10
175.9556006343
 20
841.3028358018
 11
175.3630080418
 21
841.3028358018
 12
178.622267301
 22
841.4509784664
 13
178.622267301
 23
841.4509784664
  0
SOLID
  5
327
100
AcDbEntity
  8
0
100
AcDbTrace
 62
5
  6
CONTINUOUS
 10
175.9556006343
 20
841.3028358018
 11
178.622267301
 21
841.4509784664
 12
177.7333784121
 22
841.3028358018
 13
177.7333784121
 23
841.3028358018
  0
SOLID
  5
328
100
AcDbEntity
  8
0
100
AcDbTrace
 62
5
  6
CONTINUOUS
 10
177.7333784121
 20
841.3028358018
 11
176.6963413751
 21
841.1546821701
 12
175.9556006343
 22
841.3028358018
 13
175.9556006343
 23
841.3028358018
  0
SOLID
  5
329
100
AcDbEntity
  8
0
100
AcDbTrace
 62
5
  6
CONTINUOUS
 10
194.7704154492
 20
861.4509784664
 11
192.6963413751
 21
860.7102377256
 12
193.1407858195
 22
861.4509784664
 13
193.1407858195
 23
861.4509784664
  0
SOLID
  5
32A
100
AcDbEntity
  8
0
100
AcDbTrace
 62
5
  6
CONTINUOUS
 10
192.2518969306
 20
857.0065340219
 11
188.2518969306
 21
856.8583858738
 12
189.2889339677
 22
857.4509784664
 13
189.2889339677
 23
857.4509784664
  0
SOLID
  5
32B
100
AcDbEntity
  8
0
100
AcDbTrace
 62
5
  6
CONTINUOUS
 10
187.3630080418
 20
856.4139414293
 11
188.2518969306
 21
856.8583858738
 12
192.2518969306
 22
857.0065340219
 13
192.2518969306
 23
857.0065340219
  0
SOLID
  5
32C
100
AcDbEntity
  8
0
100
AcDbTrace
 62
5
  6
CONTINUOUS
 10
187.3630080418
 20
856.4139414293
 11
192.2518969306
 21
857.0065340219
 12
191.2148598936
 22
856.117645133
 13
191.2148598936
 23
856.117645133
  0
SOLID
  5
32D
100
AcDbEntity
  8
0
100
AcDbTrace
 62
5
  6
CONTINUOUS
 10
189.8815265603
 20
855.2287562441
 11
188.5481932269
 21
854.4880155034
 12
187.3630080418
 22
854.043571059
 13
187.3630080418
 23
854.043571059
  0
SOLID
  5
32E
100
AcDbEntity
  8
0
100
AcDbTrace
 62
5
  6
CONTINUOUS
 10
191.2148598936
 20
856.117645133
 11
189.8815265603
 21
855.2287562441
 12
187.3630080418
 22
854.043571059
 13
187.3630080418
 23
854.043571059
  0
SOLID
  5
32F
100
AcDbEntity
  8
0
100
AcDbTrace
 62
5
  6
CONTINUOUS
 10
191.2148598936
 20
856.117645133
 11
187.3630080418
 21
854.043571059
 12
187.3630080418
 22
856.4139414293
 13
187.3630080418
 23
856.4139414293
  0
SOLID
  5
330
100
AcDbEntity
  8
0
100
AcDbTrace
 62
5
  6
CONTINUOUS
 10
192.2518969306
 20
860.117645133
 11
192.6963413751
 21
860.7102377256
 12
194.7704154492
 22
861.4509784664
 13
194.7704154492
 23
861.4509784664
  0
SOLID
  5
331
100
AcDbEntity
  8
0
100
AcDbTrace
 62
5
  6
CONTINUOUS
 10
191.659304338
 20
859.3769043923
 11
192.2518969306
 21
860.117645133
 12
194.7704154492
 22
861.4509784664
 13
194.7704154492
 23
861.4509784664
  0
SOLID
  5
332
100
AcDbEntity
  8
0
100
AcDbTrace
 62
5
  6
CONTINUOUS
 10
190.9185635973
 20
858.7843117997
 11
191.659304338
 21
859.3769043923
 12
194.7704154492
 22
861.4509784664
 13
194.7704154492
 23
861.4509784664
  0
SOLID
  5
333
100
AcDbEntity
  8
0
100
AcDbTrace
 62
5
  6
CONTINUOUS
 10
190.0296747084
 20
858.043571059
 11
190.9185635973
 21
858.7843117997
 12
194.7704154492
 22
861.4509784664
 13
194.7704154492
 23
861.4509784664
  0
SOLID
  5
334
100
AcDbEntity
  8
0
100
AcDbTrace
 62
5
  6
CONTINUOUS
 10
189.2889339677
 20
857.4509784664
 11
190.0296747084
 21
858.043571059
 12
194.7704154492
 22
861.4509784664
 13
194.7704154492
 23
861.4509784664
  0
SOLID
  5
335
100
AcDbEntity
  8
0
100
AcDbTrace
 62
5
  6
CONTINUOUS
 10
192.2518969306
 20
857.0065340219
 11
189.2889339677
 21
857.4509784664
 12
194.7704154492
 22
861.4509784664
 13
194.7704154492
 23
861.4509784664
  0
SOLID
  5
336
100
AcDbEntity
  8
0
100
AcDbTrace
 62
5
  6
CONTINUOUS
 10
192.2518969306
 20
841.4509784664
 11
192.2518969306
 21
857.0065340219
 12
194.7704154492
 22
861.4509784664
 13
194.7704154492
 23
861.4509784664
  0
SOLID
  5
337
100
AcDbEntity
  8
0
100
AcDbTrace
 62
5
  6
CONTINUOUS
 10
192.2518969306
 20
841.4509784664
 11
194.7704154492
 21
861.4509784664
 12
194.7704154492
 22
841.4509784664
 13
194.7704154492
 23
841.4509784664
  0
SOLID
  5
338
100
AcDbEntity
  8
0
100
AcDbTrace
 62
5
  6
CONTINUOUS
 10
208.2518969306
 20
849.7472747627
 11
200.5481932269
 21
847.3769043923
 12
200.5481932269
 22
849.7472747627
 13
200.5481932269
 23
849.7472747627
  0
SOLID
  5
339
100
AcDbEntity
  8
0
100
AcDbTrace
 62
5
  6
CONTINUOUS
 10
200.5481932269
 20
847.3769043923
 11
208.2518969306
 21
849.7472747627
 12
208.2518969306
 22
847.3769043923
 13
208.2518969306
 23
847.3769043923
  0
SOLID
  5
33A
100
AcDbEntity
  8
0
100
AcDbTrace
 62
5
  6
CONTINUOUS
 10
219.3630080418
 20
861.4509784664
 11
217.2889339677
 21
860.7102377256
 12
217.7333784121
 22
861.4509784664
 13
217.7333784121
 23
861.4509784664
  0
SOLID
  5
33B
100
AcDbEntity
  8
0
100
AcDbTrace
 62
5
  6
CONTINUOUS
 10
216.8444895232
 20
857.0065340219
 11
212.8444895232
 21
856.8583858738
 12
213.8815265603
 22
857.4509784664
 13
213.8815265603
 23
857.4509784664
  0
SOLID
  5
33C
100
AcDbEntity
  8
0
100
AcDbTrace
 62
5
  6
CONTINUOUS
 10
211.9556006343
 20
856.4139414293
 11
212.8444895232
 21
856.8583858738
 12
216.8444895232
 22
857.0065340219
 13
216.8444895232
 23
857.0065340219
  0
SOLID
  5
33D
100
AcDbEntity
  8
0
100
AcDbTrace
 62
5
  6
CONTINUOUS
 10
211.9556006343
 20
856.4139414293
 11
216.8444895232
 21
857.0065340219
 12
215.8074524862
 22
856.117645133
 13
215.8074524862
 23
856.117645133
  0
SOLID
  5
33E
100
AcDbEntity
  8
0
100
AcDbTrace
 62
5
  6
CONTINUOUS
 10
214.4741191529
 20
855.2287562441
 11
213.1407858195
 21
854.4880155034
 12
211.9556006343
 22
854.043571059
 13
211.9556006343
 23
854.043571059
  0
SOLID
  5
33F
100
AcDbEntity
  8
0
100
AcDbTrace
 62
5
  6
CONTINUOUS
 10
215.8074524862
 20
856.117645133
 11
214.4741191529
 21
855.2287562441
 12
211.9556006343
 22
854.043571059
 13
211.9556006343
 23
854.043571059
  0
SOLID
  5
340
100
AcDbEntity
  8
0
100
AcDbTrace
 62
5
  6
CONTINUOUS
 10
215.8074524862
 20
856.117645133
 11
211.9556006343
 21
854.043571059
 12
211.9556006343
 22
856.4139414293
 13
211.9556006343
 23
856.4139414293
  0
SOLID
  5
341
100
AcDbEntity
  8
0
100
AcDbTrace
 62
5
  6
CONTINUOUS
 10
216.8444895232
 20
860.117645133
 11
217.2889339677
 21
860.7102377256
 12
219.3630080418
 22
861.4509784664
 13
219.3630080418
 23
861.4509784664
  0
SOLID
  5
342
100
AcDbEntity
  8
0
100
AcDbTrace
 62
5
  6
CONTINUOUS
 10
216.2518969306
 20
859.3769043923
 11
216.8444895232
 21
860.117645133
 12
219.3630080418
 22
861.4509784664
 13
219.3630080418
 23
861.4509784664
  0
SOLID
  5
343
100
AcDbEntity
  8
0
100
AcDbTrace
 62
5
  6
CONTINUOUS
 10
215.5111561899
 20
858.7843117997
 11
216.2518969306
 21
859.3769043923
 12
219.3630080418
 22
861.4509784664
 13
219.3630080418
 23
861.4509784664
  0
SOLID
  5
344
100
AcDbEntity
  8
0
100
AcDbTrace
 62
5
  6
CONTINUOUS
 10
214.622267301
 20
858.043571059
 11
215.5111561899
 21
858.7843117997
 12
219.3630080418
 22
861.4509784664
 13
219.3630080418
 23
861.4509784664
  0
SOLID
  5
345
100
AcDbEntity
  8
0
100
AcDbTrace
 62
5
  6
CONTINUOUS
 10
213.8815265603
 20
857.4509784664
 11
214.622267301
 21
858.043571059
 12
219.3630080418
 22
861.4509784664
 13
219.3630080418
 23
861.4509784664
  0
SOLID
  5
346
100
AcDbEntity
  8
0
100
AcDbTrace
 62
5
  6
CONTINUOUS
 10
216.8444895232
 20
857.0065340219
 11
213.8815265603
 21
857.4509784664
 12
219.3630080418
 22
861.4509784664
 13
219.3630080418
 23
861.4509784664
  0
SOLID
  5
347
100
AcDbEntity
  8
0
100
AcDbTrace
 62
5
  6
CONTINUOUS
 10
216.8444895232
 20
841.4509784664
 11
216.8444895232
 21
857.0065340219
 12
219.3630080418
 22
861.4509784664
 13
219.3630080418
 23
861.4509784664
  0
SOLID
  5
348
100
AcDbEntity
  8
0
100
AcDbTrace
 62
5
  6
CONTINUOUS
 10
216.8444895232
 20
841.4509784664
 11
219.3630080418
 21
861.4509784664
 12
219.3630080418
 22
841.4509784664
 13
219.3630080418
 23
841.4509784664
  0
SOLID
  5
349
100
AcDbEntity
  8
0
100
AcDbTrace
 62
5
  6
CONTINUOUS
 10
231.8074524862
 20
861.3028257971
 11
232.5481932269
 21
861.4509784664
 12
233.7333784121
 22
861.3028257971
 13
233.7333784121
 23
861.3028257971
  0
SOLID
  5
34A
100
AcDbEntity
  8
0
100
AcDbTrace
 62
5
  6
CONTINUOUS
 10
231.8074524862
 20
861.3028257971
 11
233.7333784121
 21
861.3028257971
 12
230.3259710047
 22
861.0065408036
 13
230.3259710047
 23
861.0065408036
  0
SOLID
  5
34B
100
AcDbEntity
  8
0
100
AcDbTrace
 62
5
  6
CONTINUOUS
 10
231.8074524862
 20
861.3028257971
 11
230.3259710047
 21
861.0065408036
 12
231.0667117455
 22
861.3028257971
 13
231.0667117455
 23
861.3028257971
  0
SOLID
  5
34C
100
AcDbEntity
  8
0
100
AcDbTrace
 62
5
  6
CONTINUOUS
 10
230.3259710047
 20
861.0065408036
 11
233.7333784121
 21
861.3028257971
 12
234.7704154492
 22
861.0065408036
 13
234.7704154492
 23
861.0065408036
  0
SOLID
  5
34D
100
AcDbEntity
  8
0
100
AcDbTrace
 62
5
  6
CONTINUOUS
 10
234.7704154492
 20
861.0065408036
 11
229.7333784121
 21
860.8583858738
 12
230.3259710047
 22
861.0065408036
 13
230.3259710047
 23
861.0065408036
  0
SOLID
  5
34E
100
AcDbEntity
  8
0
100
AcDbTrace
 62
5
  6
CONTINUOUS
 10
229.1407858195
 20
860.562091838
 11
229.7333784121
 21
860.8583858738
 12
234.7704154492
 22
861.0065408036
 13
234.7704154492
 23
861.0065408036
  0
SOLID
  5
34F
100
AcDbEntity
  8
0
100
AcDbTrace
 62
5
  6
CONTINUOUS
 10
229.1407858195
 20
860.562091838
 11
234.7704154492
 21
861.0065408036
 12
235.659304338
 22
860.562091838
 13
235.659304338
 23
860.562091838
  0
SOLID
  5
350
100
AcDbEntity
  8
0
100
AcDbTrace
 62
5
  6
CONTINUOUS
 10
235.659304338
 20
860.562091838
 11
228.5481932269
 21
860.117645133
 12
229.1407858195
 22
860.562091838
 13
229.1407858195
 23
860.562091838
  0
SOLID
  5
351
100
AcDbEntity
  8
0
100
AcDbTrace
 62
5
  6
CONTINUOUS
 10
228.5481932269
 20
860.117645133
 11
235.659304338
 21
860.562091838
 12
236.4000450788
 22
859.9694969849
 13
236.4000450788
 23
859.9694969849
  0
SOLID
  5
352
100
AcDbEntity
  8
0
100
AcDbTrace
 62
5
  6
CONTINUOUS
 10
236.4000450788
 20
859.9694969849
 11
227.9556006343
 21
859.6732006886
 12
228.5481932269
 22
860.117645133
 13
228.5481932269
 23
860.117645133
  0
SOLID
  5
353
100
AcDbEntity
  8
0
100
AcDbTrace
 62
5
  6
CONTINUOUS
 10
232.4000450788
 20
859.376911174
 11
227.9556006343
 21
859.6732006886
 12
236.4000450788
 22
859.9694969849
 13
236.4000450788
 23
859.9694969849
  0
SOLID
  5
354
100
AcDbEntity
  8
0
100
AcDbTrace
 62
5
  6
CONTINUOUS
 10
232.4000450788
 20
859.376911174
 11
236.4000450788
 21
859.9694969849
 12
237.1407858195
 22
859.376911174
 13
237.1407858195
 23
859.376911174
  0
SOLID
  5
355
100
AcDbEntity
  8
0
100
AcDbTrace
 62
5
  6
CONTINUOUS
 10
237.1407858195
 20
859.376911174
 11
233.1407858195
 21
859.2287483322
 12
232.4000450788
 22
859.376911174
 13
232.4000450788
 23
859.376911174
  0
SOLID
  5
356
100
AcDbEntity
  8
0
100
AcDbTrace
 62
5
  6
CONTINUOUS
 10
232.4000450788
 20
859.376911174
 11
231.8074524862
 21
859.2287483322
 12
227.5111561899
 22
859.0806058354
 13
227.5111561899
 23
859.0806058354
  0
SOLID
  5
357
100
AcDbEntity
  8
0
100
AcDbTrace
 62
5
  6
CONTINUOUS
 10
232.4000450788
 20
859.376911174
 11
227.5111561899
 21
859.0806058354
 12
227.9556006343
 22
859.6732006886
 13
227.9556006343
 23
859.6732006886
  0
SOLID
  5
358
100
AcDbEntity
  8
0
100
AcDbTrace
 62
5
  6
CONTINUOUS
 10
227.5111561899
 20
859.0806058354
 11
231.8074524862
 21
859.2287483322
 12
231.3630080418
 22
859.0806058354
 13
231.3630080418
 23
859.0806058354
  0
SOLID
  5
359
100
AcDbEntity
  8
0
100
AcDbTrace
 62
5
  6
CONTINUOUS
 10
233.7333784121
 20
859.0806058354
 11
233.1407858195
 21
859.2287483322
 12
237.1407858195
 22
859.376911174
 13
237.1407858195
 23
859.376911174
  0
SOLID
  5
35A
100
AcDbEntity
  8
0
100
AcDbTrace
 62
5
  6
CONTINUOUS
 10
234.3259710047
 20
858.7843117997
 11
233.7333784121
 21
859.0806058354
 12
237.1407858195
 22
859.376911174
 13
237.1407858195
 23
859.376911174
  0
SOLID
  5
35B
100
AcDbEntity
  8
0
100
AcDbTrace
 62
5
  6
CONTINUOUS
 10
234.3259710047
 20
858.7843117997
 11
237.1407858195
 21
859.376911174
 12
237.585230264
 22
858.4880155034
 13
237.585230264
 23
858.4880155034
  0
SOLID
  5
35C
100
AcDbEntity
  8
0
100
AcDbTrace
 62
5
  6
CONTINUOUS
 10
230.7704154492
 20
858.9324599478
 11
230.3259710047
 21
858.6361636515
 12
227.0667117455
 22
858.3398718764
 13
227.0667117455
 23
858.3398718764
  0
SOLID
  5
35D
100
AcDbEntity
  8
0
100
AcDbTrace
 62
5
  6
CONTINUOUS
 10
231.3630080418
 20
859.0806058354
 11
230.7704154492
 21
858.9324599478
 12
227.0667117455
 22
858.3398718764
 13
227.0667117455
 23
858.3398718764
  0
SOLID
  5
35E
100
AcDbEntity
  8
0
100
AcDbTrace
 62
5
  6
CONTINUOUS
 10
231.3630080418
 20
859.0806058354
 11
227.0667117455
 21
858.3398718764
 12
227.5111561899
 22
859.0806058354
 13
227.5111561899
 23
859.0806058354
  0
SOLID
  5
35F
100
AcDbEntity
  8
0
100
AcDbTrace
 62
5
  6
CONTINUOUS
 10
237.585230264
 20
858.4880155034
 11
234.7704154492
 21
858.3398718764
 12
234.3259710047
 22
858.7843117997
 13
234.3259710047
 23
858.7843117997
  0
SOLID
  5
360
100
AcDbEntity
  8
0
100
AcDbTrace
 62
5
  6
CONTINUOUS
 10
227.0667117455
 20
858.3398718764
 11
230.3259710047
 21
858.6361636515
 12
229.7333784121
 22
858.1917192071
 13
229.7333784121
 23
858.1917192071
  0
SOLID
  5
361
100
AcDbEntity
  8
0
100
AcDbTrace
 62
5
  6
CONTINUOUS
 10
229.7333784121
 20
858.1917192071
 11
226.622267301
 21
857.5991175723
 12
227.0667117455
 22
858.3398718764
 13
227.0667117455
 23
858.3398718764
  0
SOLID
  5
362
100
AcDbEntity
  8
0
100
AcDbTrace
 62
5
  6
CONTINUOUS
 10
226.622267301
 20
857.5991175723
 11
229.7333784121
 21
858.1917192071
 12
229.2889339677
 22
857.5991175723
 13
229.2889339677
 23
857.5991175723
  0
SOLID
  5
363
100
AcDbEntity
  8
0
100
AcDbTrace
 62
5
  6
CONTINUOUS
 10
235.0667117455
 20
857.8954229108
 11
234.7704154492
 21
858.3398718764
 12
237.585230264
 22
858.4880155034
 13
237.585230264
 23
858.4880155034
  0
SOLID
  5
364
100
AcDbEntity
  8
0
100
AcDbTrace
 62
5
  6
CONTINUOUS
 10
235.3630080418
 20
857.4509750755
 11
235.0667117455
 21
857.8954229108
 12
237.585230264
 22
858.4880155034
 13
237.585230264
 23
858.4880155034
  0
SOLID
  5
365
100
AcDbEntity
  8
0
100
AcDbTrace
 62
5
  6
CONTINUOUS
 10
235.3630080418
 20
857.4509750755
 11
237.585230264
 21
858.4880155034
 12
238.0296747084
 22
857.4509750755
 13
238.0296747084
 23
857.4509750755
  0
SOLID
  5
366
100
AcDbEntity
  8
0
100
AcDbTrace
 62
5
  6
CONTINUOUS
 10
238.0296747084
 20
857.4509750755
 11
235.5111561899
 21
856.8583858738
 12
235.3630080418
 22
857.4509750755
 13
235.3630080418
 23
857.4509750755
  0
SOLID
  5
367
100
AcDbEntity
  8
0
100
AcDbTrace
 62
5
  6
CONTINUOUS
 10
229.2889339677
 20
857.5991175723
 11
228.9926376714
 21
857.0065340219
 12
226.1778228566
 22
856.7102377256
 13
226.1778228566
 23
856.7102377256
  0
SOLID
  5
368
100
AcDbEntity
  8
0
100
AcDbTrace
 62
5
  6
CONTINUOUS
 10
229.2889339677
 20
857.5991175723
 11
226.1778228566
 21
856.7102377256
 12
226.622267301
 22
857.5991175723
 13
226.622267301
 23
857.5991175723
  0
SOLID
  5
369
100
AcDbEntity
  8
0
100
AcDbTrace
 62
5
  6
CONTINUOUS
 10
235.5111561899
 20
856.8583858738
 11
238.0296747084
 21
857.4509750755
 12
238.3259710047
 22
856.4139414293
 13
238.3259710047
 23
856.4139414293
  0
SOLID
  5
36A
100
AcDbEntity
  8
0
100
AcDbTrace
 62
5
  6
CONTINUOUS
 10
226.1778228566
 20
856.7102377256
 11
228.9926376714
 21
857.0065340219
 12
228.5481932269
 22
856.2657932812
 13
228.5481932269
 23
856.2657932812
  0
SOLID
  5
36B
100
AcDbEntity
  8
0
100
AcDbTrace
 62
5
  6
CONTINUOUS
 10
238.3259710047
 20
856.4139414293
 11
235.8074524862
 21
856.2657932812
 12
235.5111561899
 22
856.8583858738
 13
235.5111561899
 23
856.8583858738
  0
SOLID
  5
36C
100
AcDbEntity
  8
0
100
AcDbTrace
 62
5
  6
CONTINUOUS
 10
228.5481932269
 20
856.2657932812
 11
225.8815265603
 21
855.6732006886
 12
226.1778228566
 22
856.7102377256
 13
226.1778228566
 23
856.7102377256
  0
SOLID
  5
36D
100
AcDbEntity
  8
0
100
AcDbTrace
 62
5
  6
CONTINUOUS
 10
225.8815265603
 20
855.6732006886
 11
228.5481932269
 21
856.2657932812
 12
228.2518969306
 22
855.3769043923
 13
228.2518969306
 23
855.3769043923
  0
SOLID
  5
36E
100
AcDbEntity
  8
0
100
AcDbTrace
 62
5
  6
CONTINUOUS
 10
228.2518969306
 20
855.3769043923
 11
225.7333784121
 21
854.6361636515
 12
225.8815265603
 22
855.6732006886
 13
225.8815265603
 23
855.6732006886
  0
SOLID
  5
36F
100
AcDbEntity
  8
0
100
AcDbTrace
 62
5
  6
CONTINUOUS
 10
225.7333784121
 20
854.6361636515
 11
228.2518969306
 21
855.3769043923
 12
228.1037487825
 22
854.191714686
 13
228.1037487825
 23
854.191714686
  0
SOLID
  5
370
100
AcDbEntity
  8
0
100
AcDbTrace
 62
5
  6
CONTINUOUS
 10
231.9556006343
 20
854.191714686
 11
232.6963413751
 21
854.3398673553
 12
233.8815265603
 22
854.191714686
 13
233.8815265603
 23
854.191714686
  0
SOLID
  5
371
100
AcDbEntity
  8
0
100
AcDbTrace
 62
5
  6
CONTINUOUS
 10
233.8815265603
 20
854.191714686
 11
231.3630080418
 21
854.043571059
 12
231.9556006343
 22
854.191714686
 13
231.9556006343
 23
854.191714686
  0
SOLID
  5
372
100
AcDbEntity
  8
0
100
AcDbTrace
 62
5
  6
CONTINUOUS
 10
230.622267301
 20
853.8954229108
 11
231.3630080418
 21
854.043571059
 12
233.8815265603
 22
854.191714686
 13
233.8815265603
 23
854.191714686
  0
SOLID
  5
373
100
AcDbEntity
  8
0
100
AcDbTrace
 62
5
  6
CONTINUOUS
 10
230.622267301
 20
853.8954229108
 11
233.8815265603
 21
854.191714686
 12
234.9185635973
 22
853.7472747627
 13
234.9185635973
 23
853.7472747627
  0
SOLID
  5
374
100
AcDbEntity
  8
0
100
AcDbTrace
 62
5
  6
CONTINUOUS
 10
234.9185635973
 20
853.7472747627
 11
230.0296747084
 21
853.5991266145
 12
230.622267301
 22
853.8954229108
 13
230.622267301
 23
853.8954229108
  0
SOLID
  5
375
100
AcDbEntity
  8
0
100
AcDbTrace
 62
5
  6
CONTINUOUS
 10
228.1037487825
 20
854.191714686
 11
225.4370821158
 21
853.4509784664
 12
225.7333784121
 22
854.6361636515
 13
225.7333784121
 23
854.6361636515
  0
SOLID
  5
376
100
AcDbEntity
  8
0
100
AcDbTrace
 62
5
  6
CONTINUOUS
 10
229.4370821158
 20
853.3028382302
 11
230.0296747084
 21
853.5991266145
 12
234.9185635973
 22
853.7472747627
 13
234.9185635973
 23
853.7472747627
  0
SOLID
  5
377
100
AcDbEntity
  8
0
100
AcDbTrace
 62
5
  6
CONTINUOUS
 10
229.4370821158
 20
853.3028382302
 11
234.9185635973
 21
853.7472747627
 12
235.9556006343
 22
853.3028382302
 13
235.9556006343
 23
853.3028382302
  0
SOLID
  5
378
100
AcDbEntity
  8
0
100
AcDbTrace
 62
5
  6
CONTINUOUS
 10
225.4370821158
 20
853.4509784664
 11
228.1037487825
 21
854.191714686
 12
227.9556006343
 22
853.0065340219
 13
227.9556006343
 23
853.0065340219
  0
SOLID
  5
379
100
AcDbEntity
  8
0
100
AcDbTrace
 62
5
  6
CONTINUOUS
 10
235.9556006343
 20
853.3028382302
 11
228.8444895232
 21
852.8583858738
 12
229.4370821158
 22
853.3028382302
 13
229.4370821158
 23
853.3028382302
  0
SOLID
  5
37A
100
AcDbEntity
  8
0
100
AcDbTrace
 62
5
  6
CONTINUOUS
 10
228.8444895232
 20
852.8583858738
 11
235.9556006343
 21
853.3028382302
 12
236.8444895232
 22
852.4139414293
 13
236.8444895232
 23
852.4139414293
  0
SOLID
  5
37B
100
AcDbEntity
  8
0
100
AcDbTrace
 62
5
  6
CONTINUOUS
 10
236.8444895232
 20
852.4139414293
 11
228.4000450788
 21
852.2657932812
 12
228.8444895232
 22
852.8583858738
 13
228.8444895232
 23
852.8583858738
  0
SOLID
  5
37C
100
AcDbEntity
  8
0
100
AcDbTrace
 62
5
  6
CONTINUOUS
 10
227.9556006343
 20
853.0065340219
 11
225.4370821158
 21
852.117645133
 12
225.4370821158
 22
853.4509784664
 13
225.4370821158
 23
853.4509784664
  0
SOLID
  5
37D
100
AcDbEntity
  8
0
100
AcDbTrace
 62
5
  6
CONTINUOUS
 10
225.4370821158
 20
852.117645133
 11
227.9556006343
 21
853.0065340219
 12
227.9556006343
 22
851.6732086005
 13
227.9556006343
 23
851.6732086005
  0
SOLID
  5
37E
100
AcDbEntity
  8
0
100
AcDbTrace
 62
5
  6
CONTINUOUS
 10
232.1037487825
 20
851.9694969849
 11
231.2148598936
 21
851.8213510973
 12
227.9556006343
 22
851.6732086005
 13
227.9556006343
 23
851.6732086005
  0
SOLID
  5
37F
100
AcDbEntity
  8
0
100
AcDbTrace
 62
5
  6
CONTINUOUS
 10
232.1037487825
 20
851.9694969849
 11
227.9556006343
 21
851.6732086005
 12
228.4000450788
 22
852.2657932812
 13
228.4000450788
 23
852.2657932812
  0
SOLID
  5
380
100
AcDbEntity
  8
0
100
AcDbTrace
 62
5
  6
CONTINUOUS
 10
227.9556006343
 20
851.6732086005
 11
231.2148598936
 21
851.8213510973
 12
230.4741191529
 22
851.6732086005
 13
230.4741191529
 23
851.6732086005
  0
SOLID
  5
381
100
AcDbEntity
  8
0
100
AcDbTrace
 62
5
  6
CONTINUOUS
 10
232.1037487825
 20
851.9694969849
 11
228.4000450788
 21
852.2657932812
 12
236.8444895232
 22
852.4139414293
 13
236.8444895232
 23
852.4139414293
  0
SOLID
  5
382
100
AcDbEntity
  8
0
100
AcDbTrace
 62
5
  6
CONTINUOUS
 10
232.9926376714
 20
851.8213510973
 11
232.1037487825
 21
851.9694969849
 12
236.8444895232
 22
852.4139414293
 13
236.8444895232
 23
852.4139414293
  0
SOLID
  5
383
100
AcDbEntity
  8
0
100
AcDbTrace
 62
5
  6
CONTINUOUS
 10
233.7333784121
 20
851.6732086005
 11
232.9926376714
 21
851.8213510973
 12
236.8444895232
 22
852.4139414293
 13
236.8444895232
 23
852.4139414293
  0
SOLID
  5
384
100
AcDbEntity
  8
0
100
AcDbTrace
 62
5
  6
CONTINUOUS
 10
233.7333784121
 20
851.6732086005
 11
236.8444895232
 21
852.4139414293
 12
237.585230264
 22
851.5250525404
 13
237.585230264
 23
851.5250525404
  0
SOLID
  5
385
100
AcDbEntity
  8
0
100
AcDbTrace
 62
5
  6
CONTINUOUS
 10
237.585230264
 20
851.5250525404
 11
234.3259710047
 21
851.228759635
 12
233.7333784121
 22
851.6732086005
 13
233.7333784121
 23
851.6732086005
  0
SOLID
  5
386
100
AcDbEntity
  8
0
100
AcDbTrace
 62
5
  6
CONTINUOUS
 10
230.4741191529
 20
851.6732086005
 11
229.8815265603
 21
851.228759635
 12
225.4370821158
 22
850.7843112346
 13
225.4370821158
 23
850.7843112346
  0
SOLID
  5
387
100
AcDbEntity
  8
0
100
AcDbTrace
 62
5
  6
CONTINUOUS
 10
227.9556006343
 20
851.6732086005
 11
230.4741191529
 21
851.6732086005
 12
225.4370821158
 22
850.7843112346
 13
225.4370821158
 23
850.7843112346
  0
SOLID
  5
388
100
AcDbEntity
  8
0
100
AcDbTrace
 62
5
  6
CONTINUOUS
 10
227.9556006343
 20
851.6732086005
 11
225.4370821158
 21
850.7843112346
 12
225.4370821158
 22
852.117645133
 13
225.4370821158
 23
852.117645133
  0
SOLID
  5
389
100
AcDbEntity
  8
0
100
AcDbTrace
 62
5
  6
CONTINUOUS
 10
225.4370821158
 20
850.7843112346
 11
229.8815265603
 21
851.228759635
 12
229.1407858195
 22
850.7843112346
 13
229.1407858195
 23
850.7843112346
  0
SOLID
  5
38A
100
AcDbEntity
  8
0
100
AcDbTrace
 62
5
  6
CONTINUOUS
 10
234.9185635973
 20
850.7843112346
 11
234.3259710047
 21
851.228759635
 12
237.585230264
 22
851.5250525404
 13
237.585230264
 23
851.5250525404
  0
SOLID
  5
38B
100
AcDbEntity
  8
0
100
AcDbTrace
 62
5
  6
CONTINUOUS
 10
234.9185635973
 20
850.7843112346
 11
237.585230264
 21
851.5250525404
 12
238.1778228566
 22
850.4880155034
 13
238.1778228566
 23
850.4880155034
  0
SOLID
  5
38C
100
AcDbEntity
  8
0
100
AcDbTrace
 62
5
  6
CONTINUOUS
 10
238.1778228566
 20
850.4880155034
 11
235.3630080418
 21
850.1917203374
 12
234.9185635973
 22
850.7843112346
 13
234.9185635973
 23
850.7843112346
  0
SOLID
  5
38D
100
AcDbEntity
  8
0
100
AcDbTrace
 62
5
  6
CONTINUOUS
 10
229.1407858195
 20
850.7843112346
 11
228.6963413751
 21
850.1917203374
 12
225.4370821158
 22
849.4509869435
 13
225.4370821158
 23
849.4509869435
  0
SOLID
  5
38E
100
AcDbEntity
  8
0
100
AcDbTrace
 62
5
  6
CONTINUOUS
 10
229.1407858195
 20
850.7843112346
 11
225.4370821158
 21
849.4509869435
 12
225.4370821158
 22
850.7843112346
 13
225.4370821158
 23
850.7843112346
  0
SOLID
  5
38F
100
AcDbEntity
  8
0
100
AcDbTrace
 62
5
  6
CONTINUOUS
 10
225.4370821158
 20
849.4509869435
 11
228.6963413751
 21
850.1917203374
 12
228.4000450788
 22
849.4509869435
 13
228.4000450788
 23
849.4509869435
  0
SOLID
  5
390
100
AcDbEntity
  8
0
100
AcDbTrace
 62
5
  6
CONTINUOUS
 10
235.8074524862
 20
849.4509869435
 11
235.3630080418
 21
850.1917203374
 12
238.1778228566
 22
850.4880155034
 13
238.1778228566
 23
850.4880155034
  0
SOLID
  5
391
100
AcDbEntity
  8
0
100
AcDbTrace
 62
5
  6
CONTINUOUS
 10
235.8074524862
 20
849.4509869435
 11
238.1778228566
 21
850.4880155034
 12
238.4741191529
 22
849.1546821701
 13
238.4741191529
 23
849.1546821701
  0
SOLID
  5
392
100
AcDbEntity
  8
0
100
AcDbTrace
 62
5
  6
CONTINUOUS
 10
238.4741191529
 20
849.1546821701
 11
235.9556006343
 21
848.5620895775
 12
235.8074524862
 22
849.4509869435
 13
235.8074524862
 23
849.4509869435
  0
SOLID
  5
393
100
AcDbEntity
  8
0
100
AcDbTrace
 62
5
  6
CONTINUOUS
 10
228.4000450788
 20
849.4509869435
 11
228.1037487825
 21
848.7102377256
 12
225.4370821158
 22
848.2657932812
 13
225.4370821158
 23
848.2657932812
  0
SOLID
  5
394
100
AcDbEntity
  8
0
100
AcDbTrace
 62
5
  6
CONTINUOUS
 10
228.4000450788
 20
849.4509869435
 11
225.4370821158
 21
848.2657932812
 12
225.4370821158
 22
849.4509869435
 13
225.4370821158
 23
849.4509869435
  0
SOLID
  5
395
100
AcDbEntity
  8
0
100
AcDbTrace
 62
5
  6
CONTINUOUS
 10
225.4370821158
 20
848.2657932812
 11
228.1037487825
 21
848.7102377256
 12
228.1037487825
 22
847.8213567487
 13
228.1037487825
 23
847.8213567487
  0
SOLID
  5
396
100
AcDbEntity
  8
0
100
AcDbTrace
 62
5
  6
CONTINUOUS
 10
235.9556006343
 20
848.5620895775
 11
238.4741191529
 21
849.1546821701
 12
238.622267301
 22
847.8213567487
 13
238.622267301
 23
847.8213567487
  0
SOLID
  5
397
100
AcDbEntity
  8
0
100
AcDbTrace
 62
5
  6
CONTINUOUS
 10
238.622267301
 20
847.8213567487
 11
236.1037487825
 21
847.6732006886
 12
235.9556006343
 22
848.5620895775
 13
235.9556006343
 23
848.5620895775
  0
SOLID
  5
398
100
AcDbEntity
  8
0
100
AcDbTrace
 62
5
  6
CONTINUOUS
 10
228.1037487825
 20
847.8213567487
 11
225.585230264
 21
847.2287658515
 12
225.4370821158
 22
848.2657932812
 13
225.4370821158
 23
848.2657932812
  0
SOLID
  5
399
100
AcDbEntity
  8
0
100
AcDbTrace
 62
5
  6
CONTINUOUS
 10
225.585230264
 20
847.2287658515
 11
228.1037487825
 21
847.8213567487
 12
228.1037487825
 22
847.2287658515
 13
228.1037487825
 23
847.2287658515
  0
SOLID
  5
39A
100
AcDbEntity
  8
0
100
AcDbTrace
 62
5
  6
CONTINUOUS
 10
236.1037487825
 20
847.6732006886
 11
238.622267301
 21
847.8213567487
 12
238.4741191529
 22
846.9324599478
 13
238.4741191529
 23
846.9324599478
  0
SOLID
  5
39B
100
AcDbEntity
  8
0
100
AcDbTrace
 62
5
  6
CONTINUOUS
 10
238.4741191529
 20
846.9324599478
 11
235.9556006343
 21
846.6361546093
 12
236.1037487825
 22
847.6732006886
 13
236.1037487825
 23
847.6732006886
  0
SOLID
  5
39C
100
AcDbEntity
  8
0
100
AcDbTrace
 62
5
  6
CONTINUOUS
 10
228.1037487825
 20
847.2287658515
 11
228.1037487825
 21
846.6361546093
 12
225.8815265603
 22
846.3398673553
 13
225.8815265603
 23
846.3398673553
  0
SOLID
  5
39D
100
AcDbEntity
  8
0
100
AcDbTrace
 62
5
  6
CONTINUOUS
 10
228.1037487825
 20
847.2287658515
 11
225.8815265603
 21
846.3398673553
 12
225.585230264
 22
847.2287658515
 13
225.585230264
 23
847.2287658515
  0
SOLID
  5
39E
100
AcDbEntity
  8
0
100
AcDbTrace
 62
5
  6
CONTINUOUS
 10
225.8815265603
 20
846.3398673553
 11
228.1037487825
 21
846.6361546093
 12
228.4000450788
 22
846.0435634296
 13
228.4000450788
 23
846.0435634296
  0
SOLID
  5
39F
100
AcDbEntity
  8
0
100
AcDbTrace
 62
5
  6
CONTINUOUS
 10
235.9556006343
 20
846.6361546093
 11
238.4741191529
 21
846.9324599478
 12
238.3259710047
 22
846.0435634296
 13
238.3259710047
 23
846.0435634296
  0
SOLID
  5
3A0
100
AcDbEntity
  8
0
100
AcDbTrace
 62
5
  6
CONTINUOUS
 10
238.3259710047
 20
846.0435634296
 11
235.8074524862
 21
845.7472747627
 12
235.9556006343
 22
846.6361546093
 13
235.9556006343
 23
846.6361546093
  0
SOLID
  5
3A1
100
AcDbEntity
  8
0
100
AcDbTrace
 62
5
  6
CONTINUOUS
 10
228.4000450788
 20
846.0435634296
 11
226.1778228566
 21
845.4509725324
 12
225.8815265603
 22
846.3398673553
 13
225.8815265603
 23
846.3398673553
  0
SOLID
  5
3A2
100
AcDbEntity
  8
0
100
AcDbTrace
 62
5
  6
CONTINUOUS
 10
226.1778228566
 20
845.4509725324
 11
228.4000450788
 21
846.0435634296
 12
228.5481932269
 22
845.4509725324
 13
228.5481932269
 23
845.4509725324
  0
SOLID
  5
3A3
100
AcDbEntity
  8
0
100
AcDbTrace
 62
5
  6
CONTINUOUS
 10
235.8074524862
 20
845.7472747627
 11
238.3259710047
 21
846.0435634296
 12
238.0296747084
 22
845.1546821701
 13
238.0296747084
 23
845.1546821701
  0
SOLID
  5
3A4
100
AcDbEntity
  8
0
100
AcDbTrace
 62
5
  6
CONTINUOUS
 10
238.0296747084
 20
845.1546821701
 11
235.3630080418
 21
845.0065340219
 12
235.8074524862
 22
845.7472747627
 13
235.8074524862
 23
845.7472747627
  0
SOLID
  5
3A5
100
AcDbEntity
  8
0
100
AcDbTrace
 62
5
  6
CONTINUOUS
 10
228.5481932269
 20
845.4509725324
 11
228.8444895232
 21
844.8583858738
 12
226.4741191529
 22
844.5620895775
 13
226.4741191529
 23
844.5620895775
  0
SOLID
  5
3A6
100
AcDbEntity
  8
0
100
AcDbTrace
 62
5
  6
CONTINUOUS
 10
228.5481932269
 20
845.4509725324
 11
226.4741191529
 21
844.5620895775
 12
226.1778228566
 22
845.4509725324
 13
226.1778228566
 23
845.4509725324
  0
SOLID
  5
3A7
100
AcDbEntity
  8
0
100
AcDbTrace
 62
5
  6
CONTINUOUS
 10
226.4741191529
 20
844.5620895775
 11
228.8444895232
 21
844.8583858738
 12
229.2889339677
 22
844.4139332348
 13
229.2889339677
 23
844.4139332348
  0
SOLID
  5
3A8
100
AcDbEntity
  8
0
100
AcDbTrace
 62
5
  6
CONTINUOUS
 10
234.9185635973
 20
844.4139332348
 11
235.3630080418
 21
845.0065340219
 12
238.0296747084
 22
845.1546821701
 13
238.0296747084
 23
845.1546821701
  0
SOLID
  5
3A9
100
AcDbEntity
  8
0
100
AcDbTrace
 62
5
  6
CONTINUOUS
 10
234.9185635973
 20
844.4139332348
 11
238.0296747084
 21
845.1546821701
 12
237.7333784121
 22
844.4139332348
 13
237.7333784121
 23
844.4139332348
  0
SOLID
  5
3AA
100
AcDbEntity
  8
0
100
AcDbTrace
 62
5
  6
CONTINUOUS
 10
229.2889339677
 20
844.4139332348
 11
229.585230264
 21
844.117645133
 12
226.9185635973
 22
843.9694969849
 13
226.9185635973
 23
843.9694969849
  0
SOLID
  5
3AB
100
AcDbEntity
  8
0
100
AcDbTrace
 62
5
  6
CONTINUOUS
 10
229.2889339677
 20
844.4139332348
 11
226.9185635973
 21
843.9694969849
 12
226.4741191529
 22
844.5620895775
 13
226.4741191529
 23
844.5620895775
  0
SOLID
  5
3AC
100
AcDbEntity
  8
0
100
AcDbTrace
 62
5
  6
CONTINUOUS
 10
237.7333784121
 20
844.4139332348
 11
234.3259710047
 21
843.8213488367
 12
234.9185635973
 22
844.4139332348
 13
234.9185635973
 23
844.4139332348
  0
SOLID
  5
3AD
100
AcDbEntity
  8
0
100
AcDbTrace
 62
5
  6
CONTINUOUS
 10
226.9185635973
 20
843.9694969849
 11
229.585230264
 21
844.117645133
 12
230.0296747084
 22
843.6731996996
 13
230.0296747084
 23
843.6731996996
  0
SOLID
  5
3AE
100
AcDbEntity
  8
0
100
AcDbTrace
 62
5
  6
CONTINUOUS
 10
234.3259710047
 20
843.8213488367
 11
237.7333784121
 21
844.4139332348
 12
237.2889339677
 22
843.6731996996
 13
237.2889339677
 23
843.6731996996
  0
SOLID
  5
3AF
100
AcDbEntity
  8
0
100
AcDbTrace
 62
5
  6
CONTINUOUS
 10
237.2889339677
 20
843.6731996996
 11
233.7333784121
 21
843.5250569203
 12
234.3259710047
 22
843.8213488367
 13
234.3259710047
 23
843.8213488367
  0
SOLID
  5
3B0
100
AcDbEntity
  8
0
100
AcDbTrace
 62
5
  6
CONTINUOUS
 10
230.0296747084
 20
843.6731996996
 11
230.622267301
 21
843.5250569203
 12
227.3630080418
 22
843.3769043923
 13
227.3630080418
 23
843.3769043923
  0
SOLID
  5
3B1
100
AcDbEntity
  8
0
100
AcDbTrace
 62
5
  6
CONTINUOUS
 10
230.0296747084
 20
843.6731996996
 11
227.3630080418
 21
843.3769043923
 12
226.9185635973
 22
843.9694969849
 13
226.9185635973
 23
843.9694969849
  0
SOLID
  5
3B2
100
AcDbEntity
  8
0
100
AcDbTrace
 62
5
  6
CONTINUOUS
 10
227.3630080418
 20
843.3769043923
 11
230.622267301
 21
843.5250569203
 12
231.0667117455
 22
843.2287512992
 13
231.0667117455
 23
843.2287512992
  0
SOLID
  5
3B3
100
AcDbEntity
  8
0
100
AcDbTrace
 62
5
  6
CONTINUOUS
 10
232.9926376714
 20
843.2287512992
 11
233.7333784121
 21
843.5250569203
 12
237.2889339677
 22
843.6731996996
 13
237.2889339677
 23
843.6731996996
  0
SOLID
  5
3B4
100
AcDbEntity
  8
0
100
AcDbTrace
 62
5
  6
CONTINUOUS
 10
232.9926376714
 20
843.2287512992
 11
237.2889339677
 21
843.6731996996
 12
236.8444895232
 22
842.9324599478
 13
236.8444895232
 23
842.9324599478
  0
SOLID
  5
3B5
100
AcDbEntity
  8
0
100
AcDbTrace
 62
5
  6
CONTINUOUS
 10
232.9926376714
 20
843.2287512992
 11
236.8444895232
 21
842.9324599478
 12
227.8074524862
 22
842.7843117997
 13
227.8074524862
 23
842.7843117997
  0
SOLID
  5
3B6
100
AcDbEntity
  8
0
100
AcDbTrace
 62
5
  6
CONTINUOUS
 10
232.1037487825
 20
843.2287512992
 11
232.9926376714
 21
843.2287512992
 12
227.8074524862
 22
842.7843117997
 13
227.8074524862
 23
842.7843117997
  0
SOLID
  5
3B7
100
AcDbEntity
  8
0
100
AcDbTrace
 62
5
  6
CONTINUOUS
 10
231.659304338
 20
843.2287512992
 11
232.1037487825
 21
843.2287512992
 12
227.8074524862
 22
842.7843117997
 13
227.8074524862
 23
842.7843117997
  0
SOLID
  5
3B8
100
AcDbEntity
  8
0
100
AcDbTrace
 62
5
  6
CONTINUOUS
 10
231.0667117455
 20
843.2287512992
 11
231.659304338
 21
843.2287512992
 12
227.8074524862
 22
842.7843117997
 13
227.8074524862
 23
842.7843117997
  0
SOLID
  5
3B9
100
AcDbEntity
  8
0
100
AcDbTrace
 62
5
  6
CONTINUOUS
 10
231.0667117455
 20
843.2287512992
 11
227.8074524862
 21
842.7843117997
 12
227.3630080418
 22
843.3769043923
 13
227.3630080418
 23
843.3769043923
  0
SOLID
  5
3BA
100
AcDbEntity
  8
0
100
AcDbTrace
 62
5
  6
CONTINUOUS
 10
228.4000450788
 20
842.3398750553
 11
227.8074524862
 21
842.7843117997
 12
236.8444895232
 22
842.9324599478
 13
236.8444895232
 23
842.9324599478
  0
SOLID
  5
3BB
100
AcDbEntity
  8
0
100
AcDbTrace
 62
5
  6
CONTINUOUS
 10
228.4000450788
 20
842.3398750553
 11
236.8444895232
 21
842.9324599478
 12
236.2518969306
 22
842.3398750553
 13
236.2518969306
 23
842.3398750553
  0
SOLID
  5
3BC
100
AcDbEntity
  8
0
100
AcDbTrace
 62
5
  6
CONTINUOUS
 10
236.2518969306
 20
842.3398750553
 11
228.8444895232
 21
841.8954267608
 12
228.4000450788
 22
842.3398750553
 13
228.4000450788
 23
842.3398750553
  0
SOLID
  5
3BD
100
AcDbEntity
  8
0
100
AcDbTrace
 62
5
  6
CONTINUOUS
 10
228.8444895232
 20
841.8954267608
 11
236.2518969306
 21
842.3398750553
 12
235.5111561899
 22
841.8954267608
 13
235.5111561899
 23
841.8954267608
  0
SOLID
  5
3BE
100
AcDbEntity
  8
0
100
AcDbTrace
 62
5
  6
CONTINUOUS
 10
235.5111561899
 20
841.8954267608
 11
229.585230264
 21
841.5991211309
 12
228.8444895232
 22
841.8954267608
 13
228.8444895232
 23
841.8954267608
  0
SOLID
  5
3BF
100
AcDbEntity
  8
0
100
AcDbTrace
 62
5
  6
CONTINUOUS
 10
229.585230264
 20
841.5991211309
 11
235.5111561899
 21
841.8954267608
 12
234.7704154492
 22
841.5991211309
 13
234.7704154492
 23
841.5991211309
  0
SOLID
  5
3C0
100
AcDbEntity
  8
0
100
AcDbTrace
 62
5
  6
CONTINUOUS
 10
234.7704154492
 20
841.5991211309
 11
230.1778228566
 21
841.4509784664
 12
229.585230264
 22
841.5991211309
 13
229.585230264
 23
841.5991211309
  0
SOLID
  5
3C1
100
AcDbEntity
  8
0
100
AcDbTrace
 62
5
  6
CONTINUOUS
 10
230.1778228566
 20
841.4509784664
 11
234.7704154492
 21
841.5991211309
 12
234.0296747084
 22
841.4509784664
 13
234.0296747084
 23
841.4509784664
  0
SOLID
  5
3C2
100
AcDbEntity
  8
0
100
AcDbTrace
 62
5
  6
CONTINUOUS
 10
234.0296747084
 20
841.4509784664
 11
230.7704154492
 21
841.3028358018
 12
230.1778228566
 22
841.4509784664
 13
230.1778228566
 23
841.4509784664
  0
SOLID
  5
3C3
100
AcDbEntity
  8
0
100
AcDbTrace
 62
5
  6
CONTINUOUS
 10
231.5111561899
 20
841.3028358018
 11
230.7704154492
 21
841.3028358018
 12
234.0296747084
 22
841.4509784664
 13
234.0296747084
 23
841.4509784664
  0
SOLID
  5
3C4
100
AcDbEntity
  8
0
100
AcDbTrace
 62
5
  6
CONTINUOUS
 10
231.5111561899
 20
841.3028358018
 11
234.0296747084
 21
841.4509784664
 12
233.1407858195
 22
841.3028358018
 13
233.1407858195
 23
841.3028358018
  0
SOLID
  5
3C5
100
AcDbEntity
  8
0
100
AcDbTrace
 62
5
  6
CONTINUOUS
 10
233.1407858195
 20
841.3028358018
 11
232.2518969306
 21
841.1546821701
 12
231.5111561899
 22
841.3028358018
 13
231.5111561899
 23
841.3028358018
  0
SOLID
  5
3C6
100
AcDbEntity
  8
0
100
AcDbTrace
 62
5
  6
CONTINUOUS
 10
246.4741191529
 20
861.3028257971
 11
247.5111561899
 21
861.4509784664
 12
248.2518969306
 22
861.3028257971
 13
248.2518969306
 23
861.3028257971
  0
SOLID
  5
3C7
100
AcDbEntity
  8
0
100
AcDbTrace
 62
5
  6
CONTINUOUS
 10
248.2518969306
 20
861.3028257971
 11
245.585230264
 21
861.1546844306
 12
246.4741191529
 22
861.3028257971
 13
246.4741191529
 23
861.3028257971
  0
SOLID
  5
3C8
100
AcDbEntity
  8
0
100
AcDbTrace
 62
5
  6
CONTINUOUS
 10
245.585230264
 20
861.1546844306
 11
248.2518969306
 21
861.3028257971
 12
248.9926376714
 22
861.1546844306
 13
248.9926376714
 23
861.1546844306
  0
SOLID
  5
3C9
100
AcDbEntity
  8
0
100
AcDbTrace
 62
5
  6
CONTINUOUS
 10
248.9926376714
 20
861.1546844306
 11
249.7333784121
 21
861.0065340219
 12
244.6963413751
 22
860.7102354651
 13
244.6963413751
 23
860.7102354651
  0
SOLID
  5
3CA
100
AcDbEntity
  8
0
100
AcDbTrace
 62
5
  6
CONTINUOUS
 10
248.9926376714
 20
861.1546844306
 11
244.6963413751
 21
860.7102354651
 12
245.585230264
 22
861.1546844306
 13
245.585230264
 23
861.1546844306
  0
SOLID
  5
3CB
100
AcDbEntity
  8
0
100
AcDbTrace
 62
5
  6
CONTINUOUS
 10
244.6963413751
 20
860.7102354651
 11
249.7333784121
 21
861.0065340219
 12
250.3259710047
 22
860.7102354651
 13
250.3259710047
 23
860.7102354651
  0
SOLID
  5
3CC
100
AcDbEntity
  8
0
100
AcDbTrace
 62
5
  6
CONTINUOUS
 10
250.3259710047
 20
860.7102354651
 11
250.9185635973
 21
860.4139414293
 12
243.9556006343
 22
860.2657932812
 13
243.9556006343
 23
860.2657932812
  0
SOLID
  5
3CD
100
AcDbEntity
  8
0
100
AcDbTrace
 62
5
  6
CONTINUOUS
 10
250.3259710047
 20
860.7102354651
 11
243.9556006343
 21
860.2657932812
 12
244.6963413751
 22
860.7102354651
 13
244.6963413751
 23
860.7102354651
  0
SOLID
  5
3CE
100
AcDbEntity
  8
0
100
AcDbTrace
 62
5
  6
CONTINUOUS
 10
243.9556006343
 20
860.2657932812
 11
250.9185635973
 21
860.4139414293
 12
251.5111561899
 22
859.9694969849
 13
251.5111561899
 23
859.9694969849
  0
SOLID
  5
3CF
100
AcDbEntity
  8
0
100
AcDbTrace
 62
5
  6
CONTINUOUS
 10
251.5111561899
 20
859.9694969849
 11
243.2148598936
 21
859.6732006886
 12
243.9556006343
 22
860.2657932812
 13
243.9556006343
 23
860.2657932812
  0
SOLID
  5
3D0
100
AcDbEntity
  8
0
100
AcDbTrace
 62
5
  6
CONTINUOUS
 10
247.5111561899
 20
859.376911174
 11
243.2148598936
 21
859.6732006886
 12
251.5111561899
 22
859.9694969849
 13
251.5111561899
 23
859.9694969849
  0
SOLID
  5
3D1
100
AcDbEntity
  8
0
100
AcDbTrace
 62
5
  6
CONTINUOUS
 10
247.5111561899
 20
859.376911174
 11
251.5111561899
 21
859.9694969849
 12
251.9556006343
 22
859.376911174
 13
251.9556006343
 23
859.376911174
  0
SOLID
  5
3D2
100
AcDbEntity
  8
0
100
AcDbTrace
 62
5
  6
CONTINUOUS
 10
251.9556006343
 20
859.376911174
 11
248.2518969306
 21
859.2287483322
 12
247.5111561899
 22
859.376911174
 13
247.5111561899
 23
859.376911174
  0
SOLID
  5
3D3
100
AcDbEntity
  8
0
100
AcDbTrace
 62
5
  6
CONTINUOUS
 10
248.9926376714
 20
858.9324622084
 11
248.2518969306
 21
859.2287483322
 12
251.9556006343
 22
859.376911174
 13
251.9556006343
 23
859.376911174
  0
SOLID
  5
3D4
100
AcDbEntity
  8
0
100
AcDbTrace
 62
5
  6
CONTINUOUS
 10
248.9926376714
 20
858.9324622084
 11
251.9556006343
 21
859.376911174
 12
252.2518969306
 22
858.9324622084
 13
252.2518969306
 23
858.9324622084
  0
SOLID
  5
3D5
100
AcDbEntity
  8
0
100
AcDbTrace
 62
5
  6
CONTINUOUS
 10
246.622267301
 20
859.2287483322
 11
246.0296747084
 21
858.9324622084
 12
242.622267301
 22
858.7843117997
 13
242.622267301
 23
858.7843117997
  0
SOLID
  5
3D6
100
AcDbEntity
  8
0
100
AcDbTrace
 62
5
  6
CONTINUOUS
 10
247.5111561899
 20
859.376911174
 11
246.622267301
 21
859.2287483322
 12
242.622267301
 22
858.7843117997
 13
242.622267301
 23
858.7843117997
  0
SOLID
  5
3D7
100
AcDbEntity
  8
0
100
AcDbTrace
 62
5
  6
CONTINUOUS
 10
247.5111561899
 20
859.376911174
 11
242.622267301
 21
858.7843117997
 12
243.2148598936
 22
859.6732006886
 13
243.2148598936
 23
859.6732006886
  0
SOLID
  5
3D8
100
AcDbEntity
  8
0
100
AcDbTrace
 62
5
  6
CONTINUOUS
 10
242.622267301
 20
858.7843117997
 11
246.0296747084
 21
858.9324622084
 12
245.2889339677
 22
858.4880155034
 13
245.2889339677
 23
858.4880155034
  0
SOLID
  5
3D9
100
AcDbEntity
  8
0
100
AcDbTrace
 62
5
  6
CONTINUOUS
 10
252.2518969306
 20
858.9324622084
 11
249.7333784121
 21
858.3398673553
 12
248.9926376714
 22
858.9324622084
 13
248.9926376714
 23
858.9324622084
  0
SOLID
  5
3DA
100
AcDbEntity
  8
0
100
AcDbTrace
 62
5
  6
CONTINUOUS
 10
249.7333784121
 20
858.3398673553
 11
252.2518969306
 21
858.9324622084
 12
252.6963413751
 22
858.1917192071
 13
252.6963413751
 23
858.1917192071
  0
SOLID
  5
3DB
100
AcDbEntity
  8
0
100
AcDbTrace
 62
5
  6
CONTINUOUS
 10
245.2889339677
 20
858.4880155034
 11
242.1778228566
 21
857.8954229108
 12
242.622267301
 22
858.7843117997
 13
242.622267301
 23
858.7843117997
  0
SOLID
  5
3DC
100
AcDbEntity
  8
0
100
AcDbTrace
 62
5
  6
CONTINUOUS
 10
242.1778228566
 20
857.8954229108
 11
245.2889339677
 21
858.4880155034
 12
244.8444895232
 22
857.8954229108
 13
244.8444895232
 23
857.8954229108
  0
SOLID
  5
3DD
100
AcDbEntity
  8
0
100
AcDbTrace
 62
5
  6
CONTINUOUS
 10
252.6963413751
 20
858.1917192071
 11
250.3259710047
 21
857.7472747627
 12
249.7333784121
 22
858.3398673553
 13
249.7333784121
 23
858.3398673553
  0
SOLID
  5
3DE
100
AcDbEntity
  8
0
100
AcDbTrace
 62
5
  6
CONTINUOUS
 10
250.3259710047
 20
857.7472747627
 11
252.6963413751
 21
858.1917192071
 12
252.9926376714
 22
857.5991266145
 13
252.9926376714
 23
857.5991266145
  0
SOLID
  5
3DF
100
AcDbEntity
  8
0
100
AcDbTrace
 62
5
  6
CONTINUOUS
 10
252.9926376714
 20
857.5991266145
 11
250.622267301
 21
857.3028303182
 12
250.3259710047
 22
857.7472747627
 13
250.3259710047
 23
857.7472747627
  0
SOLID
  5
3E0
100
AcDbEntity
  8
0
100
AcDbTrace
 62
5
  6
CONTINUOUS
 10
244.8444895232
 20
857.8954229108
 11
244.5481932269
 21
857.4509784664
 12
241.7333784121
 22
857.0065340219
 13
241.7333784121
 23
857.0065340219
  0
SOLID
  5
3E1
100
AcDbEntity
  8
0
100
AcDbTrace
 62
5
  6
CONTINUOUS
 10
244.8444895232
 20
857.8954229108
 11
241.7333784121
 21
857.0065340219
 12
242.1778228566
 22
857.8954229108
 13
242.1778228566
 23
857.8954229108
  0
SOLID
  5
3E2
100
AcDbEntity
  8
0
100
AcDbTrace
 62
5
  6
CONTINUOUS
 10
241.7333784121
 20
857.0065340219
 11
244.5481932269
 21
857.4509784664
 12
244.2518969306
 22
856.8583858738
 13
244.2518969306
 23
856.8583858738
  0
SOLID
  5
3E3
100
AcDbEntity
  8
0
100
AcDbTrace
 62
5
  6
CONTINUOUS
 10
250.7704154492
 20
856.7102411165
 11
250.622267301
 21
857.3028303182
 12
252.9926376714
 22
857.5991266145
 13
252.9926376714
 23
857.5991266145
  0
SOLID
  5
3E4
100
AcDbEntity
  8
0
100
AcDbTrace
 62
5
  6
CONTINUOUS
 10
250.7704154492
 20
856.7102411165
 11
252.9926376714
 21
857.5991266145
 12
253.2889339677
 22
856.7102411165
 13
253.2889339677
 23
856.7102411165
  0
SOLID
  5
3E5
100
AcDbEntity
  8
0
100
AcDbTrace
 62
5
  6
CONTINUOUS
 10
253.2889339677
 20
856.7102411165
 11
251.0667117455
 21
855.9694879426
 12
250.7704154492
 22
856.7102411165
 13
250.7704154492
 23
856.7102411165
  0
SOLID
  5
3E6
100
AcDbEntity
  8
0
100
AcDbTrace
 62
5
  6
CONTINUOUS
 10
251.0667117455
 20
855.9694879426
 11
253.2889339677
 21
856.7102411165
 12
253.585230264
 22
855.9694879426
 13
253.585230264
 23
855.9694879426
  0
SOLID
  5
3E7
100
AcDbEntity
  8
0
100
AcDbTrace
 62
5
  6
CONTINUOUS
 10
244.2518969306
 20
856.8583858738
 11
244.1037487825
 21
856.117645133
 12
241.4370821158
 22
855.8213488367
 13
241.4370821158
 23
855.8213488367
  0
SOLID
  5
3E8
100
AcDbEntity
  8
0
100
AcDbTrace
 62
5
  6
CONTINUOUS
 10
244.2518969306
 20
856.8583858738
 11
241.4370821158
 21
855.8213488367
 12
241.7333784121
 22
857.0065340219
 13
241.7333784121
 23
857.0065340219
  0
SOLID
  5
3E9
100
AcDbEntity
  8
0
100
AcDbTrace
 62
5
  6
CONTINUOUS
 10
241.4370821158
 20
855.8213488367
 11
244.1037487825
 21
856.117645133
 12
243.9556006343
 22
855.3769043923
 13
243.9556006343
 23
855.3769043923
  0
SOLID
  5
3EA
100
AcDbEntity
  8
0
100
AcDbTrace
 62
5
  6
CONTINUOUS
 10
253.585230264
 20
855.9694879426
 11
251.2148598936
 21
855.2287562441
 12
251.0667117455
 22
855.9694879426
 13
251.0667117455
 23
855.9694879426
  0
SOLID
  5
3EB
100
AcDbEntity
  8
0
100
AcDbTrace
 62
5
  6
CONTINUOUS
 10
251.2148598936
 20
855.2287562441
 11
253.585230264
 21
855.9694879426
 12
253.7333784121
 22
854.9324599478
 13
253.7333784121
 23
854.9324599478
  0
SOLID
  5
3EC
100
AcDbEntity
  8
0
100
AcDbTrace
 62
5
  6
CONTINUOUS
 10
243.9556006343
 20
855.3769043923
 11
241.2889339677
 21
854.4880200245
 12
241.4370821158
 22
855.8213488367
 13
241.4370821158
 23
855.8213488367
  0
SOLID
  5
3ED
100
AcDbEntity
  8
0
100
AcDbTrace
 62
5
  6
CONTINUOUS
 10
241.2889339677
 20
854.4880200245
 11
243.9556006343
 21
855.3769043923
 12
243.8074524862
 22
854.4880200245
 13
243.8074524862
 23
854.4880200245
  0
SOLID
  5
3EE
100
AcDbEntity
  8
0
100
AcDbTrace
 62
5
  6
CONTINUOUS
 10
253.7333784121
 20
854.9324599478
 11
251.2148598936
 21
854.4880200245
 12
251.2148598936
 22
855.2287562441
 13
251.2148598936
 23
855.2287562441
  0
SOLID
  5
3EF
100
AcDbEntity
  8
0
100
AcDbTrace
 62
5
  6
CONTINUOUS
 10
251.2148598936
 20
854.4880200245
 11
253.7333784121
 21
854.9324599478
 12
253.8815265603
 22
853.8954229108
 13
253.8815265603
 23
853.8954229108
  0
SOLID
  5
3F0
100
AcDbEntity
  8
0
100
AcDbTrace
 62
5
  6
CONTINUOUS
 10
253.8815265603
 20
853.8954229108
 11
251.3630080418
 21
853.4509807269
 12
251.2148598936
 22
854.4880200245
 13
251.2148598936
 23
854.4880200245
  0
SOLID
  5
3F1
100
AcDbEntity
  8
0
100
AcDbTrace
 62
5
  6
CONTINUOUS
 10
243.8074524862
 20
854.4880200245
 11
243.659304338
 21
853.4509807269
 12
241.1407858195
 22
852.8583858738
 13
241.1407858195
 23
852.8583858738
  0
SOLID
  5
3F2
100
AcDbEntity
  8
0
100
AcDbTrace
 62
5
  6
CONTINUOUS
 10
243.8074524862
 20
854.4880200245
 11
241.1407858195
 21
852.8583858738
 12
241.2889339677
 22
854.4880200245
 13
241.2889339677
 23
854.4880200245
  0
SOLID
  5
3F3
100
AcDbEntity
  8
0
100
AcDbTrace
 62
5
  6
CONTINUOUS
 10
251.3630080418
 20
853.4509807269
 11
253.8815265603
 21
853.8954229108
 12
253.8815265603
 22
852.5620895775
 13
253.8815265603
 23
852.5620895775
  0
SOLID
  5
3F4
100
AcDbEntity
  8
0
100
AcDbTrace
 62
5
  6
CONTINUOUS
 10
241.1407858195
 20
852.8583858738
 11
243.659304338
 21
853.4509807269
 12
243.659304338
 22
852.4139414293
 13
243.659304338
 23
852.4139414293
  0
SOLID
  5
3F5
100
AcDbEntity
  8
0
100
AcDbTrace
 62
5
  6
CONTINUOUS
 10
253.8815265603
 20
852.5620895775
 11
251.3630080418
 21
852.4139414293
 12
251.3630080418
 22
853.4509807269
 13
251.3630080418
 23
853.4509807269
  0
SOLID
  5
3F6
100
AcDbEntity
  8
0
100
AcDbTrace
 62
5
  6
CONTINUOUS
 10
243.659304338
 20
852.4139414293
 11
241.1407858195
 21
851.228759635
 12
241.1407858195
 22
852.8583858738
 13
241.1407858195
 23
852.8583858738
  0
SOLID
  5
3F7
100
AcDbEntity
  8
0
100
AcDbTrace
 62
5
  6
CONTINUOUS
 10
241.1407858195
 20
851.228759635
 11
243.659304338
 21
852.4139414293
 12
243.659304338
 22
851.228759635
 13
243.659304338
 23
851.228759635
  0
SOLID
  5
3F8
100
AcDbEntity
  8
0
100
AcDbTrace
 62
5
  6
CONTINUOUS
 10
251.5111561899
 20
851.228759635
 11
251.3630080418
 21
852.4139414293
 12
253.8815265603
 22
852.5620895775
 13
253.8815265603
 23
852.5620895775
  0
SOLID
  5
3F9
100
AcDbEntity
  8
0
100
AcDbTrace
 62
5
  6
CONTINUOUS
 10
251.5111561899
 20
851.228759635
 11
253.8815265603
 21
852.5620895775
 12
254.0296747084
 22
851.228759635
 13
254.0296747084
 23
851.228759635
  0
SOLID
  5
3FA
100
AcDbEntity
  8
0
100
AcDbTrace
 62
5
  6
CONTINUOUS
 10
254.0296747084
 20
851.228759635
 11
251.3630080418
 21
850.0435778406
 12
251.5111561899
 22
851.228759635
 13
251.5111561899
 23
851.228759635
  0
SOLID
  5
3FB
100
AcDbEntity
  8
0
100
AcDbTrace
 62
5
  6
CONTINUOUS
 10
243.659304338
 20
851.228759635
 11
243.659304338
 21
850.0435778406
 12
241.1407858195
 22
849.8954229108
 13
241.1407858195
 23
849.8954229108
  0
SOLID
  5
3FC
100
AcDbEntity
  8
0
100
AcDbTrace
 62
5
  6
CONTINUOUS
 10
243.659304338
 20
851.228759635
 11
241.1407858195
 21
849.8954229108
 12
241.1407858195
 22
851.228759635
 13
241.1407858195
 23
851.228759635
  0
SOLID
  5
3FD
100
AcDbEntity
  8
0
100
AcDbTrace
 62
5
  6
CONTINUOUS
 10
251.3630080418
 20
850.0435778406
 11
254.0296747084
 21
851.228759635
 12
253.8815265603
 22
849.5991266145
 13
253.8815265603
 23
849.5991266145
  0
SOLID
  5
3FE
100
AcDbEntity
  8
0
100
AcDbTrace
 62
5
  6
CONTINUOUS
 10
241.1407858195
 20
849.8954229108
 11
243.659304338
 21
850.0435778406
 12
243.659304338
 22
849.006538543
 13
243.659304338
 23
849.006538543
  0
SOLID
  5
3FF
100
AcDbEntity
  8
0
100
AcDbTrace
 62
5
  6
CONTINUOUS
 10
253.8815265603
 20
849.5991266145
 11
251.3630080418
 21
849.006538543
 12
251.3630080418
 22
850.0435778406
 13
251.3630080418
 23
850.0435778406
  0
SOLID
  5
400
100
AcDbEntity
  8
0
100
AcDbTrace
 62
5
  6
CONTINUOUS
 10
243.659304338
 20
849.006538543
 11
241.1407858195
 21
848.5620895775
 12
241.1407858195
 22
849.8954229108
 13
241.1407858195
 23
849.8954229108
  0
SOLID
  5
401
100
AcDbEntity
  8
0
100
AcDbTrace
 62
5
  6
CONTINUOUS
 10
251.3630080418
 20
849.006538543
 11
253.8815265603
 21
849.5991266145
 12
253.7333784121
 22
848.117645133
 13
253.7333784121
 23
848.117645133
  0
SOLID
  5
402
100
AcDbEntity
  8
0
100
AcDbTrace
 62
5
  6
CONTINUOUS
 10
241.1407858195
 20
848.5620895775
 11
243.659304338
 21
849.006538543
 12
243.8074524862
 22
847.9694992454
 13
243.8074524862
 23
847.9694992454
  0
SOLID
  5
403
100
AcDbEntity
  8
0
100
AcDbTrace
 62
5
  6
CONTINUOUS
 10
253.7333784121
 20
848.117645133
 11
251.2148598936
 21
847.9694992454
 12
251.3630080418
 22
849.006538543
 13
251.3630080418
 23
849.006538543
  0
SOLID
  5
404
100
AcDbEntity
  8
0
100
AcDbTrace
 62
5
  6
CONTINUOUS
 10
243.8074524862
 20
847.9694992454
 11
241.2889339677
 21
847.5250525404
 12
241.1407858195
 22
848.5620895775
 13
241.1407858195
 23
848.5620895775
  0
SOLID
  5
405
100
AcDbEntity
  8
0
100
AcDbTrace
 62
5
  6
CONTINUOUS
 10
241.2889339677
 20
847.5250525404
 11
243.8074524862
 21
847.9694992454
 12
243.8074524862
 22
847.0806030097
 13
243.8074524862
 23
847.0806030097
  0
SOLID
  5
406
100
AcDbEntity
  8
0
100
AcDbTrace
 62
5
  6
CONTINUOUS
 10
251.2148598936
 20
847.0806030097
 11
251.2148598936
 21
847.9694992454
 12
253.7333784121
 22
848.117645133
 13
253.7333784121
 23
848.117645133
  0
SOLID
  5
407
100
AcDbEntity
  8
0
100
AcDbTrace
 62
5
  6
CONTINUOUS
 10
251.2148598936
 20
847.0806030097
 11
253.7333784121
 21
848.117645133
 12
253.585230264
 22
846.7843117997
 13
253.585230264
 23
846.7843117997
  0
SOLID
  5
408
100
AcDbEntity
  8
0
100
AcDbTrace
 62
5
  6
CONTINUOUS
 10
243.8074524862
 20
847.0806030097
 11
241.585230264
 21
846.3398690507
 12
241.2889339677
 22
847.5250525404
 13
241.2889339677
 23
847.5250525404
  0
SOLID
  5
409
100
AcDbEntity
  8
0
100
AcDbTrace
 62
5
  6
CONTINUOUS
 10
241.585230264
 20
846.3398690507
 11
243.8074524862
 21
847.0806030097
 12
244.1037487825
 22
846.3398690507
 13
244.1037487825
 23
846.3398690507
  0
SOLID
  5
40A
100
AcDbEntity
  8
0
100
AcDbTrace
 62
5
  6
CONTINUOUS
 10
253.585230264
 20
846.7843117997
 11
251.0667117455
 21
846.3398690507
 12
251.2148598936
 22
847.0806030097
 13
251.2148598936
 23
847.0806030097
  0
SOLID
  5
40B
100
AcDbEntity
  8
0
100
AcDbTrace
 62
5
  6
CONTINUOUS
 10
250.7704154492
 20
845.7472781535
 11
251.0667117455
 21
846.3398690507
 12
253.585230264
 22
846.7843117997
 13
253.585230264
 23
846.7843117997
  0
SOLID
  5
40C
100
AcDbEntity
  8
0
100
AcDbTrace
 62
5
  6
CONTINUOUS
 10
250.7704154492
 20
845.7472781535
 11
253.585230264
 21
846.7843117997
 12
253.2889339677
 22
845.5991266145
 13
253.2889339677
 23
845.5991266145
  0
SOLID
  5
40D
100
AcDbEntity
  8
0
100
AcDbTrace
 62
5
  6
CONTINUOUS
 10
244.1037487825
 20
846.3398690507
 11
244.2518969306
 21
845.7472781535
 12
241.8815265603
 22
845.4509784664
 13
241.8815265603
 23
845.4509784664
  0
SOLID
  5
40E
100
AcDbEntity
  8
0
100
AcDbTrace
 62
5
  6
CONTINUOUS
 10
244.1037487825
 20
846.3398690507
 11
241.8815265603
 21
845.4509784664
 12
241.585230264
 22
846.3398690507
 13
241.585230264
 23
846.3398690507
  0
SOLID
  5
40F
100
AcDbEntity
  8
0
100
AcDbTrace
 62
5
  6
CONTINUOUS
 10
241.8815265603
 20
845.4509784664
 11
244.2518969306
 21
845.7472781535
 12
244.4000450788
 22
845.1546872563
 13
244.4000450788
 23
845.1546872563
  0
SOLID
  5
410
100
AcDbEntity
  8
0
100
AcDbTrace
 62
5
  6
CONTINUOUS
 10
253.2889339677
 20
845.5991266145
 11
250.622267301
 21
845.1546872563
 12
250.7704154492
 22
845.7472781535
 13
250.7704154492
 23
845.7472781535
  0
SOLID
  5
411
100
AcDbEntity
  8
0
100
AcDbTrace
 62
5
  6
CONTINUOUS
 10
244.4000450788
 20
845.1546872563
 11
244.6963413751
 21
844.7102388559
 12
242.1778228566
 22
844.5620963592
 13
242.1778228566
 23
844.5620963592
  0
SOLID
  5
412
100
AcDbEntity
  8
0
100
AcDbTrace
 62
5
  6
CONTINUOUS
 10
244.4000450788
 20
845.1546872563
 11
242.1778228566
 21
844.5620963592
 12
241.8815265603
 22
845.4509784664
 13
241.8815265603
 23
845.4509784664
  0
SOLID
  5
413
100
AcDbEntity
  8
0
100
AcDbTrace
 62
5
  6
CONTINUOUS
 10
250.3259710047
 20
844.7102388559
 11
250.622267301
 21
845.1546872563
 12
253.2889339677
 22
845.5991266145
 13
253.2889339677
 23
845.5991266145
  0
SOLID
  5
414
100
AcDbEntity
  8
0
100
AcDbTrace
 62
5
  6
CONTINUOUS
 10
250.3259710047
 20
844.7102388559
 11
253.2889339677
 21
845.5991266145
 12
252.8444895232
 22
844.5620963592
 13
252.8444895232
 23
844.5620963592
  0
SOLID
  5
415
100
AcDbEntity
  8
0
100
AcDbTrace
 62
5
  6
CONTINUOUS
 10
252.8444895232
 20
844.5620963592
 11
249.7333784121
 21
844.117645133
 12
250.3259710047
 22
844.7102388559
 13
250.3259710047
 23
844.7102388559
  0
SOLID
  5
416
100
AcDbEntity
  8
0
100
AcDbTrace
 62
5
  6
CONTINUOUS
 10
242.1778228566
 20
844.5620963592
 11
244.6963413751
 21
844.7102388559
 12
245.2889339677
 22
843.9694969849
 13
245.2889339677
 23
843.9694969849
  0
SOLID
  5
417
100
AcDbEntity
  8
0
100
AcDbTrace
 62
5
  6
CONTINUOUS
 10
245.2889339677
 20
843.9694969849
 11
242.622267301
 21
843.8213488367
 12
242.1778228566
 22
844.5620963592
 13
242.1778228566
 23
844.5620963592
  0
SOLID
  5
418
100
AcDbEntity
  8
0
100
AcDbTrace
 62
5
  6
CONTINUOUS
 10
249.7333784121
 20
844.117645133
 11
252.8444895232
 21
844.5620963592
 12
252.4000450788
 22
843.6732006886
 13
252.4000450788
 23
843.6732006886
  0
SOLID
  5
419
100
AcDbEntity
  8
0
100
AcDbTrace
 62
5
  6
CONTINUOUS
 10
242.622267301
 20
843.8213488367
 11
245.2889339677
 21
843.9694969849
 12
246.0296747084
 22
843.5250569203
 13
246.0296747084
 23
843.5250569203
  0
SOLID
  5
41A
100
AcDbEntity
  8
0
100
AcDbTrace
 62
5
  6
CONTINUOUS
 10
252.4000450788
 20
843.6732006886
 11
248.9926376714
 21
843.5250569203
 12
249.7333784121
 22
844.117645133
 13
249.7333784121
 23
844.117645133
  0
SOLID
  5
41B
100
AcDbEntity
  8
0
100
AcDbTrace
 62
5
  6
CONTINUOUS
 10
247.5111561899
 20
843.2287512992
 11
248.2518969306
 21
843.2287512992
 12
243.0667117455
 22
843.080608096
 13
243.0667117455
 23
843.080608096
  0
SOLID
  5
41C
100
AcDbEntity
  8
0
100
AcDbTrace
 62
5
  6
CONTINUOUS
 10
246.7704154492
 20
843.2287512992
 11
247.5111561899
 21
843.2287512992
 12
243.0667117455
 22
843.080608096
 13
243.0667117455
 23
843.080608096
  0
SOLID
  5
41D
100
AcDbEntity
  8
0
100
AcDbTrace
 62
5
  6
CONTINUOUS
 10
246.0296747084
 20
843.5250569203
 11
246.7704154492
 21
843.2287512992
 12
243.0667117455
 22
843.080608096
 13
243.0667117455
 23
843.080608096
  0
SOLID
  5
41E
100
AcDbEntity
  8
0
100
AcDbTrace
 62
5
  6
CONTINUOUS
 10
246.0296747084
 20
843.5250569203
 11
243.0667117455
 21
843.080608096
 12
242.622267301
 22
843.8213488367
 13
242.622267301
 23
843.8213488367
  0
SOLID
  5
41F
100
AcDbEntity
  8
0
100
AcDbTrace
 62
5
  6
CONTINUOUS
 10
248.2518969306
 20
843.2287512992
 11
248.9926376714
 21
843.5250569203
 12
252.4000450788
 22
843.6732006886
 13
252.4000450788
 23
843.6732006886
  0
SOLID
  5
420
100
AcDbEntity
  8
0
100
AcDbTrace
 62
5
  6
CONTINUOUS
 10
251.8074524862
 20
842.7843117997
 11
243.0667117455
 21
843.080608096
 12
248.2518969306
 22
843.2287512992
 13
248.2518969306
 23
843.2287512992
  0
SOLID
  5
421
100
AcDbEntity
  8
0
100
AcDbTrace
 62
5
  6
CONTINUOUS
 10
248.2518969306
 20
843.2287512992
 11
252.4000450788
 21
843.6732006886
 12
251.8074524862
 22
842.7843117997
 13
251.8074524862
 23
842.7843117997
  0
SOLID
  5
422
100
AcDbEntity
  8
0
100
AcDbTrace
 62
5
  6
CONTINUOUS
 10
251.8074524862
 20
842.7843117997
 11
243.5111561899
 21
842.6361636515
 12
243.0667117455
 22
843.080608096
 13
243.0667117455
 23
843.080608096
  0
SOLID
  5
423
100
AcDbEntity
  8
0
100
AcDbTrace
 62
5
  6
CONTINUOUS
 10
243.9556006343
 20
842.1917120722
 11
243.5111561899
 21
842.6361636515
 12
251.8074524862
 22
842.7843117997
 13
251.8074524862
 23
842.7843117997
  0
SOLID
  5
424
100
AcDbEntity
  8
0
100
AcDbTrace
 62
5
  6
CONTINUOUS
 10
243.9556006343
 20
842.1917120722
 11
251.8074524862
 21
842.7843117997
 12
251.0667117455
 22
842.1917120722
 13
251.0667117455
 23
842.1917120722
  0
SOLID
  5
425
100
AcDbEntity
  8
0
100
AcDbTrace
 62
5
  6
CONTINUOUS
 10
251.0667117455
 20
842.1917120722
 11
244.4000450788
 21
841.8954229108
 12
243.9556006343
 22
842.1917120722
 13
243.9556006343
 23
842.1917120722
  0
SOLID
  5
426
100
AcDbEntity
  8
0
100
AcDbTrace
 62
5
  6
CONTINUOUS
 10
244.4000450788
 20
841.8954229108
 11
251.0667117455
 21
842.1917120722
 12
250.3259710047
 22
841.7472747627
 13
250.3259710047
 23
841.7472747627
  0
SOLID
  5
427
100
AcDbEntity
  8
0
100
AcDbTrace
 62
5
  6
CONTINUOUS
 10
250.3259710047
 20
841.7472747627
 11
244.9926376714
 21
841.5991266145
 12
244.4000450788
 22
841.8954229108
 13
244.4000450788
 23
841.8954229108
  0
SOLID
  5
428
100
AcDbEntity
  8
0
100
AcDbTrace
 62
5
  6
CONTINUOUS
 10
245.585230264
 20
841.4509784664
 11
244.9926376714
 21
841.5991266145
 12
250.3259710047
 22
841.7472747627
 13
250.3259710047
 23
841.7472747627
  0
SOLID
  5
429
100
AcDbEntity
  8
0
100
AcDbTrace
 62
5
  6
CONTINUOUS
 10
245.585230264
 20
841.4509784664
 11
250.3259710047
 21
841.7472747627
 12
249.4370821158
 22
841.4509784664
 13
249.4370821158
 23
841.4509784664
  0
SOLID
  5
42A
100
AcDbEntity
  8
0
100
AcDbTrace
 62
5
  6
CONTINUOUS
 10
249.4370821158
 20
841.4509784664
 11
246.1778228566
 21
841.3028358018
 12
245.585230264
 22
841.4509784664
 13
245.585230264
 23
841.4509784664
  0
SOLID
  5
42B
100
AcDbEntity
  8
0
100
AcDbTrace
 62
5
  6
CONTINUOUS
 10
246.7704154492
 20
841.3028358018
 11
246.1778228566
 21
841.3028358018
 12
249.4370821158
 22
841.4509784664
 13
249.4370821158
 23
841.4509784664
  0
SOLID
  5
42C
100
AcDbEntity
  8
0
100
AcDbTrace
 62
5
  6
CONTINUOUS
 10
246.7704154492
 20
841.3028358018
 11
249.4370821158
 21
841.4509784664
 12
248.5481932269
 22
841.3028358018
 13
248.5481932269
 23
841.3028358018
  0
SOLID
  5
42D
100
AcDbEntity
  8
0
100
AcDbTrace
 62
5
  6
CONTINUOUS
 10
248.5481932269
 20
841.3028358018
 11
247.5111561899
 21
841.1546821701
 12
246.7704154492
 22
841.3028358018
 13
246.7704154492
 23
841.3028358018
  0
SOLID
  5
42E
100
AcDbEntity
  8
0
100
AcDbTrace
 62
5
  6
CONTINUOUS
 10
261.8815265603
 20
861.3028257971
 11
262.9185635973
 21
861.4509784664
 12
263.659304338
 22
861.3028257971
 13
263.659304338
 23
861.3028257971
  0
SOLID
  5
42F
100
AcDbEntity
  8
0
100
AcDbTrace
 62
5
  6
CONTINUOUS
 10
263.659304338
 20
861.3028257971
 11
260.9926376714
 21
861.1546844306
 12
261.8815265603
 22
861.3028257971
 13
261.8815265603
 23
861.3028257971
  0
SOLID
  5
430
100
AcDbEntity
  8
0
100
AcDbTrace
 62
5
  6
CONTINUOUS
 10
260.9926376714
 20
861.1546844306
 11
263.659304338
 21
861.3028257971
 12
264.4000450788
 22
861.1546844306
 13
264.4000450788
 23
861.1546844306
  0
SOLID
  5
431
100
AcDbEntity
  8
0
100
AcDbTrace
 62
5
  6
CONTINUOUS
 10
264.4000450788
 20
861.1546844306
 11
265.1407858195
 21
861.0065340219
 12
260.1037487825
 22
860.7102354651
 13
260.1037487825
 23
860.7102354651
  0
SOLID
  5
432
100
AcDbEntity
  8
0
100
AcDbTrace
 62
5
  6
CONTINUOUS
 10
264.4000450788
 20
861.1546844306
 11
260.1037487825
 21
860.7102354651
 12
260.9926376714
 22
861.1546844306
 13
260.9926376714
 23
861.1546844306
  0
SOLID
  5
433
100
AcDbEntity
  8
0
100
AcDbTrace
 62
5
  6
CONTINUOUS
 10
260.1037487825
 20
860.7102354651
 11
265.1407858195
 21
861.0065340219
 12
265.7333784121
 22
860.7102354651
 13
265.7333784121
 23
860.7102354651
  0
SOLID
  5
434
100
AcDbEntity
  8
0
100
AcDbTrace
 62
5
  6
CONTINUOUS
 10
265.7333784121
 20
860.7102354651
 11
266.3259710047
 21
860.4139414293
 12
259.3630080418
 22
860.2657932812
 13
259.3630080418
 23
860.2657932812
  0
SOLID
  5
435
100
AcDbEntity
  8
0
100
AcDbTrace
 62
5
  6
CONTINUOUS
 10
265.7333784121
 20
860.7102354651
 11
259.3630080418
 21
860.2657932812
 12
260.1037487825
 22
860.7102354651
 13
260.1037487825
 23
860.7102354651
  0
SOLID
  5
436
100
AcDbEntity
  8
0
100
AcDbTrace
 62
5
  6
CONTINUOUS
 10
259.3630080418
 20
860.2657932812
 11
266.3259710047
 21
860.4139414293
 12
266.9185635973
 22
859.9694969849
 13
266.9185635973
 23
859.9694969849
  0
SOLID
  5
437
100
AcDbEntity
  8
0
100
AcDbTrace
 62
5
  6
CONTINUOUS
 10
266.9185635973
 20
859.9694969849
 11
258.622267301
 21
859.6732006886
 12
259.3630080418
 22
860.2657932812
 13
259.3630080418
 23
860.2657932812
  0
SOLID
  5
438
100
AcDbEntity
  8
0
100
AcDbTrace
 62
5
  6
CONTINUOUS
 10
262.9185635973
 20
859.376911174
 11
258.622267301
 21
859.6732006886
 12
266.9185635973
 22
859.9694969849
 13
266.9185635973
 23
859.9694969849
  0
SOLID
  5
439
100
AcDbEntity
  8
0
100
AcDbTrace
 62
5
  6
CONTINUOUS
 10
262.9185635973
 20
859.376911174
 11
266.9185635973
 21
859.9694969849
 12
267.3630080418
 22
859.376911174
 13
267.3630080418
 23
859.376911174
  0
SOLID
  5
43A
100
AcDbEntity
  8
0
100
AcDbTrace
 62
5
  6
CONTINUOUS
 10
267.3630080418
 20
859.376911174
 11
263.659304338
 21
859.2287483322
 12
262.9185635973
 22
859.376911174
 13
262.9185635973
 23
859.376911174
  0
SOLID
  5
43B
100
AcDbEntity
  8
0
100
AcDbTrace
 62
5
  6
CONTINUOUS
 10
264.4000450788
 20
858.9324622084
 11
263.659304338
 21
859.2287483322
 12
267.3630080418
 22
859.376911174
 13
267.3630080418
 23
859.376911174
  0
SOLID
  5
43C
100
AcDbEntity
  8
0
100
AcDbTrace
 62
5
  6
CONTINUOUS
 10
264.4000450788
 20
858.9324622084
 11
267.3630080418
 21
859.376911174
 12
267.659304338
 22
858.9324622084
 13
267.659304338
 23
858.9324622084
  0
SOLID
  5
43D
100
AcDbEntity
  8
0
100
AcDbTrace
 62
5
  6
CONTINUOUS
 10
262.0296747084
 20
859.2287483322
 11
261.4370821158
 21
858.9324622084
 12
258.0296747084
 22
858.7843117997
 13
258.0296747084
 23
858.7843117997
  0
SOLID
  5
43E
100
AcDbEntity
  8
0
100
AcDbTrace
 62
5
  6
CONTINUOUS
 10
262.9185635973
 20
859.376911174
 11
262.0296747084
 21
859.2287483322
 12
258.0296747084
 22
858.7843117997
 13
258.0296747084
 23
858.7843117997
  0
SOLID
  5
43F
100
AcDbEntity
  8
0
100
AcDbTrace
 62
5
  6
CONTINUOUS
 10
262.9185635973
 20
859.376911174
 11
258.0296747084
 21
858.7843117997
 12
258.622267301
 22
859.6732006886
 13
258.622267301
 23
859.6732006886
  0
SOLID
  5
440
100
AcDbEntity
  8
0
100
AcDbTrace
 62
5
  6
CONTINUOUS
 10
258.0296747084
 20
858.7843117997
 11
261.4370821158
 21
858.9324622084
 12
260.6963413751
 22
858.4880155034
 13
260.6963413751
 23
858.4880155034
  0
SOLID
  5
441
100
AcDbEntity
  8
0
100
AcDbTrace
 62
5
  6
CONTINUOUS
 10
267.659304338
 20
858.9324622084
 11
265.1407858195
 21
858.3398673553
 12
264.4000450788
 22
858.9324622084
 13
264.4000450788
 23
858.9324622084
  0
SOLID
  5
442
100
AcDbEntity
  8
0
100
AcDbTrace
 62
5
  6
CONTINUOUS
 10
265.1407858195
 20
858.3398673553
 11
267.659304338
 21
858.9324622084
 12
268.1037487825
 22
858.1917192071
 13
268.1037487825
 23
858.1917192071
  0
SOLID
  5
443
100
AcDbEntity
  8
0
100
AcDbTrace
 62
5
  6
CONTINUOUS
 10
260.6963413751
 20
858.4880155034
 11
257.585230264
 21
857.8954229108
 12
258.0296747084
 22
858.7843117997
 13
258.0296747084
 23
858.7843117997
  0
SOLID
  5
444
100
AcDbEntity
  8
0
100
AcDbTrace
 62
5
  6
CONTINUOUS
 10
257.585230264
 20
857.8954229108
 11
260.6963413751
 21
858.4880155034
 12
260.2518969306
 22
857.8954229108
 13
260.2518969306
 23
857.8954229108
  0
SOLID
  5
445
100
AcDbEntity
  8
0
100
AcDbTrace
 62
5
  6
CONTINUOUS
 10
268.1037487825
 20
858.1917192071
 11
265.7333784121
 21
857.7472747627
 12
265.1407858195
 22
858.3398673553
 13
265.1407858195
 23
858.3398673553
  0
SOLID
  5
446
100
AcDbEntity
  8
0
100
AcDbTrace
 62
5
  6
CONTINUOUS
 10
265.7333784121
 20
857.7472747627
 11
268.1037487825
 21
858.1917192071
 12
268.4000450788
 22
857.5991266145
 13
268.4000450788
 23
857.5991266145
  0
SOLID
  5
447
100
AcDbEntity
  8
0
100
AcDbTrace
 62
5
  6
CONTINUOUS
 10
268.4000450788
 20
857.5991266145
 11
266.0296747084
 21
857.3028303182
 12
265.7333784121
 22
857.7472747627
 13
265.7333784121
 23
857.7472747627
  0
SOLID
  5
448
100
AcDbEntity
  8
0
100
AcDbTrace
 62
5
  6
CONTINUOUS
 10
260.2518969306
 20
857.8954229108
 11
259.9556006343
 21
857.4509784664
 12
257.1407858195
 22
857.0065340219
 13
257.1407858195
 23
857.0065340219
  0
SOLID
  5
449
100
AcDbEntity
  8
0
100
AcDbTrace
 62
5
  6
CONTINUOUS
 10
260.2518969306
 20
857.8954229108
 11
257.1407858195
 21
857.0065340219
 12
257.585230264
 22
857.8954229108
 13
257.585230264
 23
857.8954229108
  0
SOLID
  5
44A
100
AcDbEntity
  8
0
100
AcDbTrace
 62
5
  6
CONTINUOUS
 10
257.1407858195
 20
857.0065340219
 11
259.9556006343
 21
857.4509784664
 12
259.659304338
 22
856.8583858738
 13
259.659304338
 23
856.8583858738
  0
SOLID
  5
44B
100
AcDbEntity
  8
0
100
AcDbTrace
 62
5
  6
CONTINUOUS
 10
266.1778228566
 20
856.7102411165
 11
266.0296747084
 21
857.3028303182
 12
268.4000450788
 22
857.5991266145
 13
268.4000450788
 23
857.5991266145
  0
SOLID
  5
44C
100
AcDbEntity
  8
0
100
AcDbTrace
 62
5
  6
CONTINUOUS
 10
266.1778228566
 20
856.7102411165
 11
268.4000450788
 21
857.5991266145
 12
268.6963413751
 22
856.7102411165
 13
268.6963413751
 23
856.7102411165
  0
SOLID
  5
44D
100
AcDbEntity
  8
0
100
AcDbTrace
 62
5
  6
CONTINUOUS
 10
268.6963413751
 20
856.7102411165
 11
266.4741191529
 21
855.9694879426
 12
266.1778228566
 22
856.7102411165
 13
266.1778228566
 23
856.7102411165
  0
SOLID
  5
44E
100
AcDbEntity
  8
0
100
AcDbTrace
 62
5
  6
CONTINUOUS
 10
266.4741191529
 20
855.9694879426
 11
268.6963413751
 21
856.7102411165
 12
268.9926376714
 22
855.9694879426
 13
268.9926376714
 23
855.9694879426
  0
SOLID
  5
44F
100
AcDbEntity
  8
0
100
AcDbTrace
 62
5
  6
CONTINUOUS
 10
259.659304338
 20
856.8583858738
 11
259.5111561899
 21
856.117645133
 12
256.8444895232
 22
855.8213488367
 13
256.8444895232
 23
855.8213488367
  0
SOLID
  5
450
100
AcDbEntity
  8
0
100
AcDbTrace
 62
5
  6
CONTINUOUS
 10
259.659304338
 20
856.8583858738
 11
256.8444895232
 21
855.8213488367
 12
257.1407858195
 22
857.0065340219
 13
257.1407858195
 23
857.0065340219
  0
SOLID
  5
451
100
AcDbEntity
  8
0
100
AcDbTrace
 62
5
  6
CONTINUOUS
 10
256.8444895232
 20
855.8213488367
 11
259.5111561899
 21
856.117645133
 12
259.3630080418
 22
855.3769043923
 13
259.3630080418
 23
855.3769043923
  0
SOLID
  5
452
100
AcDbEntity
  8
0
100
AcDbTrace
 62
5
  6
CONTINUOUS
 10
268.9926376714
 20
855.9694879426
 11
266.622267301
 21
855.2287562441
 12
266.4741191529
 22
855.9694879426
 13
266.4741191529
 23
855.9694879426
  0
SOLID
  5
453
100
AcDbEntity
  8
0
100
AcDbTrace
 62
5
  6
CONTINUOUS
 10
266.622267301
 20
855.2287562441
 11
268.9926376714
 21
855.9694879426
 12
269.1407858195
 22
854.9324599478
 13
269.1407858195
 23
854.9324599478
  0
SOLID
  5
454
100
AcDbEntity
  8
0
100
AcDbTrace
 62
5
  6
CONTINUOUS
 10
259.3630080418
 20
855.3769043923
 11
256.6963413751
 21
854.4880200245
 12
256.8444895232
 22
855.8213488367
 13
256.8444895232
 23
855.8213488367
  0
SOLID
  5
455
100
AcDbEntity
  8
0
100
AcDbTrace
 62
5
  6
CONTINUOUS
 10
256.6963413751
 20
854.4880200245
 11
259.3630080418
 21
855.3769043923
 12
259.2148598936
 22
854.4880200245
 13
259.2148598936
 23
854.4880200245
  0
SOLID
  5
456
100
AcDbEntity
  8
0
100
AcDbTrace
 62
5
  6
CONTINUOUS
 10
269.1407858195
 20
854.9324599478
 11
266.622267301
 21
854.4880200245
 12
266.622267301
 22
855.2287562441
 13
266.622267301
 23
855.2287562441
  0
SOLID
  5
457
100
AcDbEntity
  8
0
100
AcDbTrace
 62
5
  6
CONTINUOUS
 10
266.622267301
 20
854.4880200245
 11
269.1407858195
 21
854.9324599478
 12
269.2889339677
 22
853.8954229108
 13
269.2889339677
 23
853.8954229108
  0
SOLID
  5
458
100
AcDbEntity
  8
0
100
AcDbTrace
 62
5
  6
CONTINUOUS
 10
269.2889339677
 20
853.8954229108
 11
266.7704154492
 21
853.4509807269
 12
266.622267301
 22
854.4880200245
 13
266.622267301
 23
854.4880200245
  0
SOLID
  5
459
100
AcDbEntity
  8
0
100
AcDbTrace
 62
5
  6
CONTINUOUS
 10
259.2148598936
 20
854.4880200245
 11
259.0667117455
 21
853.4509807269
 12
256.5481932269
 22
852.8583858738
 13
256.5481932269
 23
852.8583858738
  0
SOLID
  5
45A
100
AcDbEntity
  8
0
100
AcDbTrace
 62
5
  6
CONTINUOUS
 10
259.2148598936
 20
854.4880200245
 11
256.5481932269
 21
852.8583858738
 12
256.6963413751
 22
854.4880200245
 13
256.6963413751
 23
854.4880200245
  0
SOLID
  5
45B
100
AcDbEntity
  8
0
100
AcDbTrace
 62
5
  6
CONTINUOUS
 10
266.7704154492
 20
853.4509807269
 11
269.2889339677
 21
853.8954229108
 12
269.2889339677
 22
852.5620895775
 13
269.2889339677
 23
852.5620895775
  0
SOLID
  5
45C
100
AcDbEntity
  8
0
100
AcDbTrace
 62
5
  6
CONTINUOUS
 10
256.5481932269
 20
852.8583858738
 11
259.0667117455
 21
853.4509807269
 12
259.0667117455
 22
852.4139414293
 13
259.0667117455
 23
852.4139414293
  0
SOLID
  5
45D
100
AcDbEntity
  8
0
100
AcDbTrace
 62
5
  6
CONTINUOUS
 10
269.2889339677
 20
852.5620895775
 11
266.7704154492
 21
852.4139414293
 12
266.7704154492
 22
853.4509807269
 13
266.7704154492
 23
853.4509807269
  0
SOLID
  5
45E
100
AcDbEntity
  8
0
100
AcDbTrace
 62
5
  6
CONTINUOUS
 10
259.0667117455
 20
852.4139414293
 11
256.5481932269
 21
851.228759635
 12
256.5481932269
 22
852.8583858738
 13
256.5481932269
 23
852.8583858738
  0
SOLID
  5
45F
100
AcDbEntity
  8
0
100
AcDbTrace
 62
5
  6
CONTINUOUS
 10
256.5481932269
 20
851.228759635
 11
259.0667117455
 21
852.4139414293
 12
259.0667117455
 22
851.228759635
 13
259.0667117455
 23
851.228759635
  0
SOLID
  5
460
100
AcDbEntity
  8
0
100
AcDbTrace
 62
5
  6
CONTINUOUS
 10
266.9185635973
 20
851.228759635
 11
266.7704154492
 21
852.4139414293
 12
269.2889339677
 22
852.5620895775
 13
269.2889339677
 23
852.5620895775
  0
SOLID
  5
461
100
AcDbEntity
  8
0
100
AcDbTrace
 62
5
  6
CONTINUOUS
 10
266.9185635973
 20
851.228759635
 11
269.2889339677
 21
852.5620895775
 12
269.4370821158
 22
851.228759635
 13
269.4370821158
 23
851.228759635
  0
SOLID
  5
462
100
AcDbEntity
  8
0
100
AcDbTrace
 62
5
  6
CONTINUOUS
 10
269.4370821158
 20
851.228759635
 11
266.7704154492
 21
850.0435778406
 12
266.9185635973
 22
851.228759635
 13
266.9185635973
 23
851.228759635
  0
SOLID
  5
463
100
AcDbEntity
  8
0
100
AcDbTrace
 62
5
  6
CONTINUOUS
 10
259.0667117455
 20
851.228759635
 11
259.0667117455
 21
850.0435778406
 12
256.5481932269
 22
849.8954229108
 13
256.5481932269
 23
849.8954229108
  0
SOLID
  5
464
100
AcDbEntity
  8
0
100
AcDbTrace
 62
5
  6
CONTINUOUS
 10
259.0667117455
 20
851.228759635
 11
256.5481932269
 21
849.8954229108
 12
256.5481932269
 22
851.228759635
 13
256.5481932269
 23
851.228759635
  0
SOLID
  5
465
100
AcDbEntity
  8
0
100
AcDbTrace
 62
5
  6
CONTINUOUS
 10
266.7704154492
 20
850.0435778406
 11
269.4370821158
 21
851.228759635
 12
269.2889339677
 22
849.5991266145
 13
269.2889339677
 23
849.5991266145
  0
SOLID
  5
466
100
AcDbEntity
  8
0
100
AcDbTrace
 62
5
  6
CONTINUOUS
 10
256.5481932269
 20
849.8954229108
 11
259.0667117455
 21
850.0435778406
 12
259.0667117455
 22
849.006538543
 13
259.0667117455
 23
849.006538543
  0
SOLID
  5
467
100
AcDbEntity
  8
0
100
AcDbTrace
 62
5
  6
CONTINUOUS
 10
269.2889339677
 20
849.5991266145
 11
266.7704154492
 21
849.006538543
 12
266.7704154492
 22
850.0435778406
 13
266.7704154492
 23
850.0435778406
  0
SOLID
  5
468
100
AcDbEntity
  8
0
100
AcDbTrace
 62
5
  6
CONTINUOUS
 10
259.0667117455
 20
849.006538543
 11
256.5481932269
 21
848.5620895775
 12
256.5481932269
 22
849.8954229108
 13
256.5481932269
 23
849.8954229108
  0
SOLID
  5
469
100
AcDbEntity
  8
0
100
AcDbTrace
 62
5
  6
CONTINUOUS
 10
266.7704154492
 20
849.006538543
 11
269.2889339677
 21
849.5991266145
 12
269.1407858195
 22
848.117645133
 13
269.1407858195
 23
848.117645133
  0
SOLID
  5
46A
100
AcDbEntity
  8
0
100
AcDbTrace
 62
5
  6
CONTINUOUS
 10
256.5481932269
 20
848.5620895775
 11
259.0667117455
 21
849.006538543
 12
259.2148598936
 22
847.9694992454
 13
259.2148598936
 23
847.9694992454
  0
SOLID
  5
46B
100
AcDbEntity
  8
0
100
AcDbTrace
 62
5
  6
CONTINUOUS
 10
269.1407858195
 20
848.117645133
 11
266.622267301
 21
847.9694992454
 12
266.7704154492
 22
849.006538543
 13
266.7704154492
 23
849.006538543
  0
SOLID
  5
46C
100
AcDbEntity
  8
0
100
AcDbTrace
 62
5
  6
CONTINUOUS
 10
259.2148598936
 20
847.9694992454
 11
256.6963413751
 21
847.5250525404
 12
256.5481932269
 22
848.5620895775
 13
256.5481932269
 23
848.5620895775
  0
SOLID
  5
46D
100
AcDbEntity
  8
0
100
AcDbTrace
 62
5
  6
CONTINUOUS
 10
256.6963413751
 20
847.5250525404
 11
259.2148598936
 21
847.9694992454
 12
259.2148598936
 22
847.0806030097
 13
259.2148598936
 23
847.0806030097
  0
SOLID
  5
46E
100
AcDbEntity
  8
0
100
AcDbTrace
 62
5
  6
CONTINUOUS
 10
266.622267301
 20
847.0806030097
 11
266.622267301
 21
847.9694992454
 12
269.1407858195
 22
848.117645133
 13
269.1407858195
 23
848.117645133
  0
SOLID
  5
46F
100
AcDbEntity
  8
0
100
AcDbTrace
 62
5
  6
CONTINUOUS
 10
266.622267301
 20
847.0806030097
 11
269.1407858195
 21
848.117645133
 12
268.9926376714
 22
846.7843117997
 13
268.9926376714
 23
846.7843117997
  0
SOLID
  5
470
100
AcDbEntity
  8
0
100
AcDbTrace
 62
5
  6
CONTINUOUS
 10
259.2148598936
 20
847.0806030097
 11
256.9926376714
 21
846.3398690507
 12
256.6963413751
 22
847.5250525404
 13
256.6963413751
 23
847.5250525404
  0
SOLID
  5
471
100
AcDbEntity
  8
0
100
AcDbTrace
 62
5
  6
CONTINUOUS
 10
256.9926376714
 20
846.3398690507
 11
259.2148598936
 21
847.0806030097
 12
259.5111561899
 22
846.3398690507
 13
259.5111561899
 23
846.3398690507
  0
SOLID
  5
472
100
AcDbEntity
  8
0
100
AcDbTrace
 62
5
  6
CONTINUOUS
 10
268.9926376714
 20
846.7843117997
 11
266.4741191529
 21
846.3398690507
 12
266.622267301
 22
847.0806030097
 13
266.622267301
 23
847.0806030097
  0
SOLID
  5
473
100
AcDbEntity
  8
0
100
AcDbTrace
 62
5
  6
CONTINUOUS
 10
266.1778228566
 20
845.7472781535
 11
266.4741191529
 21
846.3398690507
 12
268.9926376714
 22
846.7843117997
 13
268.9926376714
 23
846.7843117997
  0
SOLID
  5
474
100
AcDbEntity
  8
0
100
AcDbTrace
 62
5
  6
CONTINUOUS
 10
266.1778228566
 20
845.7472781535
 11
268.9926376714
 21
846.7843117997
 12
268.6963413751
 22
845.5991266145
 13
268.6963413751
 23
845.5991266145
  0
SOLID
  5
475
100
AcDbEntity
  8
0
100
AcDbTrace
 62
5
  6
CONTINUOUS
 10
259.5111561899
 20
846.3398690507
 11
259.659304338
 21
845.7472781535
 12
257.2889339677
 22
845.4509784664
 13
257.2889339677
 23
845.4509784664
  0
SOLID
  5
476
100
AcDbEntity
  8
0
100
AcDbTrace
 62
5
  6
CONTINUOUS
 10
259.5111561899
 20
846.3398690507
 11
257.2889339677
 21
845.4509784664
 12
256.9926376714
 22
846.3398690507
 13
256.9926376714
 23
846.3398690507
  0
SOLID
  5
477
100
AcDbEntity
  8
0
100
AcDbTrace
 62
5
  6
CONTINUOUS
 10
257.2889339677
 20
845.4509784664
 11
259.659304338
 21
845.7472781535
 12
259.8074524862
 22
845.1546872563
 13
259.8074524862
 23
845.1546872563
  0
SOLID
  5
478
100
AcDbEntity
  8
0
100
AcDbTrace
 62
5
  6
CONTINUOUS
 10
268.6963413751
 20
845.5991266145
 11
266.0296747084
 21
845.1546872563
 12
266.1778228566
 22
845.7472781535
 13
266.1778228566
 23
845.7472781535
  0
SOLID
  5
479
100
AcDbEntity
  8
0
100
AcDbTrace
 62
5
  6
CONTINUOUS
 10
259.8074524862
 20
845.1546872563
 11
260.1037487825
 21
844.7102388559
 12
257.585230264
 22
844.5620963592
 13
257.585230264
 23
844.5620963592
  0
SOLID
  5
47A
100
AcDbEntity
  8
0
100
AcDbTrace
 62
5
  6
CONTINUOUS
 10
259.8074524862
 20
845.1546872563
 11
257.585230264
 21
844.5620963592
 12
257.2889339677
 22
845.4509784664
 13
257.2889339677
 23
845.4509784664
  0
SOLID
  5
47B
100
AcDbEntity
  8
0
100
AcDbTrace
 62
5
  6
CONTINUOUS
 10
265.7333784121
 20
844.7102388559
 11
266.0296747084
 21
845.1546872563
 12
268.6963413751
 22
845.5991266145
 13
268.6963413751
 23
845.5991266145
  0
SOLID
  5
47C
100
AcDbEntity
  8
0
100
AcDbTrace
 62
5
  6
CONTINUOUS
 10
265.7333784121
 20
844.7102388559
 11
268.6963413751
 21
845.5991266145
 12
268.2518969306
 22
844.5620963592
 13
268.2518969306
 23
844.5620963592
  0
SOLID
  5
47D
100
AcDbEntity
  8
0
100
AcDbTrace
 62
5
  6
CONTINUOUS
 10
268.2518969306
 20
844.5620963592
 11
265.1407858195
 21
844.117645133
 12
265.7333784121
 22
844.7102388559
 13
265.7333784121
 23
844.7102388559
  0
SOLID
  5
47E
100
AcDbEntity
  8
0
100
AcDbTrace
 62
5
  6
CONTINUOUS
 10
257.585230264
 20
844.5620963592
 11
260.1037487825
 21
844.7102388559
 12
260.6963413751
 22
843.9694969849
 13
260.6963413751
 23
843.9694969849
  0
SOLID
  5
47F
100
AcDbEntity
  8
0
100
AcDbTrace
 62
5
  6
CONTINUOUS
 10
260.6963413751
 20
843.9694969849
 11
258.0296747084
 21
843.8213488367
 12
257.585230264
 22
844.5620963592
 13
257.585230264
 23
844.5620963592
  0
SOLID
  5
480
100
AcDbEntity
  8
0
100
AcDbTrace
 62
5
  6
CONTINUOUS
 10
265.1407858195
 20
844.117645133
 11
268.2518969306
 21
844.5620963592
 12
267.8074524862
 22
843.6732006886
 13
267.8074524862
 23
843.6732006886
  0
SOLID
  5
481
100
AcDbEntity
  8
0
100
AcDbTrace
 62
5
  6
CONTINUOUS
 10
258.0296747084
 20
843.8213488367
 11
260.6963413751
 21
843.9694969849
 12
261.4370821158
 22
843.5250569203
 13
261.4370821158
 23
843.5250569203
  0
SOLID
  5
482
100
AcDbEntity
  8
0
100
AcDbTrace
 62
5
  6
CONTINUOUS
 10
267.8074524862
 20
843.6732006886
 11
264.4000450788
 21
843.5250569203
 12
265.1407858195
 22
844.117645133
 13
265.1407858195
 23
844.117645133
  0
SOLID
  5
483
100
AcDbEntity
  8
0
100
AcDbTrace
 62
5
  6
CONTINUOUS
 10
262.9185635973
 20
843.2287512992
 11
263.659304338
 21
843.2287512992
 12
258.4741191529
 22
843.080608096
 13
258.4741191529
 23
843.080608096
  0
SOLID
  5
484
100
AcDbEntity
  8
0
100
AcDbTrace
 62
5
  6
CONTINUOUS
 10
262.1778228566
 20
843.2287512992
 11
262.9185635973
 21
843.2287512992
 12
258.4741191529
 22
843.080608096
 13
258.4741191529
 23
843.080608096
  0
SOLID
  5
485
100
AcDbEntity
  8
0
100
AcDbTrace
 62
5
  6
CONTINUOUS
 10
261.4370821158
 20
843.5250569203
 11
262.1778228566
 21
843.2287512992
 12
258.4741191529
 22
843.080608096
 13
258.4741191529
 23
843.080608096
  0
SOLID
  5
486
100
AcDbEntity
  8
0
100
AcDbTrace
 62
5
  6
CONTINUOUS
 10
261.4370821158
 20
843.5250569203
 11
258.4741191529
 21
843.080608096
 12
258.0296747084
 22
843.8213488367
 13
258.0296747084
 23
843.8213488367
  0
SOLID
  5
487
100
AcDbEntity
  8
0
100
AcDbTrace
 62
5
  6
CONTINUOUS
 10
263.659304338
 20
843.2287512992
 11
264.4000450788
 21
843.5250569203
 12
267.8074524862
 22
843.6732006886
 13
267.8074524862
 23
843.6732006886
  0
SOLID
  5
488
100
AcDbEntity
  8
0
100
AcDbTrace
 62
5
  6
CONTINUOUS
 10
267.2148598936
 20
842.7843117997
 11
258.4741191529
 21
843.080608096
 12
263.659304338
 22
843.2287512992
 13
263.659304338
 23
843.2287512992
  0
SOLID
  5
489
100
AcDbEntity
  8
0
100
AcDbTrace
 62
5
  6
CONTINUOUS
 10
263.659304338
 20
843.2287512992
 11
267.8074524862
 21
843.6732006886
 12
267.2148598936
 22
842.7843117997
 13
267.2148598936
 23
842.7843117997
  0
SOLID
  5
48A
100
AcDbEntity
  8
0
100
AcDbTrace
 62
5
  6
CONTINUOUS
 10
267.2148598936
 20
842.7843117997
 11
258.9185635973
 21
842.6361636515
 12
258.4741191529
 22
843.080608096
 13
258.4741191529
 23
843.080608096
  0
SOLID
  5
48B
100
AcDbEntity
  8
0
100
AcDbTrace
 62
5
  6
CONTINUOUS
 10
259.3630080418
 20
842.1917120722
 11
258.9185635973
 21
842.6361636515
 12
267.2148598936
 22
842.7843117997
 13
267.2148598936
 23
842.7843117997
  0
SOLID
  5
48C
100
AcDbEntity
  8
0
100
AcDbTrace
 62
5
  6
CONTINUOUS
 10
259.3630080418
 20
842.1917120722
 11
267.2148598936
 21
842.7843117997
 12
266.4741191529
 22
842.1917120722
 13
266.4741191529
 23
842.1917120722
  0
SOLID
  5
48D
100
AcDbEntity
  8
0
100
AcDbTrace
 62
5
  6
CONTINUOUS
 10
266.4741191529
 20
842.1917120722
 11
259.8074524862
 21
841.8954229108
 12
259.3630080418
 22
842.1917120722
 13
259.3630080418
 23
842.1917120722
  0
SOLID
  5
48E
100
AcDbEntity
  8
0
100
AcDbTrace
 62
5
  6
CONTINUOUS
 10
259.8074524862
 20
841.8954229108
 11
266.4741191529
 21
842.1917120722
 12
265.7333784121
 22
841.7472747627
 13
265.7333784121
 23
841.7472747627
  0
SOLID
  5
48F
100
AcDbEntity
  8
0
100
AcDbTrace
 62
5
  6
CONTINUOUS
 10
265.7333784121
 20
841.7472747627
 11
260.4000450788
 21
841.5991266145
 12
259.8074524862
 22
841.8954229108
 13
259.8074524862
 23
841.8954229108
  0
SOLID
  5
490
100
AcDbEntity
  8
0
100
AcDbTrace
 62
5
  6
CONTINUOUS
 10
260.9926376714
 20
841.4509784664
 11
260.4000450788
 21
841.5991266145
 12
265.7333784121
 22
841.7472747627
 13
265.7333784121
 23
841.7472747627
  0
SOLID
  5
491
100
AcDbEntity
  8
0
100
AcDbTrace
 62
5
  6
CONTINUOUS
 10
260.9926376714
 20
841.4509784664
 11
265.7333784121
 21
841.7472747627
 12
264.8444895232
 22
841.4509784664
 13
264.8444895232
 23
841.4509784664
  0
SOLID
  5
492
100
AcDbEntity
  8
0
100
AcDbTrace
 62
5
  6
CONTINUOUS
 10
264.8444895232
 20
841.4509784664
 11
261.585230264
 21
841.3028358018
 12
260.9926376714
 22
841.4509784664
 13
260.9926376714
 23
841.4509784664
  0
SOLID
  5
493
100
AcDbEntity
  8
0
100
AcDbTrace
 62
5
  6
CONTINUOUS
 10
262.1778228566
 20
841.3028358018
 11
261.585230264
 21
841.3028358018
 12
264.8444895232
 22
841.4509784664
 13
264.8444895232
 23
841.4509784664
  0
SOLID
  5
494
100
AcDbEntity
  8
0
100
AcDbTrace
 62
5
  6
CONTINUOUS
 10
262.1778228566
 20
841.3028358018
 11
264.8444895232
 21
841.4509784664
 12
263.9556006343
 22
841.3028358018
 13
263.9556006343
 23
841.3028358018
  0
SOLID
  5
495
100
AcDbEntity
  8
0
100
AcDbTrace
 62
5
  6
CONTINUOUS
 10
263.9556006343
 20
841.3028358018
 11
262.9185635973
 21
841.1546821701
 12
262.1778228566
 22
841.3028358018
 13
262.1778228566
 23
841.3028358018
  0
LINE
  5
496
100
AcDbEntity
  8
0
100
AcDbLine
 62
7
  6
CONTINUOUS
 10
0.0
 20
0.0
 11
500.0
 21
0.0
  0
LINE
  5
497
100
AcDbEntity
  8
0
100
AcDbLine
 62
7
  6
CONTINUOUS
 10
81.8901793276
 20
160.7054656561
 11
362.8901793276
 21
160.7054656561
  0
LINE
  5
498
100
AcDbEntity
  8
0
100
AcDbLine
 62
7
  6
CONTINUOUS
 10
0.0
 20
0.0
 11
0.0
 21
1000.0
  0
LINE
  5
499
100
AcDbEntity
  8
0
100
AcDbLine
 62
7
  6
CONTINUOUS
 10
500.0
 20
0.0
 11
500.0
 21
1000.0
  0
LINE
  5
49A
100
AcDbEntity
  8
0
100
AcDbLine
 62
7
  6
CONTINUOUS
 10
0.0
 20
1000.0
 11
500.0
 21
1000.0
  0
LINE
  5
49B
100
AcDbEntity
  8
0
100
AcDbLine
 62
7
  6
CONTINUOUS
 10
418.8901793276
 20
246.8331221163
 11
68.8901793276
 21
246.8331221163
  0
LINE
  5
49C
100
AcDbEntity
  8
0
100
AcDbLine
 62
7
  6
CONTINUOUS
 10
399.8901793276
 20
262.8331221163
 11
68.8901793276
 21
262.8331221163
  0
LINE
  5
49D
100
AcDbEntity
  8
0
100
AcDbLine
 62
2
  6
CONTINUOUS
 10
151.9401793276
 20
930.8331221163
 11
167.9401793276
 21
946.8331221163
  0
LWPOLYLINE
  5
49E
100
AcDbEntity
  8
DIMENSIONS
100
AcDbPolyline
 62
5
  6
CONTINUOUS
 90
10
 70
0
 10
200.7145182292
 20
960.2005931713
 10
201.4287832755
 20
960.9148582176
 10
201.607349537
 20
961.6291232639
 10
201.607349537
 20
962.3434606481
 10
201.2502170139
 20
962.7005931713
 10
200.7145182292
 20
962.7005931713
 10
200.357349537
 20
962.3434606481
 10
200.357349537
 20
961.6291232639
 10
200.7145182292
 20
961.2719907407
 10
201.488317419
 20
961.2719907407
  0
LWPOLYLINE
  5
49F
100
AcDbEntity
  8
0
100
AcDbPolyline
 62
7
  6
CONTINUOUS
 90
3
 70
0
 43
0.5
 10
41.984411169
 20
884.1830873843
 10
42.984411169
 20
887.6830873843
 10
43.984411169
 20
884.1830873843
  0
LINE
  5
4A0
100
AcDbEntity
  8
0
100
AcDbLine
 62
2
  6
CONTINUOUS
 10
116.9401793276
 20
776.8331221163
 11
132.9401793276
 21
792.8331221163
  0
LINE
  5
4A1
100
AcDbEntity
  8
0
100
AcDbLine
 62
2
  6
CONTINUOUS
 10
270.9401793276
 20
930.8331221163
 11
286.9401793276
 21
946.8331221163
  0
LWPOLYLINE
  5
4A2
100
AcDbEntity
  8
DIMENSIONS
100
AcDbPolyline
 62
5
  6
CONTINUOUS
 90
6
 70
0
 10
58.2651909722
 20
859.26171875
 10
58.2651909722
 20
860.1545862269
 10
58.0866247106
 20
860.3331163194
 10
57.1937572338
 20
860.3331163194
 10
56.8366247106
 20
859.9759837963
 10
56.8366247106
 20
859.6188512731
  0
LWPOLYLINE
  5
4A3
100
AcDbEntity
  8
DIMENSIONS
100
AcDbPolyline
 62
5
  6
CONTINUOUS
 90
8
 70
0
 10
58.2651909722
 20
861.0473813657
 10
58.2651909722
 20
861.76171875
 10
57.9080222801
 20
862.1188512731
 10
57.1937572338
 20
862.1188512731
 10
56.8366247106
 20
861.76171875
 10
56.8366247106
 20
861.0473813657
 10
55.7651909722
 20
861.0473813657
 10
55.7651909722
 20
862.1188512731
  0
LINE
  5
4A4
100
AcDbEntity
  8
0
100
AcDbLine
 62
7
  6
CONTINUOUS
 10
68.8901793276
 20
246.8331221163
 11
68.8901793276
 21
262.8331221163
  0
LINE
  5
4A5
100
AcDbEntity
  8
ACHSEN
100
AcDbLine
 62
7
  6
CONTINUOUS
 10
68.8901793276
 20
262.8331221163
 11
68.8901793276
 21
792.8331221163
  0
LINE
  5
4A6
100
AcDbEntity
  8
0
100
AcDbLine
 62
7
  6
CONTINUOUS
 10
68.8901793276
 20
792.8331221163
 11
68.8901793276
 21
927.8331221163
  0
LINE
  5
4A7
100
AcDbEntity
  8
ACHSEN
100
AcDbLine
 62
7
  6
CONTINUOUS
 10
68.8901793276
 20
927.8331221163
 11
68.8901793276
 21
930.8331221163
  0
LINE
  5
4A8
100
AcDbEntity
  8
0
100
AcDbLine
 62
7
  6
CONTINUOUS
 10
68.8901793276
 20
930.8331221163
 11
68.8901793276
 21
946.8331221163
  0
LINE
  5
4A9
100
AcDbEntity
  8
0
100
AcDbLine
 62
7
  6
CONTINUOUS
 10
81.8901793276
 20
776.8331221163
 11
81.8901793276
 21
792.8331221163
  0
LINE
  5
4AA
100
AcDbEntity
  8
0
100
AcDbLine
 62
2
  6
CONTINUOUS
 10
235.9401793276
 20
776.8331221163
 11
251.9401793276
 21
792.8331221163
  0
LINE
  5
4AB
100
AcDbEntity
  8
0
100
AcDbLine
 62
2
  6
CONTINUOUS
 10
389.9401793276
 20
930.8331221163
 11
405.9401793276
 21
946.8331221163
  0
LINE
  5
4AC
100
AcDbEntity
  8
0
100
AcDbLine
 62
2
  6
CONTINUOUS
 10
354.9401793276
 20
776.8331221163
 11
370.9401793276
 21
792.8331221163
  0
LINE
  5
4AD
100
AcDbEntity
  8
DIMENSIONS
100
AcDbLine
 62
5
  6
CONTINUOUS
 10
203.1549840856
 20
960.2005931713
 11
203.1549840856
 21
961.4505931713
  0
LWPOLYLINE
  5
4AE
100
AcDbEntity
  8
DIMENSIONS
100
AcDbPolyline
 62
5
  6
CONTINUOUS
 90
5
 70
0
 10
56.8366247106
 20
859.9759837963
 10
56.6580222801
 20
860.2735821759
 10
56.1223234954
 20
860.2735821759
 10
55.7651909722
 20
859.9759837963
 10
55.7651909722
 20
859.26171875
  0
LINE
  5
4AF
100
AcDbEntity
  8
0
100
AcDbLine
 62
2
  6
CONTINUOUS
 10
399.8901793276
 20
702.7831221163
 11
418.8901793276
 21
721.7831221163
  0
LWPOLYLINE
  5
4B0
100
AcDbEntity
  8
DIMENSIONS
100
AcDbPolyline
 62
5
  6
CONTINUOUS
 90
3
 70
0
 10
56.4794560185
 20
857.8331163194
 10
55.7651909722
 20
858.5473813657
 10
58.2651909722
 20
858.5473813657
  0
LWPOLYLINE
  5
4B1
100
AcDbEntity
  8
DIMENSIONS
100
AcDbPolyline
 62
5
  6
CONTINUOUS
 90
3
 70
0
 10
56.4794560185
 20
935.63671875
 10
55.7651909722
 20
936.3509837963
 10
58.2651909722
 20
936.3509837963
  0
LINE
  5
4B2
100
AcDbEntity
  8
ACHSEN
100
AcDbLine
 62
7
  6
CONTINUOUS
 10
362.8901793276
 20
822.8331221163
 11
362.8901793276
 21
897.8331221163
  0
LWPOLYLINE
  5
4B3
100
AcDbEntity
  8
0
100
AcDbPolyline
 62
7
  6
CONTINUOUS
 90
3
 70
0
 43
0.5
 10
442.7959346065
 20
884.1830873843
 10
443.7959346065
 20
887.6830873843
 10
444.7959346065
 20
884.1830873843
  0
LINE
  5
4B4
100
AcDbEntity
  8
0
100
AcDbLine
 62
2
  6
CONTINUOUS
 10
68.8901793276
 20
252.7831221163
 11
78.9401793276
 21
262.8331221163
  0
LINE
  5
4B5
100
AcDbEntity
  8
0
100
AcDbLine
 62
2
  6
CONTINUOUS
 10
399.8901793276
 20
583.7831221163
 11
418.8901793276
 21
602.7831221163
  0
LWPOLYLINE
  5
4B6
100
AcDbEntity
  8
DIMENSIONS
100
AcDbPolyline
 62
5
  6
CONTINUOUS
 90
10
 70
0
 10
58.2651909722
 20
937.4223813657
 10
57.5508897569
 20
938.13671875
 10
56.8366247106
 20
938.3152488426
 10
56.1223234954
 20
938.3152488426
 10
55.7651909722
 20
937.9581163194
 10
55.7651909722
 20
937.4223813657
 10
56.1223234954
 20
937.0652488426
 10
56.8366247106
 20
937.0652488426
 10
57.1937572338
 20
937.4223813657
 10
57.1937572338
 20
938.1962528935
  0
LINE
  5
4B7
100
AcDbEntity
  8
0
100
AcDbLine
 62
7
  6
CONTINUOUS
 10
399.8901793276
 20
262.8331221163
 11
399.8901793276
 21
776.8331221163
  0
LINE
  5
4B8
100
AcDbEntity
  8
0
100
AcDbLine
 62
7
  6
CONTINUOUS
 10
418.8901793276
 20
246.8331221163
 11
418.8901793276
 21
792.8331221163
  0
LINE
  5
4B9
100
AcDbEntity
  8
KOERPER
100
AcDbLine
 62
7
  6
CONTINUOUS
 10
418.8901793276
 20
792.8331221163
 11
418.8901793276
 21
930.8331221163
  0
LINE
  5
4BA
100
AcDbEntity
  8
0
100
AcDbLine
 62
7
  6
CONTINUOUS
 10
418.8901793276
 20
930.8331221163
 11
418.8901793276
 21
946.8331221163
  0
LINE
  5
4BB
100
AcDbEntity
  8
0
100
AcDbLine
 62
7
  6
CONTINUOUS
 10
399.8901793276
 20
776.8331221163
 11
81.8901793276
 21
776.8331221163
  0
LINE
  5
4BC
100
AcDbEntity
  8
0
100
AcDbLine
 62
2
  6
CONTINUOUS
 10
181.9401793276
 20
246.8331221163
 11
197.9401793276
 21
262.8331221163
  0
LINE
  5
4BD
100
AcDbEntity
  8
0
100
AcDbLine
 62
2
  6
CONTINUOUS
 10
399.8901793276
 20
464.7831221163
 11
418.8901793276
 21
483.7831221163
  0
LINE
  5
4BE
100
AcDbEntity
  8
0
100
AcDbLine
 62
7
  6
CONTINUOUS
 10
418.8901793276
 20
792.8331221163
 11
81.8901793276
 21
792.8331221163
  0
LINE
  5
4BF
100
AcDbEntity
  8
ACHSEN
100
AcDbLine
 62
7
  6
CONTINUOUS
 10
68.8901793276
 20
792.8331221163
 11
81.8901793276
 21
792.8331221163
  0
LINE
  5
4C0
100
AcDbEntity
  8
0
100
AcDbLine
 62
2
  6
CONTINUOUS
 10
300.9401793276
 20
246.8331221163
 11
316.9401793276
 21
262.8331221163
  0
LINE
  5
4C1
100
AcDbEntity
  8
0
100
AcDbLine
 62
2
  6
CONTINUOUS
 10
399.8901793276
 20
345.7831221163
 11
418.8901793276
 21
364.7831221163
  0
LINE
  5
4C2
100
AcDbEntity
  8
DEFAULT_1
100
AcDbLine
 62
7
  6
CENTER
 10
441.4209500584
 20
871.8331221163
 11
437.4209500584
 21
871.8331221163
  0
LINE
  5
4C3
100
AcDbEntity
  8
DEFAULT_1
100
AcDbLine
 62
9
  6
CENTER
 10
437.4209500584
 20
871.8331221163
 11
50.3594085968
 21
871.8331221163
  0
LINE
  5
4C4
100
AcDbEntity
  8
DEFAULT_1
100
AcDbLine
 62
7
  6
CENTER
 10
50.3594085968
 20
871.8331221163
 11
46.3594085968
 21
871.8331221163
  0
LWPOLYLINE
  5
4C5
100
AcDbEntity
  8
0
100
AcDbPolyline
 62
7
  6
CONTINUOUS
 90
2
 70
0
 43
0.5
 10
42.3177445023
 20
885.1830873843
 10
43.6510778356
 20
885.1830873843
  0
LWPOLYLINE
  5
4C6
100
AcDbEntity
  8
0
100
AcDbPolyline
 62
7
  6
CONTINUOUS
 90
2
 70
0
 43
0.5
 10
443.1292679398
 20
885.1830873843
 10
444.4626012731
 20
885.1830873843
  0
LINE
  5
4C7
100
AcDbEntity
  8
ACHSEN
100
AcDbLine
 62
7
  6
CONTINUOUS
 10
68.8901793276
 20
927.8331221163
 11
362.8901793276
 21
927.8331221163
  0
LINE
  5
4C8
100
AcDbEntity
  8
0
100
AcDbLine
 62
7
  6
CONTINUOUS
 10
418.8901793276
 20
930.8331221163
 11
68.8901793276
 21
930.8331221163
  0
LINE
  5
4C9
100
AcDbEntity
  8
0
100
AcDbLine
 62
7
  6
CONTINUOUS
 10
418.8901793276
 20
946.8331221163
 11
68.8901793276
 21
946.8331221163
  0
LWPOLYLINE
  5
4CA
100
AcDbEntity
  8
DIMENSIONS
100
AcDbPolyline
 62
5
  6
CONTINUOUS
 90
7
 70
0
 10
199.6430844907
 20
960.2005931713
 10
198.3930844907
 20
960.2005931713
 10
199.6430844907
 20
961.986328125
 10
199.6430844907
 20
962.3434606481
 10
199.2859519676
 20
962.7005931713
 10
198.7502170139
 20
962.7005931713
 10
198.3930844907
 20
962.1648582176
  0
LWPOLYLINE
  5
4CB
100
AcDbEntity
  8
DIMENSIONS
100
AcDbPolyline
 62
5
  6
CONTINUOUS
 90
3
 70
0
 10
203.5716507523
 20
960.736328125
 10
202.3216507523
 20
960.736328125
 10
202.857349537
 20
962.7005931713
  0
LWPOLYLINE
  5
4CC
100
AcDbEntity
  8
DIMENSIONS
100
AcDbPolyline
 62
5
  6
CONTINUOUS
 90
8
 70
0
 10
52.9089265046
 20
173.3126085069
 10
52.9089265046
 20
174.0268916377
 10
52.5517939815
 20
174.3840422454
 10
51.8374927662
 20
174.3840422454
 10
51.4803602431
 20
174.0268916377
 10
51.4803602431
 20
173.3126085069
 10
50.4089265046
 20
173.3126085069
 10
50.4089265046
 20
174.3840422454
  0
LWPOLYLINE
  5
4CD
100
AcDbEntity
  8
DIMENSIONS
100
AcDbPolyline
 62
5
  6
CONTINUOUS
 90
3
 70
0
 10
58.0184823495
 20
162.2778862847
 10
58.0184823495
 20
161.0278862847
 10
56.0541811343
 20
161.5636031539
  0
LINE
  5
4CE
100
AcDbEntity
  8
0
100
AcDbLine
 62
7
  6
CONTINUOUS
 10
68.8901793276
 20
174.7054656561
 11
68.8901793276
 21
171.7054656561
  0
LINE
  5
4CF
100
AcDbEntity
  8
ACHSEN
100
AcDbLine
 62
7
  6
CONTINUOUS
 10
68.8901793276
 20
167.7054656561
 11
68.8901793276
 21
160.7054656561
  0
LINE
  5
4D0
100
AcDbEntity
  8
KOERPER
100
AcDbLine
 62
7
  6
CONTINUOUS
 10
68.8901793276
 20
82.6636262374
 11
68.8901793276
 21
160.7054656561
  0
LWPOLYLINE
  5
4D1
100
AcDbEntity
  8
DIMENSIONS
100
AcDbPolyline
 62
5
  6
CONTINUOUS
 90
4
 70
0
 10
71.9080222801
 20
184.3557942708
 10
71.9080222801
 20
185.0700774016
 10
72.2651909722
 20
185.4272280093
 10
72.8008897569
 20
185.4272280093
  0
LINE
  5
4D2
100
AcDbEntity
  8
ACHSEN
100
AcDbLine
 62
7
  6
CONTINUOUS
 10
76.8901793276
 20
171.7054656561
 11
76.8901793276
 21
167.7054656561
  0
LINE
  5
4D3
100
AcDbEntity
  8
ACHSEN
100
AcDbLine
 62
7
  6
CONTINUOUS
 10
81.8901793276
 20
83.4242542807
 11
81.8901793276
 21
160.7054656561
  0
LINE
  5
4D4
100
AcDbEntity
  8
0
100
AcDbLine
 62
2
  6
CONTINUOUS
 10
137.9159308316
 20
171.7054656561
 11
142.9159308316
 21
176.7054656561
  0
LINE
  5
4D5
100
AcDbEntity
  8
0
100
AcDbLine
 62
2
  6
CONTINUOUS
 10
68.8901793276
 20
82.6636262374
 11
71.4544690358
 21
82.0044437331
  0
LINE
  5
4D6
100
AcDbEntity
  8
0
100
AcDbLine
 62
2
  6
CONTINUOUS
 10
210.9928539086
 20
171.7054656561
 11
215.9928539086
 21
176.7054656561
  0
LWPOLYLINE
  5
4D7
100
AcDbEntity
  8
0
100
AcDbPolyline
 62
5
  6
CONTINUOUS
 90
2
 70
0
 43
0.5
 10
244.2235243056
 20
78.2444480613
 10
245.5568576389
 20
78.2444480613
  0
LWPOLYLINE
  5
4D8
100
AcDbEntity
  8
0
100
AcDbPolyline
 62
5
  6
CONTINUOUS
 90
2
 70
0
 43
0.5
 10
249.7235243056
 20
78.2444480613
 10
251.0568576389
 20
78.2444480613
  0
LWPOLYLINE
  5
4D9
100
AcDbEntity
  8
0
100
AcDbPolyline
 62
5
  6
CONTINUOUS
 90
2
 70
0
 43
0.5
 10
246.8901909722
 20
78.4944480613
 10
248.3901909722
 20
78.4944480613
  0
LWPOLYLINE
  5
4DA
100
AcDbEntity
  8
DIMENSIONS
100
AcDbPolyline
 62
5
  6
CONTINUOUS
 90
13
 70
0
 10
72.2651909722
 20
185.4272280093
 10
72.0270905671
 20
185.6057942708
 10
72.0270905671
 20
186.14151114
 10
72.2651909722
 20
186.4986617477
 10
72.8008897569
 20
186.4986617477
 10
73.038990162
 20
186.14151114
 10
73.038990162
 20
185.6057942708
 10
72.8008897569
 20
185.4272280093
 10
73.1580222801
 20
185.0700774016
 10
73.1580222801
 20
184.3557942708
 10
72.8008897569
 20
183.9986617477
 10
72.2651909722
 20
183.9986617477
 10
71.9080222801
 20
184.3557942708
  0
LINE
  5
4DB
100
AcDbEntity
  8
0
100
AcDbLine
 62
2
  6
CONTINUOUS
 10
284.7891657761
 20
91.4545956147
 11
311.2591734172
 21
92.8281018035
  0
LINE
  5
4DC
100
AcDbEntity
  8
0
100
AcDbLine
 62
2
  6
CONTINUOUS
 10
255.2960854388
 20
90.3197080271
 11
284.7891657761
 21
91.4545956147
  0
LINE
  5
4DD
100
AcDbEntity
  8
0
100
AcDbLine
 62
2
  6
CONTINUOUS
 10
311.2591734172
 20
92.8281018035
 11
338.1869168563
 21
93.1417883125
  0
LINE
  5
4DE
100
AcDbEntity
  8
0
100
AcDbLine
 62
2
  6
CONTINUOUS
 10
225.3091430407
 20
90.0280160829
 11
255.2960854388
 21
90.3197080271
  0
LINE
  5
4DF
100
AcDbEntity
  8
0
100
AcDbLine
 62
2
  6
CONTINUOUS
 10
139.8660200347
 20
92.5370361064
 11
168.0590733369
 21
92.3363281503
  0
LINE
  5
4E0
100
AcDbEntity
  8
0
100
AcDbLine
 62
2
  6
CONTINUOUS
 10
195.7962171479
 20
90.805012048
 11
225.3091430407
 21
90.0280160829
  0
LINE
  5
4E1
100
AcDbEntity
  8
0
100
AcDbLine
 62
2
  6
CONTINUOUS
 10
168.0590733369
 20
92.3363281503
 11
195.7962171479
 21
90.805012048
  0
LINE
  5
4E2
100
AcDbEntity
  8
0
100
AcDbLine
 62
2
  6
CONTINUOUS
 10
71.4544690358
 20
82.0044437331
 11
89.733964779
 21
84.4914254655
  0
LINE
  5
4E3
100
AcDbEntity
  8
0
100
AcDbLine
 62
2
  6
CONTINUOUS
 10
109.4016027862
 20
88.8562613482
 11
139.8660200347
 21
92.5370361064
  0
LINE
  5
4E4
100
AcDbEntity
  8
0
100
AcDbLine
 62
2
  6
CONTINUOUS
 10
401.0587865165
 20
85.2705258296
 11
418.8901793276
 21
83.8994707663
  0
LINE
  5
4E5
100
AcDbEntity
  8
0
100
AcDbLine
 62
2
  6
CONTINUOUS
 10
338.1869168563
 20
93.1417883125
 11
367.286278738
 21
90.805012048
  0
LINE
  5
4E6
100
AcDbEntity
  8
0
100
AcDbLine
 62
2
  6
CONTINUOUS
 10
367.286278738
 20
90.805012048
 11
401.0587865165
 21
85.2705258296
  0
LINE
  5
4E7
100
AcDbEntity
  8
0
100
AcDbLine
 62
2
  6
CONTINUOUS
 10
284.0697769855
 20
171.7054656561
 11
289.0697769855
 21
176.7054656561
  0
LINE
  5
4E8
100
AcDbEntity
  8
0
100
AcDbLine
 62
2
  6
CONTINUOUS
 10
89.733964779
 20
84.4914254655
 11
109.4016027862
 21
88.8562613482
  0
LWPOLYLINE
  5
4E9
100
AcDbEntity
  8
0
100
AcDbPolyline
 62
5
  6
CONTINUOUS
 90
3
 70
0
 43
0.5
 10
243.8901909722
 20
77.2444480613
 10
244.8901909722
 20
80.7444480613
 10
245.8901909722
 20
77.2444480613
  0
LWPOLYLINE
  5
4EA
100
AcDbEntity
  8
0
100
AcDbPolyline
 62
5
  6
CONTINUOUS
 90
3
 70
0
 43
0.5
 10
249.3901909722
 20
77.2444480613
 10
250.3901909722
 20
80.7444480613
 10
251.3901909722
 20
77.2444480613
  0
LINE
  5
4EB
100
AcDbEntity
  8
0
100
AcDbLine
 62
7
  6
CONTINUOUS
 10
418.8901793276
 20
160.7054656561
 11
362.8901793276
 21
160.7054656561
  0
LINE
  5
4EC
100
AcDbEntity
  8
ACHSEN
100
AcDbLine
 62
7
  6
CONTINUOUS
 10
68.8901793276
 20
160.7054656561
 11
81.8901793276
 21
160.7054656561
  0
LINE
  5
4ED
100
AcDbEntity
  8
DIMENSIONS
100
AcDbLine
 62
5
  6
CONTINUOUS
 10
58.5541811343
 20
161.8612196181
 11
57.3041811343
 21
161.8612196181
  0
LINE
  5
4EE
100
AcDbEntity
  8
ACHSEN
100
AcDbLine
 62
7
  6
CONTINUOUS
 10
76.8901793276
 20
167.7054656561
 11
68.8901793276
 21
167.7054656561
  0
LINE
  5
4EF
100
AcDbEntity
  8
0
100
AcDbLine
 62
7
  6
CONTINUOUS
 10
362.8901793276
 20
171.7054656561
 11
68.8901793276
 21
171.7054656561
  0
LINE
  5
4F0
100
AcDbEntity
  8
0
100
AcDbLine
 62
7
  6
CONTINUOUS
 10
418.8901793276
 20
176.7054656561
 11
70.8901793276
 21
176.7054656561
  0
LINE
  5
4F1
100
AcDbEntity
  8
0
100
AcDbLine
 62
2
  6
CONTINUOUS
 10
357.1467000624
 20
171.7054656561
 11
362.1467000624
 21
176.7054656561
  0
LINE
  5
4F2
100
AcDbEntity
  8
0
100
AcDbLine
 62
7
  6
CONTINUOUS
 10
362.8901793276
 20
171.7054656561
 11
362.8901793276
 21
160.7054656561
  0
LINE
  5
4F3
100
AcDbEntity
  8
0
100
AcDbLine
 62
7
  6
CONTINUOUS
 10
418.8901793276
 20
176.7054656561
 11
418.8901793276
 21
160.7054656561
  0
LINE
  5
4F4
100
AcDbEntity
  8
KOERPER
100
AcDbLine
 62
7
  6
CONTINUOUS
 10
418.8901793276
 20
83.8994707663
 11
418.8901793276
 21
160.7054656561
  0
ARC
  5
4F5
100
AcDbEntity
  8
ACHSEN
100
AcDbCircle
 62
7
  6
CONTINUOUS
 10
362.8901793276
 20
912.8331221163
 40
15.0
100
AcDbArc
 50
270.0
 51
90.0
  0
ARC
  5
4F6
100
AcDbEntity
  8
ACHSEN
100
AcDbCircle
 62
7
  6
CONTINUOUS
 10
362.8901793276
 20
807.8331221163
 40
15.0
100
AcDbArc
 50
270.0
 51
90.0
  0
ARC
  5
4F7
100
AcDbEntity
  8
0
100
AcDbCircle
 62
7
  6
CONTINUOUS
 10
70.8901793276
 20
174.7054656561
 40
2.0
100
AcDbArc
 50
90.0
 51
180.0
  0
ENDSEC
  0
SECTION
  2
OBJECTS
  0
DICTIONARY
  5
C
100
AcDbDictionary
280
0
281
1
  3
ACAD_GROUP
350
D
  3
ACAD_MLINESTYLE
350
17
  3
ACAD_LAYOUT
350
1A
  3
ACAD_PLOTSETTINGS
350
19
  3
ACAD_PLOTSTYLENAME
350
E
  0
DICTIONARY
  5
D
102
{ACAD_REACTORS
330
C
102
}
100
AcDbDictionary
280
0
281
1
  0
ACDBDICTIONARYWDFLT
  5
E
102
{ACAD_REACTORS
330
C
102
}
100
AcDbDictionary
281
1
  3
Normal
350
F
100
AcDbDictionaryWithDefault
340
F
  0
DICTIONARY
  5
17
102
{ACAD_REACTORS
330
C
102
}
100
AcDbDictionary
280
0
281
1
  3
Standard
350
18
  0
DICTIONARY
  5
19
102
{ACAD_REACTORS
330
C
102
}
100
AcDbDictionary
281
1
  0
DICTIONARY
  5
1A
102
{ACAD_REACTORS
330
C
102
}
100
AcDbDictionary
281
1
  3
Layout1
350
1E
  3
Model
350
22
  0
ACDBPLACEHOLDER
  5
F
102
{ACAD_REACTORS
330
E
102
}
  0
MLINESTYLE
  5
18
102
{ACAD_REACTORS
330
17
102
}
100
AcDbMlineStyle
  2
STANDARD
 70
0
  3

 62
256
 51
90.0
 52
90.0
 71
2
 49
0.5
 62
256
  6
BYLAYER
 49
-0.5
 62
256
  6
BYLAYER
  0
LAYOUT
  5
1E
102
{ACAD_REACTORS
330
1A
102
}
100
AcDbPlotSettings
  1

  2

  4

  6

 40
0.0
 41
0.0
 42
0.0
 43
0.0
 44
0.0
 45
0.0
 46
0.0
 47
0.0
 48
0.0
 49
0.0
140
0.0
141
0.0
142
1.0
143
1.0
 70
0
 72
0
 73
0
 74
0
  7

 75
0
147
1.0
148
0.0
149
0.0
100
AcDbLayout
  1
Layout1
 70
0
 71
0
 10
0.0
 20
0.0
 11
0.0
 21
0.0
 12
0.0
 22
0.0
 32
0.0
 14
0.0
 24
0.0
 34
0.0
 15
0.0
 25
0.0
 35
0.0
146
0.0
 13
0.0
 23
0.0
 33
0.0
 16
0.0
 26
0.0
 36
0.0
 17
0.0
 27
0.0
 37
0.0
 76
0
330
1B
331
0
345
0
346
0
  0
LAYOUT
  5
22
102
{ACAD_REACTORS
330
1A
102
}
100
AcDbPlotSettings
  1

  2

  4

  6

 40
0.0
 41
0.0
 42
0.0
 43
0.0
 44
0.0
 45
0.0
 46
0.0
 47
0.0
 48
0.0
 49
0.0
140
0.0
141
0.0
142
1.0
143
1.0
 70
1024
 72
0
 73
0
 74
0
  7

 75
0
147
1.0
148
0.0
149
0.0
100
AcDbLayout
  1
Model
 70
0
 71
0
 10
0.0
 20
0.0
 11
0.0
 21
0.0
 12
0.0
 22
0.0
 32
0.0
 14
0.0
 24
0.0
 34
0.0
 15
0.0
 25
0.0
 35
0.0
146
0.0
 13
0.0
 23
0.0
 33
0.0
 16
0.0
 26
0.0
 36
0.0
 17
0.0
 27
0.0
 37
0.0
 76
0
330
1F
331
0
345
0
346
0
  0
ENDSEC
  0
EOF
