999
DXF file: korpus_frameline_250_650.dxf
999
Pro/ENGINEER 2009400 by Parametric Technology Corporation
  0
SECTION
  2
HEADER
  9
$ACADVER
  1
AC1015
  9
$DWGCODEPAGE
  3
ANSI_1252
  9
$EXTMAX
 10
500.0
 20
1000.0
 30
0.0
  9
$EXTMIN
 10
0.0
 20
0.0
 30
0.0
  9
$LIMMIN
 10
0.0
 20
0.0
  9
$LIMMAX
 10
500.0
 20
1000.0
  9
$VIEWCTR
 10
250.0
 20
500.0
  9
$VIEWSIZE
 40
1000.0
  9
$CLAYER
  8
0
  9
$LTSCALE
 40
65.1851851852
  9
$CELTYPE
  6
BYLAYER
  9
$DIMSCALE
 40
1.0
  9
$DIMASZ
 40
2.5
  9
$DIMEXO
 40
7.4074074074
  9
$DIMDLI
 40
45.037037037
  9
$DIMEXE
 40
21.3333333333
  9
$DIMCEN
 40
10.6666666667
  9
$DIMLFAC
 40
1.0
  9
$DIMBLK
  1
_FILLED
  9
$DIMTXT
 40
2.5
  9
$DIMTOL
 70
1
  9
$DIMLIM
 70
0
  9
$DIMTFAC
 40
1.0
  9
$DIMTP
 40
0.01
  9
$DIMTM
 40
0.01
  9
$PDMODE
 70
3
  9
$PDSIZE
 40
0.5
  9
$HANDSEED
  5
4EC
  9
$MEASUREMENT
 70
1
  9
$INSUNITS
 70
4
  0
ENDSEC
  0
SECTION
  2
CLASSES
  0
CLASS
  1
ACDBDICTIONARYWDFLT
  2
AcDbDictionaryWithDefault
  3
AutoCAD 2000
 90
0
280
0
281
0
  0
CLASS
  1
ACDBPLACEHOLDER
  2
AcDbPlaceHolder
  3
AutoCAD 2000
 90
0
280
0
281
0
  0
CLASS
  1
LAYOUT
  2
AcDbLayout
  3
AutoCAD 2000
 90
0
280
0
281
0
  0
ENDSEC
  0
SECTION
  2
TABLES
  0
TABLE
  2
VPORT
  5
8
100
AcDbSymbolTable
 70
2
  0
VPORT
  5
1F4
100
AcDbSymbolTableRecord
100
AcDbViewportTableRecord
  2
*ACTIVE
 70
0
 10
0.0
 20
0.0
 11
1.0
 21
1.0
 12
250.0
 22
500.0
 13
0.0
 23
0.0
 14
1.0
 24
1.0
 15
0.0
 25
0.0
 16
0.0
 26
0.0
 36
1.0
 17
0.0
 27
0.0
 37
0.0
 40
1000.0
 41
0.5
 42
50.0
 43
0.0
 44
0.0
 50
0.0
 51
0.0
 71
0
 72
100
 73
1
 74
1
 75
0
 76
0
 77
0
 78
0
  0
ENDTAB
  0
TABLE
  2
LTYPE
  5
5
100
AcDbSymbolTable
 70
6
  0
LTYPE
  5
14
100
AcDbSymbolTableRecord
100
AcDbLinetypeTableRecord
  2
BYBLOCK
 70
0
  3

 72
65
 73
0
 40
0.0
  0
LTYPE
  5
15
100
AcDbSymbolTableRecord
100
AcDbLinetypeTableRecord
  2
BYLAYER
 70
0
  3

 72
65
 73
0
 40
0.0
  0
LTYPE
  5
16
100
AcDbSymbolTableRecord
100
AcDbLinetypeTableRecord
  2
CONTINUOUS
 70
64
  3
Solid line
 72
65
 73
0
 40
0.0
  0
LTYPE
  5
1F5
100
AcDbSymbolTableRecord
100
AcDbLinetypeTableRecord
  2
CENTER
 70
64
  3
____ _ ____ _ ____ _ ____ _ ____ _ ____ _ ____
 72
65
 73
4
 40
0.6
 49
0.375
 74
0
 49
-0.075
 74
0
 49
0.075
 74
0
 49
-0.075
 74
0
  0
LTYPE
  5
1F6
100
AcDbSymbolTableRecord
100
AcDbLinetypeTableRecord
  2
HIDDEN
 70
64
  3
- - - - - - - - - - - - - - - - - - - -
 72
65
 73
2
 40
0.2
 49
0.1
 74
0
 49
-0.1
 74
0
  0
LTYPE
  5
1F7
100
AcDbSymbolTableRecord
100
AcDbLinetypeTableRecord
  2
PHANTOM
 70
64
  3
_____ _ _ _____ _ _ _____ _ _ _____
 72
65
 73
6
 40
0.8
 49
0.45
 74
0
 49
-0.05
 74
0
 49
0.1
 74
0
 49
-0.05
 74
0
 49
0.1
 74
0
 49
-0.05
 74
0
  0
LTYPE
  5
1F8
100
AcDbSymbolTableRecord
100
AcDbLinetypeTableRecord
  2
DOT
 70
64
  3
. . . . . . . . . . . . . . . . . . . .
 72
65
 73
2
 40
0.2
 49
0.1
 74
0
 49
-0.1
 74
0
  0
LTYPE
  5
1F9
100
AcDbSymbolTableRecord
100
AcDbLinetypeTableRecord
  2
DASHED
 70
64
  3
- - - - - - - - - - - - - - - - - - - -
 72
65
 73
2
 40
0.2
 49
0.1
 74
0
 49
-0.1
 74
0
  0
ENDTAB
  0
TABLE
  2
LAYER
  5
2
100
AcDbSymbolTable
 70
36
  0
LAYER
  5
10
100
AcDbSymbolTableRecord
100
AcDbLayerTableRecord
  2
0
 70
0
 62
7
  6
CONTINUOUS
370
-3
390
F
  0
LAYER
  5
1FA
100
AcDbSymbolTableRecord
100
AcDbLayerTableRecord
  2
DEFAULT_1
 70
0
 62
7
  6
CENTER
370
-3
390
F
  0
LAYER
  5
1FB
100
AcDbSymbolTableRecord
100
AcDbLayerTableRecord
  2
DEFAULT_2
 70
0
 62
8
  6
HIDDEN
370
-3
390
F
  0
LAYER
  5
1FC
100
AcDbSymbolTableRecord
100
AcDbLayerTableRecord
  2
DEFAULT_3
 70
0
 62
7
  6
PHANTOM
370
-3
390
F
  0
LAYER
  5
1FD
100
AcDbSymbolTableRecord
100
AcDbLayerTableRecord
  2
_2D_DELETED_OBJS
 70
0
 62
7
  6
CONTINUOUS
370
-3
390
F
  0
LAYER
  5
1FE
100
AcDbSymbolTableRecord
100
AcDbLayerTableRecord
  2
_BLACK_HOLE
 70
0
 62
7
  6
CONTINUOUS
370
-3
390
F
  0
LAYER
  5
1FF
100
AcDbSymbolTableRecord
100
AcDbLayerTableRecord
  2
ACHSEN
 70
0
 62
7
  6
CONTINUOUS
370
-3
390
F
  0
LAYER
  5
200
100
AcDbSymbolTableRecord
100
AcDbLayerTableRecord
  2
AXIS
 70
0
 62
7
  6
CONTINUOUS
370
-3
390
F
  0
LAYER
  5
201
100
AcDbSymbolTableRecord
100
AcDbLayerTableRecord
  2
A_EBENEN
 70
0
 62
7
  6
CONTINUOUS
370
-3
390
F
  0
LAYER
  5
202
100
AcDbSymbolTableRecord
100
AcDbLayerTableRecord
  2
BODIES
 70
0
 62
7
  6
CONTINUOUS
370
-3
390
F
  0
LAYER
  5
203
100
AcDbSymbolTableRecord
100
AcDbLayerTableRecord
  2
BOHRUNGEN
 70
0
 62
7
  6
CONTINUOUS
370
-3
390
F
  0
LAYER
  5
204
100
AcDbSymbolTableRecord
100
AcDbLayerTableRecord
  2
CHAMFER
 70
0
 62
7
  6
CONTINUOUS
370
-3
390
F
  0
LAYER
  5
205
100
AcDbSymbolTableRecord
100
AcDbLayerTableRecord
  2
COSYS
 70
0
 62
7
  6
CONTINUOUS
370
-3
390
F
  0
LAYER
  5
206
100
AcDbSymbolTableRecord
100
AcDbLayerTableRecord
  2
CURVES
 70
0
 62
7
  6
CONTINUOUS
370
-3
390
F
  0
LAYER
  5
207
100
AcDbSymbolTableRecord
100
AcDbLayerTableRecord
  2
DATUM-PLANES
 70
0
 62
7
  6
CONTINUOUS
370
-3
390
F
  0
LAYER
  5
208
100
AcDbSymbolTableRecord
100
AcDbLayerTableRecord
  2
DIMENSIONS
 70
0
 62
7
  6
CONTINUOUS
370
-3
390
F
  0
LAYER
  5
209
100
AcDbSymbolTableRecord
100
AcDbLayerTableRecord
  2
EBENEN
 70
0
 62
7
  6
CONTINUOUS
370
-3
390
F
  0
LAYER
  5
20A
100
AcDbSymbolTableRecord
100
AcDbLayerTableRecord
  2
FASEN
 70
0
 62
7
  6
CONTINUOUS
370
-3
390
F
  0
LAYER
  5
20B
100
AcDbSymbolTableRecord
100
AcDbLayerTableRecord
  2
FLAECHEN
 70
0
 62
7
  6
CONTINUOUS
370
-3
390
F
  0
LAYER
  5
20C
100
AcDbSymbolTableRecord
100
AcDbLayerTableRecord
  2
GEWINDE
 70
0
 62
7
  6
CONTINUOUS
370
-3
390
F
  0
LAYER
  5
20D
100
AcDbSymbolTableRecord
100
AcDbLayerTableRecord
  2
HOLES
 70
0
 62
7
  6
CONTINUOUS
370
-3
390
F
  0
LAYER
  5
20E
100
AcDbSymbolTableRecord
100
AcDbLayerTableRecord
  2
KOERPER
 70
0
 62
7
  6
CONTINUOUS
370
-3
390
F
  0
LAYER
  5
20F
100
AcDbSymbolTableRecord
100
AcDbLayerTableRecord
  2
KOORDSYS
 70
0
 62
7
  6
CONTINUOUS
370
-3
390
F
  0
LAYER
  5
210
100
AcDbSymbolTableRecord
100
AcDbLayerTableRecord
  2
KURVEN
 70
0
 62
7
  6
CONTINUOUS
370
-3
390
F
  0
LAYER
  5
211
100
AcDbSymbolTableRecord
100
AcDbLayerTableRecord
  2
ORI_FL
 70
0
 62
7
  6
CONTINUOUS
370
-3
390
F
  0
LAYER
  5
212
100
AcDbSymbolTableRecord
100
AcDbLayerTableRecord
  2
POINTS
 70
0
 62
7
  6
CONTINUOUS
370
-3
390
F
  0
LAYER
  5
213
100
AcDbSymbolTableRecord
100
AcDbLayerTableRecord
  2
PUNKTE
 70
0
 62
7
  6
CONTINUOUS
370
-3
390
F
  0
LAYER
  5
214
100
AcDbSymbolTableRecord
100
AcDbLayerTableRecord
  2
QUILTS
 70
0
 62
7
  6
CONTINUOUS
370
-3
390
F
  0
LAYER
  5
215
100
AcDbSymbolTableRecord
100
AcDbLayerTableRecord
  2
ROUNDS
 70
0
 62
7
  6
CONTINUOUS
370
-3
390
F
  0
LAYER
  5
216
100
AcDbSymbolTableRecord
100
AcDbLayerTableRecord
  2
RUNDUNGEN
 70
0
 62
7
  6
CONTINUOUS
370
-3
390
F
  0
LAYER
  5
217
100
AcDbSymbolTableRecord
100
AcDbLayerTableRecord
  2
S-EBENEN
 70
0
 62
7
  6
CONTINUOUS
370
-3
390
F
  0
LAYER
  5
218
100
AcDbSymbolTableRecord
100
AcDbLayerTableRecord
  2
S-KOORDINATENSYSTEM
 70
0
 62
7
  6
CONTINUOUS
370
-3
390
F
  0
LAYER
  5
219
100
AcDbSymbolTableRecord
100
AcDbLayerTableRecord
  2
SAMMELFLAECHEN
 70
0
 62
7
  6
CONTINUOUS
370
-3
390
F
  0
LAYER
  5
21A
100
AcDbSymbolTableRecord
100
AcDbLayerTableRecord
  2
SKETCH
 70
0
 62
7
  6
CONTINUOUS
370
-3
390
F
  0
LAYER
  5
21B
100
AcDbSymbolTableRecord
100
AcDbLayerTableRecord
  2
SOLIDS
 70
0
 62
7
  6
CONTINUOUS
370
-3
390
F
  0
LAYER
  5
21C
100
AcDbSymbolTableRecord
100
AcDbLayerTableRecord
  2
SURFACES
 70
0
 62
7
  6
CONTINUOUS
370
-3
390
F
  0
LAYER
  5
21D
100
AcDbSymbolTableRecord
100
AcDbLayerTableRecord
  2
TEMP_QUILTS
 70
0
 62
7
  6
CONTINUOUS
370
-3
390
F
  0
LAYER
  5
21E
100
AcDbSymbolTableRecord
100
AcDbLayerTableRecord
  2
XSEC_DATUMS
 70
0
 62
7
  6
CONTINUOUS
370
-3
390
F
  0
ENDTAB
  0
TABLE
  2
STYLE
  5
3
100
AcDbSymbolTable
 70
1
  0
STYLE
  5
11
100
AcDbSymbolTableRecord
100
AcDbTextStyleTableRecord
  2
STANDARD
 70
0
 40
0.0
 41
0.8
 50
0.0
 71
0
 42
0.2
  3
txt
  4

  0
ENDTAB
  0
TABLE
  2
VIEW
  5
6
100
AcDbSymbolTable
 70
0
  0
ENDTAB
  0
TABLE
  2
UCS
  5
7
100
AcDbSymbolTable
 70
0
  0
ENDTAB
  0
TABLE
  2
APPID
  5
9
100
AcDbSymbolTable
 70
1
  0
APPID
  5
21F
100
AcDbSymbolTableRecord
100
AcDbRegAppTableRecord
  2
ACAD
 70
0
  0
ENDTAB
  0
TABLE
  2
BLOCK_RECORD
  5
1
100
AcDbSymbolTable
 70
0
  0
BLOCK_RECORD
  5
1F
100
AcDbSymbolTableRecord
100
AcDbBlockTableRecord
  2
*MODEL_SPACE
  0
BLOCK_RECORD
  5
1B
100
AcDbSymbolTableRecord
100
AcDbBlockTableRecord
  2
*PAPER_SPACE
  0
BLOCK_RECORD
  5
220
100
AcDbSymbolTableRecord
100
AcDbBlockTableRecord
  2
_FILLED
  0
BLOCK_RECORD
  5
221
100
AcDbSymbolTableRecord
100
AcDbBlockTableRecord
  2
*D0
  0
BLOCK_RECORD
  5
222
100
AcDbSymbolTableRecord
100
AcDbBlockTableRecord
  2
*D1
  0
BLOCK_RECORD
  5
223
100
AcDbSymbolTableRecord
100
AcDbBlockTableRecord
  2
*D2
  0
BLOCK_RECORD
  5
224
100
AcDbSymbolTableRecord
100
AcDbBlockTableRecord
  2
*D3
  0
BLOCK_RECORD
  5
225
100
AcDbSymbolTableRecord
100
AcDbBlockTableRecord
  2
*D4
  0
BLOCK_RECORD
  5
226
100
AcDbSymbolTableRecord
100
AcDbBlockTableRecord
  2
*D5
  0
ENDTAB
  0
TABLE
  2
DIMSTYLE
  5
A
100
AcDbSymbolTable
 70
1
100
AcDbDimStyleTable
 71
0
  0
DIMSTYLE
105
227
100
AcDbSymbolTableRecord
100
AcDbDimStyleTableRecord
  2
STANDARD
 70
0
  3

  4

 40
1.0
 41
2.5
 42
0.0625
 43
0.38
 44
0.18
 45
0.0
 46
0.0
 47
0.01
 48
0.01
140
2.5
141
0.09
142
0.0
143
25.4
144
1.0
145
0.0
146
1.0
147
0.09
 71
1.0
 72
0.0
 73
0
 74
0
 75
0
 76
0
 77
1
 78
8
170
0
171
2
172
0
173
0
174
0
175
0
176
0
177
0
178
5
270
2
271
2
272
2
273
2
274
2
275
0
280
0
281
0
282
0
283
1
284
8
285
0
286
0
287
3
288
0
340
11
341
220
342
220
343
220
344
220
  0
DIMSTYLE
105
228
100
AcDbSymbolTableRecord
100
AcDbDimStyleTableRecord
  2
DIMSTYLE_1
 70
0
  3

  4

 40
1.0
 41
2.5
 42
0.0625
 43
0.38
 44
0.18
 45
0.0
 46
0.0
 47
0.2
 48
0.2
140
2.5
141
0.09
142
0.0
143
25.4
144
1.0
145
0.0
146
1.0
147
0.09
 71
0.0
 72
0.0
 73
0
 74
0
 75
0
 76
0
 77
1
 78
8
170
0
171
2
172
0
173
0
174
0
175
0
176
0
177
0
178
5
270
2
271
2
272
2
273
2
274
2
275
0
280
0
281
0
282
0
283
1
284
8
285
0
286
0
287
3
288
0
340
11
341
220
342
220
343
220
344
220
  0
DIMSTYLE
105
229
100
AcDbSymbolTableRecord
100
AcDbDimStyleTableRecord
  2
DIMSTYLE_2
 70
0
  3

  4

 40
1.0
 41
2.5
 42
0.0625
 43
0.38
 44
0.18
 45
0.0
 46
0.0
 47
0.3
 48
0.3
140
2.5
141
0.09
142
0.0
143
25.4
144
1.0
145
0.0
146
1.0
147
0.09
 71
0.0
 72
0.0
 73
0
 74
0
 75
0
 76
0
 77
1
 78
8
170
0
171
2
172
0
173
0
174
0
175
0
176
0
177
0
178
5
270
2
271
2
272
2
273
2
274
2
275
0
280
0
281
0
282
0
283
1
284
8
285
0
286
0
287
3
288
0
340
11
341
220
342
220
343
220
344
220
  0
DIMSTYLE
105
22A
100
AcDbSymbolTableRecord
100
AcDbDimStyleTableRecord
  2
DIMSTYLE_3
 70
0
  3

  4

 40
1.0
 41
2.5
 42
0.0625
 43
0.38
 44
0.18
 45
0.0
 46
0.0
 47
0.5
 48
0.5
140
2.5
141
0.09
142
0.0
143
25.4
144
1.0
145
0.0
146
1.0
147
0.09
 71
0.0
 72
0.0
 73
0
 74
0
 75
0
 76
0
 77
1
 78
8
170
0
171
2
172
0
173
0
174
0
175
0
176
0
177
0
178
5
270
2
271
2
272
2
273
2
274
2
275
0
280
0
281
0
282
0
283
1
284
8
285
0
286
0
287
3
288
0
340
11
341
220
342
220
343
220
344
220
  0
DIMSTYLE
105
22B
100
AcDbSymbolTableRecord
100
AcDbDimStyleTableRecord
  2
DIMSTYLE_4
 70
0
  3

  4

 40
1.0
 41
2.5
 42
0.0625
 43
0.38
 44
0.18
 45
0.0
 46
0.0
 47
0.1
 48
0.1
140
2.5
141
0.09
142
0.0
143
25.4
144
1.0
145
0.0
146
1.0
147
0.09
 71
0.0
 72
0.0
 73
0
 74
0
 75
0
 76
0
 77
1
 78
8
170
0
171
2
172
0
173
0
174
0
175
0
176
0
177
0
178
5
270
2
271
2
272
2
273
2
274
2
275
0
280
0
281
0
282
0
283
1
284
8
285
0
286
0
287
3
288
0
340
11
341
220
342
220
343
220
344
220
  0
ENDTAB
  0
ENDSEC
  0
SECTION
  2
BLOCKS
  0
BLOCK
  5
20
100
AcDbEntity
  8
0
100
AcDbBlockBegin
  2
*MODEL_SPACE
 70
0
 10
0.0
 20
0.0
 30
0.0
  3
*MODEL_SPACE
  1

  0
ENDBLK
  5
21
100
AcDbEntity
  8
0
100
AcDbBlockEnd
  0
BLOCK
  5
1C
100
AcDbEntity
  8
0
100
AcDbBlockBegin
  2
*PAPER_SPACE
 70
0
 10
0.0
 20
0.0
 30
0.0
  3
*PAPER_SPACE
  1

  0
ENDBLK
  5
1D
100
AcDbEntity
  8
0
100
AcDbBlockEnd
  0
BLOCK
  5
22C
100
AcDbEntity
  8
DIMENSIONS
100
AcDbBlockBegin
 62
2
  6
CONTINUOUS
  2
*D0
 70
65
 10
0.0
 20
0.0
  3
*D0
  1

  0
LINE
  5
22D
100
AcDbEntity
  8
DIMENSIONS
100
AcDbLine
 62
2
  6
CONTINUOUS
 10
76.4834308611
 20
958.7482770001
 11
66.4834308611
 21
958.7482770001
  0
LINE
  5
22E
100
AcDbEntity
  8
DIMENSIONS
100
AcDbLine
 62
2
  6
CONTINUOUS
 10
76.4834308611
 20
939.7482770001
 11
66.4834308611
 21
939.7482770001
  0
LINE
  5
22F
100
AcDbEntity
  8
DIMENSIONS
100
AcDbLine
 62
2
  6
CONTINUOUS
 10
67.4834308611
 20
958.7482770001
 11
67.4834308611
 21
949.2482770001
  0
LINE
  5
230
100
AcDbEntity
  8
DIMENSIONS
100
AcDbLine
 62
2
  6
CONTINUOUS
 10
67.4834308611
 20
939.7482770001
 11
67.4834308611
 21
949.2482770001
  0
INSERT
  5
231
100
AcDbEntity
  8
DIMENSIONS
100
AcDbBlockReference
 62
2
  6
CONTINUOUS
  2
_FILLED
 10
67.4834308611
 20
958.7482770001
 41
2.5
 42
2.5
 43
2.5
 50
90.0
  0
INSERT
  5
232
100
AcDbEntity
  8
DIMENSIONS
100
AcDbBlockReference
 62
2
  6
CONTINUOUS
  2
_FILLED
 10
67.4834308611
 20
939.7482770001
 41
2.5
 42
2.5
 43
2.5
 50
270.0
  0
ENDBLK
  5
233
100
AcDbEntity
  8
0
  6
BYBLOCK
 62
0
100
AcDbBlockEnd
  0
BLOCK
  5
234
100
AcDbEntity
  8
DIMENSIONS
100
AcDbBlockBegin
 62
2
  6
CONTINUOUS
  2
*D1
 70
65
 10
0.0
 20
0.0
  3
*D1
  1

  0
LINE
  5
235
100
AcDbEntity
  8
DIMENSIONS
100
AcDbLine
 62
2
  6
CONTINUOUS
 10
76.4834308611
 20
939.7482770001
 11
66.4834308611
 21
939.7482770001
  0
LINE
  5
236
100
AcDbEntity
  8
DIMENSIONS
100
AcDbLine
 62
2
  6
CONTINUOUS
 10
76.4834308611
 20
838.7482770001
 11
66.4834308611
 21
838.7482770001
  0
LINE
  5
237
100
AcDbEntity
  8
DIMENSIONS
100
AcDbLine
 62
2
  6
CONTINUOUS
 10
67.4834308611
 20
939.7482770001
 11
67.4834308611
 21
889.2482770001
  0
LINE
  5
238
100
AcDbEntity
  8
DIMENSIONS
100
AcDbLine
 62
2
  6
CONTINUOUS
 10
67.4834308611
 20
838.7482770001
 11
67.4834308611
 21
889.2482770001
  0
INSERT
  5
239
100
AcDbEntity
  8
DIMENSIONS
100
AcDbBlockReference
 62
2
  6
CONTINUOUS
  2
_FILLED
 10
67.4834308611
 20
939.7482770001
 41
2.5
 42
2.5
 43
2.5
 50
90.0
  0
INSERT
  5
23A
100
AcDbEntity
  8
DIMENSIONS
100
AcDbBlockReference
 62
2
  6
CONTINUOUS
  2
_FILLED
 10
67.4834308611
 20
838.7482770001
 41
2.5
 42
2.5
 43
2.5
 50
270.0
  0
ENDBLK
  5
23B
100
AcDbEntity
  8
0
  6
BYBLOCK
 62
0
100
AcDbBlockEnd
  0
BLOCK
  5
23C
100
AcDbEntity
  8
DIMENSIONS
100
AcDbBlockBegin
 62
2
  6
CONTINUOUS
  2
*D2
 70
65
 10
0.0
 20
0.0
  3
*D2
  1

  0
LINE
  5
23D
100
AcDbEntity
  8
DIMENSIONS
100
AcDbLine
 62
2
  6
CONTINUOUS
 10
77.4834308611
 20
959.7482770001
 11
77.4834308611
 21
972.4907422106
  0
LINE
  5
23E
100
AcDbEntity
  8
DIMENSIONS
100
AcDbLine
 62
2
  6
CONTINUOUS
 10
371.4834308611
 20
910.7482770001
 11
371.4834308611
 21
972.4907422106
  0
LINE
  5
23F
100
AcDbEntity
  8
DIMENSIONS
100
AcDbLine
 62
2
  6
CONTINUOUS
 10
77.4834308611
 20
971.4907422106
 11
224.4834308611
 21
971.4907422106
  0
LINE
  5
240
100
AcDbEntity
  8
DIMENSIONS
100
AcDbLine
 62
2
  6
CONTINUOUS
 10
371.4834308611
 20
971.4907422106
 11
224.4834308611
 21
971.4907422106
  0
INSERT
  5
241
100
AcDbEntity
  8
DIMENSIONS
100
AcDbBlockReference
 62
2
  6
CONTINUOUS
  2
_FILLED
 10
77.4834308611
 20
971.4907422106
 41
2.5
 42
2.5
 43
2.5
 50
180.0
  0
INSERT
  5
242
100
AcDbEntity
  8
DIMENSIONS
100
AcDbBlockReference
 62
2
  6
CONTINUOUS
  2
_FILLED
 10
371.4834308611
 20
971.4907422106
 41
2.5
 42
2.5
 43
2.5
  0
ENDBLK
  5
243
100
AcDbEntity
  8
0
  6
BYBLOCK
 62
0
100
AcDbBlockEnd
  0
BLOCK
  5
244
100
AcDbEntity
  8
DIMENSIONS
100
AcDbBlockBegin
 62
2
  6
CONTINUOUS
  2
*D3
 70
65
 10
0.0
 20
0.0
  3
*D3
  1

  0
LINE
  5
245
100
AcDbEntity
  8
DIMENSIONS
100
AcDbLine
 62
2
  6
CONTINUOUS
 10
76.4834308611
 20
196.9420002125
 11
64.1649137742
 21
196.9420002125
  0
LINE
  5
246
100
AcDbEntity
  8
DIMENSIONS
100
AcDbLine
 62
2
  6
CONTINUOUS
 10
78.4834308611
 20
201.9420002125
 11
64.1649137742
 21
201.9420002125
  0
LINE
  5
247
100
AcDbEntity
  8
DIMENSIONS
100
AcDbLine
 62
2
  6
CONTINUOUS
 10
65.1649137742
 20
196.9420002125
 11
65.1649137742
 21
189.4420002125
  0
LINE
  5
248
100
AcDbEntity
  8
DIMENSIONS
100
AcDbLine
 62
2
  6
CONTINUOUS
 10
65.1649137742
 20
189.4420002125
 11
65.1649137742
 21
199.4420002125
  0
LINE
  5
249
100
AcDbEntity
  8
DIMENSIONS
100
AcDbLine
 62
2
  6
CONTINUOUS
 10
65.1649137742
 20
201.9420002125
 11
65.1649137742
 21
209.4420002125
  0
LINE
  5
24A
100
AcDbEntity
  8
DIMENSIONS
100
AcDbLine
 62
2
  6
CONTINUOUS
 10
65.1649137742
 20
209.4420002125
 11
65.1649137742
 21
199.4420002125
  0
INSERT
  5
24B
100
AcDbEntity
  8
DIMENSIONS
100
AcDbBlockReference
 62
2
  6
CONTINUOUS
  2
_FILLED
 10
65.1649137742
 20
196.9420002125
 41
2.5
 42
2.5
 43
2.5
 50
90.0
  0
INSERT
  5
24C
100
AcDbEntity
  8
DIMENSIONS
100
AcDbBlockReference
 62
2
  6
CONTINUOUS
  2
_FILLED
 10
65.1649137742
 20
201.9420002125
 41
2.5
 42
2.5
 43
2.5
 50
270.0
  0
ENDBLK
  5
24D
100
AcDbEntity
  8
0
  6
BYBLOCK
 62
0
100
AcDbBlockEnd
  0
BLOCK
  5
24E
100
AcDbEntity
  8
DIMENSIONS
100
AcDbBlockBegin
 62
2
  6
CONTINUOUS
  2
*D4
 70
65
 10
0.0
 20
0.0
  3
*D4
  1

  0
LINE
  5
24F
100
AcDbEntity
  8
DIMENSIONS
100
AcDbLine
 62
2
  6
CONTINUOUS
 10
77.1395876626
 20
196.9420002125
 11
68.9020905141
 21
196.9420002125
  0
LINE
  5
250
100
AcDbEntity
  8
DIMENSIONS
100
AcDbLine
 62
2
  6
CONTINUOUS
 10
77.0698391583
 20
192.9420002125
 11
68.9020905141
 21
192.9420002125
  0
LINE
  5
251
100
AcDbEntity
  8
DIMENSIONS
100
AcDbLine
 62
2
  6
CONTINUOUS
 10
69.9020905141
 20
196.9420002125
 11
69.9020905141
 21
204.4420002125
  0
LINE
  5
252
100
AcDbEntity
  8
DIMENSIONS
100
AcDbLine
 62
2
  6
CONTINUOUS
 10
69.9020905141
 20
204.4420002125
 11
69.9020905141
 21
194.9420002125
  0
LINE
  5
253
100
AcDbEntity
  8
DIMENSIONS
100
AcDbLine
 62
2
  6
CONTINUOUS
 10
69.9020905141
 20
192.9420002125
 11
69.9020905141
 21
186.3062010813
  0
LINE
  5
254
100
AcDbEntity
  8
DIMENSIONS
100
AcDbLine
 62
2
  6
CONTINUOUS
 10
69.9020905141
 20
186.3062010813
 11
69.9020905141
 21
194.9420002125
  0
INSERT
  5
255
100
AcDbEntity
  8
DIMENSIONS
100
AcDbBlockReference
 62
2
  6
CONTINUOUS
  2
_FILLED
 10
69.9020905141
 20
196.9420002125
 41
2.5
 42
2.5
 43
2.5
 50
270.0
  0
INSERT
  5
256
100
AcDbEntity
  8
DIMENSIONS
100
AcDbBlockReference
 62
2
  6
CONTINUOUS
  2
_FILLED
 10
69.9020905141
 20
192.9420002125
 41
2.5
 42
2.5
 43
2.5
 50
90.0
  0
ENDBLK
  5
257
100
AcDbEntity
  8
0
  6
BYBLOCK
 62
0
100
AcDbBlockEnd
  0
BLOCK
  5
258
100
AcDbEntity
  8
DIMENSIONS
100
AcDbBlockBegin
 62
2
  6
CONTINUOUS
  2
*D5
 70
65
 10
0.0
 20
0.0
  3
*D5
  1

  0
LINE
  5
259
100
AcDbEntity
  8
DIMENSIONS
100
AcDbLine
 62
2
  6
CONTINUOUS
 10
85.4834308611
 20
197.2247234989
 11
85.4834308611
 21
212.7283255809
  0
LINE
  5
25A
100
AcDbEntity
  8
DIMENSIONS
100
AcDbLine
 62
2
  6
CONTINUOUS
 10
77.4834308611
 20
200.9213942303
 11
77.4834308611
 21
212.7283255809
  0
LINE
  5
25B
100
AcDbEntity
  8
DIMENSIONS
100
AcDbLine
 62
2
  6
CONTINUOUS
 10
85.4834308611
 20
211.7283255809
 11
81.4834308611
 21
211.7283255809
  0
LINE
  5
25C
100
AcDbEntity
  8
DIMENSIONS
100
AcDbLine
 62
2
  6
CONTINUOUS
 10
77.4834308611
 20
211.7283255809
 11
81.4834308611
 21
211.7283255809
  0
INSERT
  5
25D
100
AcDbEntity
  8
DIMENSIONS
100
AcDbBlockReference
 62
2
  6
CONTINUOUS
  2
_FILLED
 10
85.4834308611
 20
211.7283255809
 41
2.5
 42
2.5
 43
2.5
  0
INSERT
  5
25E
100
AcDbEntity
  8
DIMENSIONS
100
AcDbBlockReference
 62
2
  6
CONTINUOUS
  2
_FILLED
 10
77.4834308611
 20
211.7283255809
 41
2.5
 42
2.5
 43
2.5
 50
180.0
  0
ENDBLK
  5
25F
100
AcDbEntity
  8
0
  6
BYBLOCK
 62
0
100
AcDbBlockEnd
  0
BLOCK
  5
260
100
AcDbEntity
  8
0
100
AcDbBlockBegin
  2
_FILLED
 70
64
 10
0.0
 20
0.0
  3
_FILLED
  1

  0
SOLID
  5
261
100
AcDbEntity
  8
0
  6
BYBLOCK
 62
0
100
AcDbTrace
 10
0.0
 20
0.0
 11
-1.0
 21
0.15
 12
-1.0
 22
-0.15
 13
-1.0
 23
-0.15
  0
ENDBLK
  5
262
100
AcDbEntity
  8
0
  6
BYBLOCK
 62
0
100
AcDbBlockEnd
  0
ENDSEC
  0
SECTION
  2
ENTITIES
  0
LINE
  5
263
100
AcDbEntity
  8
0
100
AcDbLine
 62
7
  6
CONTINUOUS
 10
450.0142015919
 20
883.7482770001
 11
450.0142015919
 21
901.3482770001
  0
SOLID
  5
264
100
AcDbEntity
  8
0
100
AcDbTrace
 62
7
  6
CONTINUOUS
 10
449.2642015919
 20
887.7482770001
 11
450.0142015919
 21
883.7482770001
 12
450.7642015919
 22
887.7482770001
 13
450.7642015919
 23
887.7482770001
  0
LINE
  5
265
100
AcDbEntity
  8
0
100
AcDbLine
 62
7
  6
CONTINUOUS
 10
54.9526601303
 20
883.7482770001
 11
54.9526601303
 21
901.3482770001
  0
SOLID
  5
266
100
AcDbEntity
  8
0
100
AcDbTrace
 62
7
  6
CONTINUOUS
 10
54.2026601303
 20
887.7482770001
 11
54.9526601303
 21
883.7482770001
 12
55.7026601303
 22
887.7482770001
 13
55.7026601303
 23
887.7482770001
  0
DIMENSION
  5
267
100
AcDbEntity
  8
DIMENSIONS
100
AcDbDimension
 62
2
  6
CONTINUOUS
  2
*D0
 10
67.4834308611
 20
939.7482770001
 11
66.8584308611
 21
947.5518484287
 70
160
 42
19.0
  3
DIMSTYLE_1
100
AcDbAlignedDimension
 13
76.4834308611
 23
958.7482770001
 14
76.4834308611
 24
939.7482770001
 50
270.0
100
AcDbRotatedDimension
  0
DIMENSION
  5
268
100
AcDbEntity
  8
DIMENSIONS
100
AcDbDimension
 62
2
  6
CONTINUOUS
  2
*D1
 10
67.4834308611
 20
838.7482770001
 11
66.8584308611
 21
886.8375627144
 70
160
 42
101.0
  3
DIMSTYLE_2
100
AcDbAlignedDimension
 13
76.4834308611
 23
939.7482770001
 14
76.4834308611
 24
838.7482770001
 50
270.0
100
AcDbRotatedDimension
  0
DIMENSION
  5
269
100
AcDbEntity
  8
DIMENSIONS
100
AcDbDimension
 62
2
  6
CONTINUOUS
  2
*D2
 10
371.4834308611
 20
971.4907422106
 11
221.5370022897
 21
972.1157422106
 70
160
 42
294.0
  3
DIMSTYLE_3
100
AcDbAlignedDimension
 13
77.4834308611
 23
959.7482770001
 14
371.4834308611
 24
910.7482770001
100
AcDbRotatedDimension
  0
DIMENSION
  5
26A
100
AcDbEntity
  8
DIMENSIONS
100
AcDbDimension
 62
2
  6
CONTINUOUS
  2
*D3
 10
65.1649137742
 20
201.9420002125
 11
64.5399137742
 21
198.5491430696
 70
160
 42
5.0
  3
DIMSTYLE_4
100
AcDbAlignedDimension
 13
76.4834308611
 23
196.9420002125
 14
78.4834308611
 24
201.9420002125
 50
90.0
100
AcDbRotatedDimension
  0
DIMENSION
  5
26B
100
AcDbEntity
  8
DIMENSIONS
100
AcDbDimension
 62
2
  6
CONTINUOUS
  2
*D4
 10
69.9020905141
 20
192.9420002125
 11
69.2770905141
 21
186.3062010813
 70
160
 42
4.0
  3
DIMSTYLE_4
100
AcDbAlignedDimension
 13
77.1395876626
 23
196.9420002125
 14
77.0698391583
 24
192.9420002125
 50
270.0
100
AcDbRotatedDimension
  0
DIMENSION
  5
26C
100
AcDbEntity
  8
DIMENSIONS
100
AcDbDimension
 62
2
  6
CONTINUOUS
  2
*D5
 10
77.4834308611
 20
211.7283255809
 11
80.5012880039
 21
212.3533255809
 70
160
 42
8.0
  3
DIMSTYLE_1
100
AcDbAlignedDimension
 13
85.4834308611
 23
197.2247234989
 14
77.4834308611
 24
200.9213942303
 50
180.0
100
AcDbRotatedDimension
  0
SOLID
  5
26D
100
AcDbEntity
  8
0
100
AcDbTrace
 62
5
  6
CONTINUOUS
 10
180.1926741467
 20
873.5225431112
 11
181.52600748
 21
873.6706822171
 12
182.8593408134
 22
873.5225431112
 13
182.8593408134
 23
873.5225431112
  0
SOLID
  5
26E
100
AcDbEntity
  8
0
100
AcDbTrace
 62
5
  6
CONTINUOUS
 10
182.8593408134
 20
873.5225431112
 11
179.0074889615
 21
873.2262422938
 12
180.1926741467
 22
873.5225431112
 13
180.1926741467
 23
873.5225431112
  0
SOLID
  5
26F
100
AcDbEntity
  8
0
100
AcDbTrace
 62
5
  6
CONTINUOUS
 10
179.0074889615
 20
873.2262422938
 11
182.8593408134
 21
873.5225431112
 12
184.0445259986
 22
873.2262422938
 13
184.0445259986
 23
873.2262422938
  0
SOLID
  5
270
100
AcDbEntity
  8
0
100
AcDbTrace
 62
5
  6
CONTINUOUS
 10
184.0445259986
 20
873.2262422938
 11
177.9704519245
 21
872.7818023704
 12
179.0074889615
 22
873.2262422938
 13
179.0074889615
 23
873.2262422938
  0
SOLID
  5
271
100
AcDbEntity
  8
0
100
AcDbTrace
 62
5
  6
CONTINUOUS
 10
177.9704519245
 20
872.7818023704
 11
184.0445259986
 21
873.2262422938
 12
185.0815630356
 22
872.7818023704
 13
185.0815630356
 23
872.7818023704
  0
SOLID
  5
272
100
AcDbEntity
  8
0
100
AcDbTrace
 62
5
  6
CONTINUOUS
 10
185.0815630356
 20
872.7818023704
 11
177.0815630356
 21
872.1892007356
 12
177.9704519245
 22
872.7818023704
 13
177.9704519245
 23
872.7818023704
  0
SOLID
  5
273
100
AcDbEntity
  8
0
100
AcDbTrace
 62
5
  6
CONTINUOUS
 10
177.0815630356
 20
872.1892007356
 11
185.0815630356
 21
872.7818023704
 12
185.9704519245
 22
872.0410525875
 13
185.9704519245
 23
872.0410525875
  0
SOLID
  5
274
100
AcDbEntity
  8
0
100
AcDbTrace
 62
5
  6
CONTINUOUS
 10
181.52600748
 20
871.596608143
 11
180.6371185912
 21
871.4484622554
 12
176.3408222949
 22
871.3003016742
 13
176.3408222949
 23
871.3003016742
  0
SOLID
  5
275
100
AcDbEntity
  8
0
100
AcDbTrace
 62
5
  6
CONTINUOUS
 10
185.9704519245
 20
872.0410525875
 11
181.52600748
 21
871.596608143
 12
176.3408222949
 22
871.3003016742
 13
176.3408222949
 23
871.3003016742
  0
SOLID
  5
276
100
AcDbEntity
  8
0
100
AcDbTrace
 62
5
  6
CONTINUOUS
 10
185.9704519245
 20
872.0410525875
 11
176.3408222949
 21
871.3003016742
 12
177.0815630356
 22
872.1892007356
 13
177.0815630356
 23
872.1892007356
  0
SOLID
  5
277
100
AcDbEntity
  8
0
100
AcDbTrace
 62
5
  6
CONTINUOUS
 10
176.3408222949
 20
871.3003016742
 11
180.6371185912
 21
871.4484622554
 12
179.8963778504
 22
871.3003016742
 13
179.8963778504
 23
871.3003016742
  0
SOLID
  5
278
100
AcDbEntity
  8
0
100
AcDbTrace
 62
5
  6
CONTINUOUS
 10
182.2667482208
 20
871.4484622554
 11
181.52600748
 21
871.596608143
 12
185.9704519245
 22
872.0410525875
 13
185.9704519245
 23
872.0410525875
  0
SOLID
  5
279
100
AcDbEntity
  8
0
100
AcDbTrace
 62
5
  6
CONTINUOUS
 10
183.0074889615
 20
871.3003016742
 11
182.2667482208
 21
871.4484622554
 12
185.9704519245
 22
872.0410525875
 13
185.9704519245
 23
872.0410525875
  0
SOLID
  5
27A
100
AcDbEntity
  8
0
100
AcDbTrace
 62
5
  6
CONTINUOUS
 10
183.0074889615
 20
871.3003016742
 11
185.9704519245
 21
872.0410525875
 12
186.7111926652
 22
871.1521636986
 13
186.7111926652
 23
871.1521636986
  0
SOLID
  5
27B
100
AcDbEntity
  8
0
100
AcDbTrace
 62
5
  6
CONTINUOUS
 10
186.7111926652
 20
871.1521636986
 11
183.6000815541
 21
871.0040155504
 12
183.0074889615
 22
871.3003016742
 13
183.0074889615
 23
871.3003016742
  0
SOLID
  5
27C
100
AcDbEntity
  8
0
100
AcDbTrace
 62
5
  6
CONTINUOUS
 10
179.1556371097
 20
870.8558674023
 11
178.7111926652
 21
870.4114229578
 12
175.7482297023
 22
870.2632827216
 13
175.7482297023
 23
870.2632827216
  0
SOLID
  5
27D
100
AcDbEntity
  8
0
100
AcDbTrace
 62
5
  6
CONTINUOUS
 10
179.8963778504
 20
871.3003016742
 11
179.1556371097
 21
870.8558674023
 12
175.7482297023
 22
870.2632827216
 13
175.7482297023
 23
870.2632827216
  0
SOLID
  5
27E
100
AcDbEntity
  8
0
100
AcDbTrace
 62
5
  6
CONTINUOUS
 10
179.8963778504
 20
871.3003016742
 11
175.7482297023
 21
870.2632827216
 12
176.3408222949
 22
871.3003016742
 13
176.3408222949
 23
871.3003016742
  0
SOLID
  5
27F
100
AcDbEntity
  8
0
100
AcDbTrace
 62
5
  6
CONTINUOUS
 10
184.1926741467
 20
870.559571106
 11
183.6000815541
 21
871.0040155504
 12
186.7111926652
 22
871.1521636986
 13
186.7111926652
 23
871.1521636986
  0
SOLID
  5
280
100
AcDbEntity
  8
0
100
AcDbTrace
 62
5
  6
CONTINUOUS
 10
184.1926741467
 20
870.559571106
 11
186.7111926652
 21
871.1521636986
 12
187.3037852578
 22
870.2632827216
 13
187.3037852578
 23
870.2632827216
  0
SOLID
  5
281
100
AcDbEntity
  8
0
100
AcDbTrace
 62
5
  6
CONTINUOUS
 10
187.3037852578
 20
870.2632827216
 11
184.6371185912
 21
870.1151266615
 12
184.1926741467
 22
870.559571106
 13
184.1926741467
 23
870.559571106
  0
SOLID
  5
282
100
AcDbEntity
  8
0
100
AcDbTrace
 62
5
  6
CONTINUOUS
 10
175.7482297023
 20
870.2632827216
 11
178.7111926652
 21
870.4114229578
 12
178.2667482208
 22
869.8188303652
 13
178.2667482208
 23
869.8188303652
  0
SOLID
  5
283
100
AcDbEntity
  8
0
100
AcDbTrace
 62
5
  6
CONTINUOUS
 10
184.9334148875
 20
869.5225340689
 11
184.6371185912
 21
870.1151266615
 12
187.3037852578
 22
870.2632827216
 13
187.3037852578
 23
870.2632827216
  0
SOLID
  5
284
100
AcDbEntity
  8
0
100
AcDbTrace
 62
5
  6
CONTINUOUS
 10
184.9334148875
 20
869.5225340689
 11
187.3037852578
 21
870.2632827216
 12
187.6000815541
 22
869.2262422938
 13
187.6000815541
 23
869.2262422938
  0
SOLID
  5
285
100
AcDbEntity
  8
0
100
AcDbTrace
 62
5
  6
CONTINUOUS
 10
178.2667482208
 20
869.8188303652
 11
177.8223037763
 21
869.2262422938
 12
175.3037852578
 22
869.0780896245
 13
175.3037852578
 23
869.0780896245
  0
SOLID
  5
286
100
AcDbEntity
  8
0
100
AcDbTrace
 62
5
  6
CONTINUOUS
 10
178.2667482208
 20
869.8188303652
 11
175.3037852578
 21
869.0780896245
 12
175.7482297023
 22
870.2632827216
 13
175.7482297023
 23
870.2632827216
  0
SOLID
  5
287
100
AcDbEntity
  8
0
100
AcDbTrace
 62
5
  6
CONTINUOUS
 10
187.6000815541
 20
869.2262422938
 11
185.0815630356
 21
868.9299414764
 12
184.9334148875
 22
869.5225340689
 13
184.9334148875
 23
869.5225340689
  0
SOLID
  5
288
100
AcDbEntity
  8
0
100
AcDbTrace
 62
5
  6
CONTINUOUS
 10
175.3037852578
 20
869.0780896245
 11
177.8223037763
 21
869.2262422938
 12
177.6741556282
 22
868.4854970319
 13
177.6741556282
 23
868.4854970319
  0
SOLID
  5
289
100
AcDbEntity
  8
0
100
AcDbTrace
 62
5
  6
CONTINUOUS
 10
185.2297111838
 20
868.1892007356
 11
185.0815630356
 21
868.9299414764
 12
187.6000815541
 22
869.2262422938
 13
187.6000815541
 23
869.2262422938
  0
SOLID
  5
28A
100
AcDbEntity
  8
0
100
AcDbTrace
 62
5
  6
CONTINUOUS
 10
185.2297111838
 20
868.1892007356
 11
187.6000815541
 21
869.2262422938
 12
187.7482297023
 22
868.0410525875
 13
187.7482297023
 23
868.0410525875
  0
SOLID
  5
28B
100
AcDbEntity
  8
0
100
AcDbTrace
 62
5
  6
CONTINUOUS
 10
177.6741556282
 20
868.4854970319
 11
175.1556371097
 21
867.8929044393
 12
175.3037852578
 22
869.0780896245
 13
175.3037852578
 23
869.0780896245
  0
SOLID
  5
28C
100
AcDbEntity
  8
0
100
AcDbTrace
 62
5
  6
CONTINUOUS
 10
175.1556371097
 20
867.8929044393
 11
177.6741556282
 21
868.4854970319
 12
177.6741556282
 22
867.596608143
 13
177.6741556282
 23
867.596608143
  0
SOLID
  5
28D
100
AcDbEntity
  8
0
100
AcDbTrace
 62
5
  6
CONTINUOUS
 10
187.7482297023
 20
868.0410525875
 11
185.0815630356
 21
867.4484599949
 12
185.2297111838
 22
868.1892007356
 13
185.2297111838
 23
868.1892007356
  0
SOLID
  5
28E
100
AcDbEntity
  8
0
100
AcDbTrace
 62
5
  6
CONTINUOUS
 10
185.0815630356
 20
867.4484599949
 11
187.7482297023
 21
868.0410525875
 12
187.6000815541
 22
867.0040155504
 13
187.6000815541
 23
867.0040155504
  0
SOLID
  5
28F
100
AcDbEntity
  8
0
100
AcDbTrace
 62
5
  6
CONTINUOUS
 10
187.6000815541
 20
867.0040155504
 11
184.9334148875
 21
866.8558674023
 12
185.0815630356
 22
867.4484599949
 13
185.0815630356
 23
867.4484599949
  0
SOLID
  5
290
100
AcDbEntity
  8
0
100
AcDbTrace
 62
5
  6
CONTINUOUS
 10
184.488970443
 20
866.1151266615
 11
184.9334148875
 21
866.8558674023
 12
187.6000815541
 22
867.0040155504
 13
187.6000815541
 23
867.0040155504
  0
SOLID
  5
291
100
AcDbEntity
  8
0
100
AcDbTrace
 62
5
  6
CONTINUOUS
 10
184.488970443
 20
866.1151266615
 11
187.6000815541
 21
867.0040155504
 12
187.1556371097
 22
865.8188303652
 13
187.1556371097
 23
865.8188303652
  0
SOLID
  5
292
100
AcDbEntity
  8
0
100
AcDbTrace
 62
5
  6
CONTINUOUS
 10
187.1556371097
 20
865.8188303652
 11
184.0445259986
 21
865.3743859208
 12
184.488970443
 22
866.1151266615
 13
184.488970443
 23
866.1151266615
  0
SOLID
  5
293
100
AcDbEntity
  8
0
100
AcDbTrace
 62
5
  6
CONTINUOUS
 10
184.0445259986
 20
865.3743859208
 11
187.1556371097
 21
865.8188303652
 12
187.0074889615
 22
865.2262377726
 13
187.0074889615
 23
865.2262377726
  0
SOLID
  5
294
100
AcDbEntity
  8
0
100
AcDbTrace
 62
5
  6
CONTINUOUS
 10
187.0074889615
 20
865.2262377726
 11
183.7482297023
 21
864.9299414764
 12
184.0445259986
 22
865.3743859208
 13
184.0445259986
 23
865.3743859208
  0
SOLID
  5
295
100
AcDbEntity
  8
0
100
AcDbTrace
 62
5
  6
CONTINUOUS
 10
183.7482297023
 20
864.9299414764
 11
187.0074889615
 21
865.2262377726
 12
186.5630445171
 22
864.6336451801
 13
186.5630445171
 23
864.6336451801
  0
SOLID
  5
296
100
AcDbEntity
  8
0
100
AcDbTrace
 62
5
  6
CONTINUOUS
 10
186.5630445171
 20
864.6336451801
 11
183.3037852578
 21
864.4854970319
 12
183.7482297023
 22
864.9299414764
 13
183.7482297023
 23
864.9299414764
  0
SOLID
  5
297
100
AcDbEntity
  8
0
100
AcDbTrace
 62
5
  6
CONTINUOUS
 10
182.8593408134
 20
864.04106276
 11
183.3037852578
 21
864.4854970319
 12
186.5630445171
 22
864.6336451801
 13
186.5630445171
 23
864.6336451801
  0
SOLID
  5
298
100
AcDbEntity
  8
0
100
AcDbTrace
 62
5
  6
CONTINUOUS
 10
182.8593408134
 20
864.04106276
 11
186.5630445171
 21
864.6336451801
 12
186.1186000726
 22
864.04106276
 13
186.1186000726
 23
864.04106276
  0
SOLID
  5
299
100
AcDbEntity
  8
0
100
AcDbTrace
 62
5
  6
CONTINUOUS
 10
186.1186000726
 20
864.04106276
 11
182.4148963689
 21
863.596608143
 12
182.8593408134
 22
864.04106276
 13
182.8593408134
 23
864.04106276
  0
SOLID
  5
29A
100
AcDbEntity
  8
0
100
AcDbTrace
 62
5
  6
CONTINUOUS
 10
182.4148963689
 20
863.596608143
 11
186.1186000726
 21
864.04106276
 12
185.6741556282
 22
863.3003118467
 13
185.6741556282
 23
863.3003118467
  0
SOLID
  5
29B
100
AcDbEntity
  8
0
100
AcDbTrace
 62
5
  6
CONTINUOUS
 10
185.6741556282
 20
863.3003118467
 11
181.8223037763
 21
863.0040155504
 12
182.4148963689
 22
863.596608143
 13
182.4148963689
 23
863.596608143
  0
SOLID
  5
29C
100
AcDbEntity
  8
0
100
AcDbTrace
 62
5
  6
CONTINUOUS
 10
181.8223037763
 20
863.0040155504
 11
185.6741556282
 21
863.3003118467
 12
185.0815630356
 22
862.7077192541
 13
185.0815630356
 23
862.7077192541
  0
SOLID
  5
29D
100
AcDbEntity
  8
0
100
AcDbTrace
 62
5
  6
CONTINUOUS
 10
185.0815630356
 20
862.7077192541
 11
181.0815630356
 21
862.4114229578
 12
181.8223037763
 22
863.0040155504
 13
181.8223037763
 23
863.0040155504
  0
SOLID
  5
29E
100
AcDbEntity
  8
0
100
AcDbTrace
 62
5
  6
CONTINUOUS
 10
180.488970443
 20
861.8188224533
 11
181.0815630356
 21
862.4114229578
 12
185.0815630356
 22
862.7077192541
 13
185.0815630356
 23
862.7077192541
  0
SOLID
  5
29F
100
AcDbEntity
  8
0
100
AcDbTrace
 62
5
  6
CONTINUOUS
 10
180.488970443
 20
861.8188224533
 11
185.0815630356
 21
862.7077192541
 12
184.1926741467
 22
861.8188224533
 13
184.1926741467
 23
861.8188224533
  0
SOLID
  5
2A0
100
AcDbEntity
  8
0
100
AcDbTrace
 62
5
  6
CONTINUOUS
 10
184.1926741467
 20
861.8188224533
 11
179.6000815541
 21
861.0780896245
 12
180.488970443
 22
861.8188224533
 13
180.488970443
 23
861.8188224533
  0
SOLID
  5
2A1
100
AcDbEntity
  8
0
100
AcDbTrace
 62
5
  6
CONTINUOUS
 10
179.6000815541
 20
861.0780896245
 11
184.1926741467
 21
861.8188224533
 12
183.1556371097
 22
860.9299414764
 13
183.1556371097
 23
860.9299414764
  0
SOLID
  5
2A2
100
AcDbEntity
  8
0
100
AcDbTrace
 62
5
  6
CONTINUOUS
 10
183.1556371097
 20
860.9299414764
 11
178.7111926652
 21
860.3373488838
 12
179.6000815541
 22
861.0780896245
 13
179.6000815541
 23
861.0780896245
  0
SOLID
  5
2A3
100
AcDbEntity
  8
0
100
AcDbTrace
 62
5
  6
CONTINUOUS
 10
178.7111926652
 20
860.3373488838
 11
183.1556371097
 21
860.9299414764
 12
181.9704519245
 22
859.8929044393
 13
181.9704519245
 23
859.8929044393
  0
SOLID
  5
2A4
100
AcDbEntity
  8
0
100
AcDbTrace
 62
5
  6
CONTINUOUS
 10
181.9704519245
 20
859.8929044393
 11
177.8223037763
 21
859.4484599949
 12
178.7111926652
 22
860.3373488838
 13
178.7111926652
 23
860.3373488838
  0
SOLID
  5
2A5
100
AcDbEntity
  8
0
100
AcDbTrace
 62
5
  6
CONTINUOUS
 10
177.8223037763
 20
859.4484599949
 11
181.9704519245
 21
859.8929044393
 12
181.0815630356
 22
859.0040155504
 13
181.0815630356
 23
859.0040155504
  0
SOLID
  5
2A6
100
AcDbEntity
  8
0
100
AcDbTrace
 62
5
  6
CONTINUOUS
 10
181.0815630356
 20
859.0040155504
 11
177.0815630356
 21
858.7077192541
 12
177.8223037763
 22
859.4484599949
 13
177.8223037763
 23
859.4484599949
  0
SOLID
  5
2A7
100
AcDbEntity
  8
0
100
AcDbTrace
 62
5
  6
CONTINUOUS
 10
177.0815630356
 20
858.7077192541
 11
181.0815630356
 21
859.0040155504
 12
180.1926741467
 22
858.4114229578
 13
180.1926741467
 23
858.4114229578
  0
SOLID
  5
2A8
100
AcDbEntity
  8
0
100
AcDbTrace
 62
5
  6
CONTINUOUS
 10
180.1926741467
 20
858.4114229578
 11
176.488970443
 21
858.1151266615
 12
177.0815630356
 22
858.7077192541
 13
177.0815630356
 23
858.7077192541
  0
SOLID
  5
2A9
100
AcDbEntity
  8
0
100
AcDbTrace
 62
5
  6
CONTINUOUS
 10
176.488970443
 20
858.1151266615
 11
180.1926741467
 21
858.4114229578
 12
179.6000815541
 22
857.8188303652
 13
179.6000815541
 23
857.8188303652
  0
SOLID
  5
2AA
100
AcDbEntity
  8
0
100
AcDbTrace
 62
5
  6
CONTINUOUS
 10
179.6000815541
 20
857.8188303652
 11
179.1556371097
 21
857.3743859208
 12
175.6000815541
 22
856.7818020879
 13
175.6000815541
 23
856.7818020879
  0
SOLID
  5
2AB
100
AcDbEntity
  8
0
100
AcDbTrace
 62
5
  6
CONTINUOUS
 10
179.6000815541
 20
857.8188303652
 11
175.6000815541
 21
856.7818020879
 12
176.488970443
 22
858.1151266615
 13
176.488970443
 23
858.1151266615
  0
SOLID
  5
2AC
100
AcDbEntity
  8
0
100
AcDbTrace
 62
5
  6
CONTINUOUS
 10
175.6000815541
 20
856.7818020879
 11
179.1556371097
 21
857.3743859208
 12
178.5630445171
 22
856.7818020879
 13
178.5630445171
 23
856.7818020879
  0
SOLID
  5
2AD
100
AcDbEntity
  8
0
100
AcDbTrace
 62
5
  6
CONTINUOUS
 10
178.1186000726
 20
856.1892021485
 11
187.8963778504
 21
856.1892021485
 12
175.0074889615
 22
855.3003118467
 13
175.0074889615
 23
855.3003118467
  0
SOLID
  5
2AE
100
AcDbEntity
  8
0
100
AcDbTrace
 62
5
  6
CONTINUOUS
 10
178.5630445171
 20
856.7818020879
 11
178.1186000726
 21
856.1892021485
 12
175.0074889615
 22
855.3003118467
 13
175.0074889615
 23
855.3003118467
  0
SOLID
  5
2AF
100
AcDbEntity
  8
0
100
AcDbTrace
 62
5
  6
CONTINUOUS
 10
178.5630445171
 20
856.7818020879
 11
175.0074889615
 21
855.3003118467
 12
175.6000815541
 22
856.7818020879
 13
175.6000815541
 23
856.7818020879
  0
SOLID
  5
2B0
100
AcDbEntity
  8
0
100
AcDbTrace
 62
5
  6
CONTINUOUS
 10
174.8593408134
 20
854.559571106
 11
175.0074889615
 21
855.3003118467
 12
187.8963778504
 22
856.1892021485
 13
187.8963778504
 23
856.1892021485
  0
SOLID
  5
2B1
100
AcDbEntity
  8
0
100
AcDbTrace
 62
5
  6
CONTINUOUS
 10
174.8593408134
 20
853.6706822171
 11
174.8593408134
 21
854.559571106
 12
187.8963778504
 22
856.1892021485
 13
187.8963778504
 23
856.1892021485
  0
SOLID
  5
2B2
100
AcDbEntity
  8
0
100
AcDbTrace
 62
5
  6
CONTINUOUS
 10
174.8593408134
 20
853.6706822171
 11
187.8963778504
 21
856.1892021485
 12
187.8963778504
 22
853.6706822171
 13
187.8963778504
 23
853.6706822171
  0
SOLID
  5
2B3
100
AcDbEntity
  8
0
100
AcDbTrace
 62
5
  6
CONTINUOUS
 10
194.8593408134
 20
870.8558617509
 11
202.5630445171
 21
873.3743813997
 12
202.5630445171
 22
870.8558617509
 13
202.5630445171
 23
870.8558617509
  0
SOLID
  5
2B4
100
AcDbEntity
  8
0
100
AcDbTrace
 62
5
  6
CONTINUOUS
 10
196.488970443
 20
866.8558617509
 11
197.52600748
 21
867.0040155504
 12
198.7111926652
 22
866.8558617509
 13
198.7111926652
 23
866.8558617509
  0
SOLID
  5
2B5
100
AcDbEntity
  8
0
100
AcDbTrace
 62
5
  6
CONTINUOUS
 10
198.7111926652
 20
866.8558617509
 11
195.6000815541
 21
866.559571106
 12
196.488970443
 22
866.8558617509
 13
196.488970443
 23
866.8558617509
  0
SOLID
  5
2B6
100
AcDbEntity
  8
0
100
AcDbTrace
 62
5
  6
CONTINUOUS
 10
195.6000815541
 20
866.559571106
 11
198.7111926652
 21
866.8558617509
 12
199.8963778504
 22
866.4114229578
 13
199.8963778504
 23
866.4114229578
  0
SOLID
  5
2B7
100
AcDbEntity
  8
0
100
AcDbTrace
 62
5
  6
CONTINUOUS
 10
199.8963778504
 20
866.4114229578
 11
194.7111926652
 21
866.1151266615
 12
195.6000815541
 22
866.559571106
 13
195.6000815541
 23
866.559571106
  0
SOLID
  5
2B8
100
AcDbEntity
  8
0
100
AcDbTrace
 62
5
  6
CONTINUOUS
 10
194.7111926652
 20
866.1151266615
 11
199.8963778504
 21
866.4114229578
 12
200.7852667393
 22
865.9669785134
 13
200.7852667393
 23
865.9669785134
  0
SOLID
  5
2B9
100
AcDbEntity
  8
0
100
AcDbTrace
 62
5
  6
CONTINUOUS
 10
200.7852667393
 20
865.9669785134
 11
193.8223037763
 21
865.5225340689
 12
194.7111926652
 22
866.1151266615
 13
194.7111926652
 23
866.1151266615
  0
SOLID
  5
2BA
100
AcDbEntity
  8
0
100
AcDbTrace
 62
5
  6
CONTINUOUS
 10
193.8223037763
 20
865.5225340689
 11
200.7852667393
 21
865.9669785134
 12
201.8223037763
 22
865.0780896245
 13
201.8223037763
 23
865.0780896245
  0
SOLID
  5
2BB
100
AcDbEntity
  8
0
100
AcDbTrace
 62
5
  6
CONTINUOUS
 10
195.7482297023
 20
864.4855026833
 11
196.9334148875
 21
864.6336451801
 12
196.3408222949
 22
864.4855026833
 13
196.3408222949
 23
864.4855026833
  0
SOLID
  5
2BC
100
AcDbEntity
  8
0
100
AcDbTrace
 62
5
  6
CONTINUOUS
 10
197.8223037763
 20
864.4855026833
 11
196.9334148875
 21
864.6336451801
 12
201.8223037763
 22
865.0780896245
 13
201.8223037763
 23
865.0780896245
  0
SOLID
  5
2BD
100
AcDbEntity
  8
0
100
AcDbTrace
 62
5
  6
CONTINUOUS
 10
198.7111926652
 20
864.3373421021
 11
197.8223037763
 21
864.4855026833
 12
201.8223037763
 22
865.0780896245
 13
201.8223037763
 23
865.0780896245
  0
SOLID
  5
2BE
100
AcDbEntity
  8
0
100
AcDbTrace
 62
5
  6
CONTINUOUS
 10
198.7111926652
 20
864.3373421021
 11
201.8223037763
 21
865.0780896245
 12
202.5630445171
 22
864.1892007356
 13
202.5630445171
 23
864.1892007356
  0
SOLID
  5
2BF
100
AcDbEntity
  8
0
100
AcDbTrace
 62
5
  6
CONTINUOUS
 10
202.5630445171
 20
864.1892007356
 11
199.3037852578
 21
863.8929044393
 12
198.7111926652
 22
864.3373421021
 13
198.7111926652
 23
864.3373421021
  0
SOLID
  5
2C0
100
AcDbEntity
  8
0
100
AcDbTrace
 62
5
  6
CONTINUOUS
 10
194.8593408134
 20
864.0410525875
 11
194.1186000726
 21
863.4484622554
 12
191.0074889615
 22
863.1521636986
 13
191.0074889615
 23
863.1521636986
  0
SOLID
  5
2C1
100
AcDbEntity
  8
0
100
AcDbTrace
 62
5
  6
CONTINUOUS
 10
195.3037852578
 20
864.3373421021
 11
194.8593408134
 21
864.0410525875
 12
191.0074889615
 22
863.1521636986
 13
191.0074889615
 23
863.1521636986
  0
SOLID
  5
2C2
100
AcDbEntity
  8
0
100
AcDbTrace
 62
5
  6
CONTINUOUS
 10
195.7482297023
 20
864.4855026833
 11
195.3037852578
 21
864.3373421021
 12
191.0074889615
 22
863.1521636986
 13
191.0074889615
 23
863.1521636986
  0
SOLID
  5
2C3
100
AcDbEntity
  8
0
100
AcDbTrace
 62
5
  6
CONTINUOUS
 10
193.8223037763
 20
865.5225340689
 11
201.8223037763
 21
865.0780896245
 12
196.9334148875
 22
864.6336451801
 13
196.9334148875
 23
864.6336451801
  0
SOLID
  5
2C4
100
AcDbEntity
  8
0
100
AcDbTrace
 62
5
  6
CONTINUOUS
 10
193.8223037763
 20
865.5225340689
 11
196.9334148875
 21
864.6336451801
 12
195.7482297023
 22
864.4855026833
 13
195.7482297023
 23
864.4855026833
  0
SOLID
  5
2C5
100
AcDbEntity
  8
0
100
AcDbTrace
 62
5
  6
CONTINUOUS
 10
193.8223037763
 20
865.5225340689
 11
195.7482297023
 21
864.4855026833
 12
191.0074889615
 22
863.1521636986
 13
191.0074889615
 23
863.1521636986
  0
SOLID
  5
2C6
100
AcDbEntity
  8
0
100
AcDbTrace
 62
5
  6
CONTINUOUS
 10
194.8593408134
 20
870.8558617509
 11
193.8223037763
 21
865.5225340689
 12
191.0074889615
 22
863.1521636986
 13
191.0074889615
 23
863.1521636986
  0
SOLID
  5
2C7
100
AcDbEntity
  8
0
100
AcDbTrace
 62
5
  6
CONTINUOUS
 10
193.0815630356
 20
873.3743813997
 11
202.5630445171
 21
873.3743813997
 12
194.8593408134
 22
870.8558617509
 13
194.8593408134
 23
870.8558617509
  0
SOLID
  5
2C8
100
AcDbEntity
  8
0
100
AcDbTrace
 62
5
  6
CONTINUOUS
 10
194.8593408134
 20
870.8558617509
 11
191.0074889615
 21
863.1521636986
 12
193.0815630356
 22
873.3743813997
 13
193.0815630356
 23
873.3743813997
  0
SOLID
  5
2C9
100
AcDbEntity
  8
0
100
AcDbTrace
 62
5
  6
CONTINUOUS
 10
199.8963778504
 20
863.4484622554
 11
199.3037852578
 21
863.8929044393
 12
202.5630445171
 22
864.1892007356
 13
202.5630445171
 23
864.1892007356
  0
SOLID
  5
2CA
100
AcDbEntity
  8
0
100
AcDbTrace
 62
5
  6
CONTINUOUS
 10
199.8963778504
 20
863.4484622554
 11
202.5630445171
 21
864.1892007356
 12
203.1556371097
 22
863.0040155504
 13
203.1556371097
 23
863.0040155504
  0
SOLID
  5
2CB
100
AcDbEntity
  8
0
100
AcDbTrace
 62
5
  6
CONTINUOUS
 10
191.0074889615
 20
863.1521636986
 11
194.1186000726
 21
863.4484622554
 12
193.52600748
 22
862.8558674023
 13
193.52600748
 23
862.8558674023
  0
SOLID
  5
2CC
100
AcDbEntity
  8
0
100
AcDbTrace
 62
5
  6
CONTINUOUS
 10
203.1556371097
 20
863.0040155504
 11
200.3408222949
 21
862.7077192541
 12
199.8963778504
 22
863.4484622554
 13
199.8963778504
 23
863.4484622554
  0
SOLID
  5
2CD
100
AcDbEntity
  8
0
100
AcDbTrace
 62
5
  6
CONTINUOUS
 10
200.7852667393
 20
861.9669785134
 11
200.3408222949
 21
862.7077192541
 12
203.1556371097
 22
863.0040155504
 13
203.1556371097
 23
863.0040155504
  0
SOLID
  5
2CE
100
AcDbEntity
  8
0
100
AcDbTrace
 62
5
  6
CONTINUOUS
 10
200.7852667393
 20
861.9669785134
 11
203.1556371097
 21
863.0040155504
 12
203.451933406
 22
861.8188303652
 13
203.451933406
 23
861.8188303652
  0
SOLID
  5
2CF
100
AcDbEntity
  8
0
100
AcDbTrace
 62
5
  6
CONTINUOUS
 10
203.451933406
 20
861.8188303652
 11
200.9334148875
 21
861.0780896245
 12
200.7852667393
 22
861.9669785134
 13
200.7852667393
 23
861.9669785134
  0
SOLID
  5
2D0
100
AcDbEntity
  8
0
100
AcDbTrace
 62
5
  6
CONTINUOUS
 10
200.9334148875
 20
861.0780896245
 11
203.451933406
 21
861.8188303652
 12
203.6000815541
 22
860.4854970319
 13
203.6000815541
 23
860.4854970319
  0
SOLID
  5
2D1
100
AcDbEntity
  8
0
100
AcDbTrace
 62
5
  6
CONTINUOUS
 10
203.6000815541
 20
860.4854970319
 11
201.0815630356
 21
860.1892007356
 12
200.9334148875
 22
861.0780896245
 13
200.9334148875
 23
861.0780896245
  0
SOLID
  5
2D2
100
AcDbEntity
  8
0
100
AcDbTrace
 62
5
  6
CONTINUOUS
 10
200.9334148875
 20
859.1521620032
 11
201.0815630356
 21
860.1892007356
 12
203.6000815541
 22
860.4854970319
 13
203.6000815541
 23
860.4854970319
  0
SOLID
  5
2D3
100
AcDbEntity
  8
0
100
AcDbTrace
 62
5
  6
CONTINUOUS
 10
200.9334148875
 20
859.1521620032
 11
203.6000815541
 21
860.4854970319
 12
203.451933406
 22
859.1521620032
 13
203.451933406
 23
859.1521620032
  0
SOLID
  5
2D4
100
AcDbEntity
  8
0
100
AcDbTrace
 62
5
  6
CONTINUOUS
 10
190.7111926652
 20
859.0040155504
 11
193.2297111838
 21
859.1521620032
 12
193.3778593319
 22
858.2632821565
 13
193.3778593319
 23
858.2632821565
  0
SOLID
  5
2D5
100
AcDbEntity
  8
0
100
AcDbTrace
 62
5
  6
CONTINUOUS
 10
203.451933406
 20
859.1521620032
 11
200.7852667393
 21
858.2632821565
 12
200.9334148875
 22
859.1521620032
 13
200.9334148875
 23
859.1521620032
  0
SOLID
  5
2D6
100
AcDbEntity
  8
0
100
AcDbTrace
 62
5
  6
CONTINUOUS
 10
200.7852667393
 20
858.2632821565
 11
203.451933406
 21
859.1521620032
 12
203.1556371097
 22
857.9669785134
 13
203.1556371097
 23
857.9669785134
  0
SOLID
  5
2D7
100
AcDbEntity
  8
0
100
AcDbTrace
 62
5
  6
CONTINUOUS
 10
193.3778593319
 20
858.2632821565
 11
190.8593408134
 21
857.6706822171
 12
190.7111926652
 22
859.0040155504
 13
190.7111926652
 23
859.0040155504
  0
SOLID
  5
2D8
100
AcDbEntity
  8
0
100
AcDbTrace
 62
5
  6
CONTINUOUS
 10
190.8593408134
 20
857.6706822171
 11
193.3778593319
 21
858.2632821565
 12
193.6741556282
 22
857.5225340689
 13
193.6741556282
 23
857.5225340689
  0
SOLID
  5
2D9
100
AcDbEntity
  8
0
100
AcDbTrace
 62
5
  6
CONTINUOUS
 10
203.1556371097
 20
857.9669785134
 11
200.3408222949
 21
857.3743859208
 12
200.7852667393
 22
858.2632821565
 13
200.7852667393
 23
858.2632821565
  0
SOLID
  5
2DA
100
AcDbEntity
  8
0
100
AcDbTrace
 62
5
  6
CONTINUOUS
 10
200.3408222949
 20
857.3743859208
 11
203.1556371097
 21
857.9669785134
 12
202.7111926652
 22
856.7818020879
 13
202.7111926652
 23
856.7818020879
  0
SOLID
  5
2DB
100
AcDbEntity
  8
0
100
AcDbTrace
 62
5
  6
CONTINUOUS
 10
193.6741556282
 20
857.5225340689
 11
193.9704519245
 21
856.7818020879
 12
191.3037852578
 22
856.6336423544
 13
191.3037852578
 23
856.6336423544
  0
SOLID
  5
2DC
100
AcDbEntity
  8
0
100
AcDbTrace
 62
5
  6
CONTINUOUS
 10
193.6741556282
 20
857.5225340689
 11
191.3037852578
 21
856.6336423544
 12
190.8593408134
 22
857.6706822171
 13
190.8593408134
 23
857.6706822171
  0
SOLID
  5
2DD
100
AcDbEntity
  8
0
100
AcDbTrace
 62
5
  6
CONTINUOUS
 10
202.7111926652
 20
856.7818020879
 11
199.8963778504
 21
856.6336423544
 12
200.3408222949
 22
857.3743859208
 13
200.3408222949
 23
857.3743859208
  0
SOLID
  5
2DE
100
AcDbEntity
  8
0
100
AcDbTrace
 62
5
  6
CONTINUOUS
 10
191.3037852578
 20
856.6336423544
 11
193.9704519245
 21
856.7818020879
 12
194.4148963689
 22
856.3373488838
 13
194.4148963689
 23
856.3373488838
  0
SOLID
  5
2DF
100
AcDbEntity
  8
0
100
AcDbTrace
 62
5
  6
CONTINUOUS
 10
194.4148963689
 20
856.3373488838
 11
195.0074889615
 21
855.8929044393
 12
191.7482297023
 22
855.7447622251
 13
191.7482297023
 23
855.7447622251
  0
SOLID
  5
2E0
100
AcDbEntity
  8
0
100
AcDbTrace
 62
5
  6
CONTINUOUS
 10
194.4148963689
 20
856.3373488838
 11
191.7482297023
 21
855.7447622251
 12
191.3037852578
 22
856.6336423544
 13
191.3037852578
 23
856.6336423544
  0
SOLID
  5
2E1
100
AcDbEntity
  8
0
100
AcDbTrace
 62
5
  6
CONTINUOUS
 10
199.3037852578
 20
856.0410525875
 11
199.8963778504
 21
856.6336423544
 12
202.7111926652
 22
856.7818020879
 13
202.7111926652
 23
856.7818020879
  0
SOLID
  5
2E2
100
AcDbEntity
  8
0
100
AcDbTrace
 62
5
  6
CONTINUOUS
 10
198.5630445171
 20
855.7447622251
 11
199.3037852578
 21
856.0410525875
 12
202.7111926652
 22
856.7818020879
 13
202.7111926652
 23
856.7818020879
  0
SOLID
  5
2E3
100
AcDbEntity
  8
0
100
AcDbTrace
 62
5
  6
CONTINUOUS
 10
198.5630445171
 20
855.7447622251
 11
202.7111926652
 21
856.7818020879
 12
201.9704519245
 22
855.7447622251
 13
201.9704519245
 23
855.7447622251
  0
SOLID
  5
2E4
100
AcDbEntity
  8
0
100
AcDbTrace
 62
5
  6
CONTINUOUS
 10
191.7482297023
 20
855.7447622251
 11
195.0074889615
 21
855.8929044393
 12
195.451933406
 22
855.596608143
 13
195.451933406
 23
855.596608143
  0
SOLID
  5
2E5
100
AcDbEntity
  8
0
100
AcDbTrace
 62
5
  6
CONTINUOUS
 10
201.9704519245
 20
855.7447622251
 11
197.8223037763
 21
855.4484622554
 12
198.5630445171
 22
855.7447622251
 13
198.5630445171
 23
855.7447622251
  0
SOLID
  5
2E6
100
AcDbEntity
  8
0
100
AcDbTrace
 62
5
  6
CONTINUOUS
 10
197.8223037763
 20
855.4484622554
 11
201.9704519245
 21
855.7447622251
 12
201.52600748
 22
855.1521636986
 13
201.52600748
 23
855.1521636986
  0
SOLID
  5
2E7
100
AcDbEntity
  8
0
100
AcDbTrace
 62
5
  6
CONTINUOUS
 10
197.8223037763
 20
855.4484622554
 11
201.52600748
 21
855.1521636986
 12
192.488970443
 22
854.8558674023
 13
192.488970443
 23
854.8558674023
  0
SOLID
  5
2E8
100
AcDbEntity
  8
0
100
AcDbTrace
 62
5
  6
CONTINUOUS
 10
196.9334148875
 20
855.4484622554
 11
197.8223037763
 21
855.4484622554
 12
192.488970443
 22
854.8558674023
 13
192.488970443
 23
854.8558674023
  0
SOLID
  5
2E9
100
AcDbEntity
  8
0
100
AcDbTrace
 62
5
  6
CONTINUOUS
 10
196.1926741467
 20
855.4484622554
 11
196.9334148875
 21
855.4484622554
 12
192.488970443
 22
854.8558674023
 13
192.488970443
 23
854.8558674023
  0
SOLID
  5
2EA
100
AcDbEntity
  8
0
100
AcDbTrace
 62
5
  6
CONTINUOUS
 10
195.451933406
 20
855.596608143
 11
196.1926741467
 21
855.4484622554
 12
192.488970443
 22
854.8558674023
 13
192.488970443
 23
854.8558674023
  0
SOLID
  5
2EB
100
AcDbEntity
  8
0
100
AcDbTrace
 62
5
  6
CONTINUOUS
 10
195.451933406
 20
855.596608143
 11
192.488970443
 21
854.8558674023
 12
191.7482297023
 22
855.7447622251
 13
191.7482297023
 23
855.7447622251
  0
SOLID
  5
2EC
100
AcDbEntity
  8
0
100
AcDbTrace
 62
5
  6
CONTINUOUS
 10
192.488970443
 20
854.8558674023
 11
201.52600748
 21
855.1521636986
 12
200.9334148875
 22
854.7077192541
 13
200.9334148875
 23
854.7077192541
  0
SOLID
  5
2ED
100
AcDbEntity
  8
0
100
AcDbTrace
 62
5
  6
CONTINUOUS
 10
200.9334148875
 20
854.7077192541
 11
200.3408222949
 21
854.2632748097
 12
193.52600748
 22
854.1151266615
 13
193.52600748
 23
854.1151266615
  0
SOLID
  5
2EE
100
AcDbEntity
  8
0
100
AcDbTrace
 62
5
  6
CONTINUOUS
 10
200.9334148875
 20
854.7077192541
 11
193.52600748
 21
854.1151266615
 12
192.488970443
 22
854.8558674023
 13
192.488970443
 23
854.8558674023
  0
SOLID
  5
2EF
100
AcDbEntity
  8
0
100
AcDbTrace
 62
5
  6
CONTINUOUS
 10
193.52600748
 20
854.1151266615
 11
200.3408222949
 21
854.2632748097
 12
199.7482297023
 22
853.9669785134
 13
199.7482297023
 23
853.9669785134
  0
SOLID
  5
2F0
100
AcDbEntity
  8
0
100
AcDbTrace
 62
5
  6
CONTINUOUS
 10
199.7482297023
 20
853.9669785134
 11
194.4148963689
 21
853.6706822171
 12
193.52600748
 22
854.1151266615
 13
193.52600748
 23
854.1151266615
  0
SOLID
  5
2F1
100
AcDbEntity
  8
0
100
AcDbTrace
 62
5
  6
CONTINUOUS
 10
198.4148963689
 20
853.6706822171
 11
194.4148963689
 21
853.6706822171
 12
199.7482297023
 22
853.9669785134
 13
199.7482297023
 23
853.9669785134
  0
SOLID
  5
2F2
100
AcDbEntity
  8
0
100
AcDbTrace
 62
5
  6
CONTINUOUS
 10
198.4148963689
 20
853.6706822171
 11
199.7482297023
 21
853.9669785134
 12
199.1556371097
 22
853.6706822171
 13
199.1556371097
 23
853.6706822171
  0
SOLID
  5
2F3
100
AcDbEntity
  8
0
100
AcDbTrace
 62
5
  6
CONTINUOUS
 10
198.4148963689
 20
853.6706822171
 11
195.6000815541
 21
853.5225422193
 12
194.4148963689
 22
853.6706822171
 13
194.4148963689
 23
853.6706822171
  0
SOLID
  5
2F4
100
AcDbEntity
  8
0
100
AcDbTrace
 62
5
  6
CONTINUOUS
 10
195.6000815541
 20
853.5225422193
 11
198.4148963689
 21
853.6706822171
 12
197.6741556282
 22
853.5225422193
 13
197.6741556282
 23
853.5225422193
  0
SOLID
  5
2F5
100
AcDbEntity
  8
0
100
AcDbTrace
 62
5
  6
CONTINUOUS
 10
197.6741556282
 20
853.5225422193
 11
196.9334148875
 21
853.3743859208
 12
195.6000815541
 22
853.5225422193
 13
195.6000815541
 23
853.5225422193
  0
SOLID
  5
2F6
100
AcDbEntity
  8
0
100
AcDbTrace
 62
5
  6
CONTINUOUS
 10
211.451933406
 20
873.5225295478
 11
212.488970443
 21
873.6706822171
 12
213.2297111838
 22
873.5225295478
 13
213.2297111838
 23
873.5225295478
  0
SOLID
  5
2F7
100
AcDbEntity
  8
0
100
AcDbTrace
 62
5
  6
CONTINUOUS
 10
213.2297111838
 20
873.5225295478
 11
210.5630445171
 21
873.3743881814
 12
211.451933406
 22
873.5225295478
 13
211.451933406
 23
873.5225295478
  0
SOLID
  5
2F8
100
AcDbEntity
  8
0
100
AcDbTrace
 62
5
  6
CONTINUOUS
 10
210.5630445171
 20
873.3743881814
 11
213.2297111838
 21
873.5225295478
 12
213.9704519245
 22
873.3743881814
 13
213.9704519245
 23
873.3743881814
  0
SOLID
  5
2F9
100
AcDbEntity
  8
0
100
AcDbTrace
 62
5
  6
CONTINUOUS
 10
213.9704519245
 20
873.3743881814
 11
214.7111926652
 21
873.2262377726
 12
209.6741556282
 22
872.9299392158
 13
209.6741556282
 23
872.9299392158
  0
SOLID
  5
2FA
100
AcDbEntity
  8
0
100
AcDbTrace
 62
5
  6
CONTINUOUS
 10
213.9704519245
 20
873.3743881814
 11
209.6741556282
 21
872.9299392158
 12
210.5630445171
 22
873.3743881814
 13
210.5630445171
 23
873.3743881814
  0
SOLID
  5
2FB
100
AcDbEntity
  8
0
100
AcDbTrace
 62
5
  6
CONTINUOUS
 10
209.6741556282
 20
872.9299392158
 11
214.7111926652
 21
873.2262377726
 12
215.3037852578
 22
872.9299392158
 13
215.3037852578
 23
872.9299392158
  0
SOLID
  5
2FC
100
AcDbEntity
  8
0
100
AcDbTrace
 62
5
  6
CONTINUOUS
 10
215.3037852578
 20
872.9299392158
 11
215.8963778504
 21
872.6336451801
 12
208.9334148875
 22
872.4854970319
 13
208.9334148875
 23
872.4854970319
  0
SOLID
  5
2FD
100
AcDbEntity
  8
0
100
AcDbTrace
 62
5
  6
CONTINUOUS
 10
215.3037852578
 20
872.9299392158
 11
208.9334148875
 21
872.4854970319
 12
209.6741556282
 22
872.9299392158
 13
209.6741556282
 23
872.9299392158
  0
SOLID
  5
2FE
100
AcDbEntity
  8
0
100
AcDbTrace
 62
5
  6
CONTINUOUS
 10
208.9334148875
 20
872.4854970319
 11
215.8963778504
 21
872.6336451801
 12
216.488970443
 22
872.1892007356
 13
216.488970443
 23
872.1892007356
  0
SOLID
  5
2FF
100
AcDbEntity
  8
0
100
AcDbTrace
 62
5
  6
CONTINUOUS
 10
216.488970443
 20
872.1892007356
 11
208.1926741467
 21
871.8929044393
 12
208.9334148875
 22
872.4854970319
 13
208.9334148875
 23
872.4854970319
  0
SOLID
  5
300
100
AcDbEntity
  8
0
100
AcDbTrace
 62
5
  6
CONTINUOUS
 10
212.488970443
 20
871.5966149247
 11
208.1926741467
 21
871.8929044393
 12
216.488970443
 22
872.1892007356
 13
216.488970443
 23
872.1892007356
  0
SOLID
  5
301
100
AcDbEntity
  8
0
100
AcDbTrace
 62
5
  6
CONTINUOUS
 10
212.488970443
 20
871.5966149247
 11
216.488970443
 21
872.1892007356
 12
216.9334148875
 22
871.5966149247
 13
216.9334148875
 23
871.5966149247
  0
SOLID
  5
302
100
AcDbEntity
  8
0
100
AcDbTrace
 62
5
  6
CONTINUOUS
 10
216.9334148875
 20
871.5966149247
 11
213.2297111838
 21
871.4484520829
 12
212.488970443
 22
871.5966149247
 13
212.488970443
 23
871.5966149247
  0
SOLID
  5
303
100
AcDbEntity
  8
0
100
AcDbTrace
 62
5
  6
CONTINUOUS
 10
213.9704519245
 20
871.1521659591
 11
213.2297111838
 21
871.4484520829
 12
216.9334148875
 22
871.5966149247
 13
216.9334148875
 23
871.5966149247
  0
SOLID
  5
304
100
AcDbEntity
  8
0
100
AcDbTrace
 62
5
  6
CONTINUOUS
 10
213.9704519245
 20
871.1521659591
 11
216.9334148875
 21
871.5966149247
 12
217.2297111838
 22
871.1521659591
 13
217.2297111838
 23
871.1521659591
  0
SOLID
  5
305
100
AcDbEntity
  8
0
100
AcDbTrace
 62
5
  6
CONTINUOUS
 10
211.6000815541
 20
871.4484520829
 11
211.0074889615
 21
871.1521659591
 12
207.6000815541
 22
871.0040155504
 13
207.6000815541
 23
871.0040155504
  0
SOLID
  5
306
100
AcDbEntity
  8
0
100
AcDbTrace
 62
5
  6
CONTINUOUS
 10
212.488970443
 20
871.5966149247
 11
211.6000815541
 21
871.4484520829
 12
207.6000815541
 22
871.0040155504
 13
207.6000815541
 23
871.0040155504
  0
SOLID
  5
307
100
AcDbEntity
  8
0
100
AcDbTrace
 62
5
  6
CONTINUOUS
 10
212.488970443
 20
871.5966149247
 11
207.6000815541
 21
871.0040155504
 12
208.1926741467
 22
871.8929044393
 13
208.1926741467
 23
871.8929044393
  0
SOLID
  5
308
100
AcDbEntity
  8
0
100
AcDbTrace
 62
5
  6
CONTINUOUS
 10
207.6000815541
 20
871.0040155504
 11
211.0074889615
 21
871.1521659591
 12
210.2667482208
 22
870.7077192541
 13
210.2667482208
 23
870.7077192541
  0
SOLID
  5
309
100
AcDbEntity
  8
0
100
AcDbTrace
 62
5
  6
CONTINUOUS
 10
217.2297111838
 20
871.1521659591
 11
214.7111926652
 21
870.559571106
 12
213.9704519245
 22
871.1521659591
 13
213.9704519245
 23
871.1521659591
  0
SOLID
  5
30A
100
AcDbEntity
  8
0
100
AcDbTrace
 62
5
  6
CONTINUOUS
 10
214.7111926652
 20
870.559571106
 11
217.2297111838
 21
871.1521659591
 12
217.6741556282
 22
870.4114229578
 13
217.6741556282
 23
870.4114229578
  0
SOLID
  5
30B
100
AcDbEntity
  8
0
100
AcDbTrace
 62
5
  6
CONTINUOUS
 10
210.2667482208
 20
870.7077192541
 11
207.1556371097
 21
870.1151266615
 12
207.6000815541
 22
871.0040155504
 13
207.6000815541
 23
871.0040155504
  0
SOLID
  5
30C
100
AcDbEntity
  8
0
100
AcDbTrace
 62
5
  6
CONTINUOUS
 10
207.1556371097
 20
870.1151266615
 11
210.2667482208
 21
870.7077192541
 12
209.8223037763
 22
870.1151266615
 13
209.8223037763
 23
870.1151266615
  0
SOLID
  5
30D
100
AcDbEntity
  8
0
100
AcDbTrace
 62
5
  6
CONTINUOUS
 10
217.6741556282
 20
870.4114229578
 11
215.3037852578
 21
869.9669785134
 12
214.7111926652
 22
870.559571106
 13
214.7111926652
 23
870.559571106
  0
SOLID
  5
30E
100
AcDbEntity
  8
0
100
AcDbTrace
 62
5
  6
CONTINUOUS
 10
215.3037852578
 20
869.9669785134
 11
217.6741556282
 21
870.4114229578
 12
217.9704519245
 22
869.8188303652
 13
217.9704519245
 23
869.8188303652
  0
SOLID
  5
30F
100
AcDbEntity
  8
0
100
AcDbTrace
 62
5
  6
CONTINUOUS
 10
217.9704519245
 20
869.8188303652
 11
215.6000815541
 21
869.5225340689
 12
215.3037852578
 22
869.9669785134
 13
215.3037852578
 23
869.9669785134
  0
SOLID
  5
310
100
AcDbEntity
  8
0
100
AcDbTrace
 62
5
  6
CONTINUOUS
 10
209.8223037763
 20
870.1151266615
 11
209.52600748
 21
869.6706822171
 12
206.7111926652
 22
869.2262377726
 13
206.7111926652
 23
869.2262377726
  0
SOLID
  5
311
100
AcDbEntity
  8
0
100
AcDbTrace
 62
5
  6
CONTINUOUS
 10
209.8223037763
 20
870.1151266615
 11
206.7111926652
 21
869.2262377726
 12
207.1556371097
 22
870.1151266615
 13
207.1556371097
 23
870.1151266615
  0
SOLID
  5
312
100
AcDbEntity
  8
0
100
AcDbTrace
 62
5
  6
CONTINUOUS
 10
206.7111926652
 20
869.2262377726
 11
209.52600748
 21
869.6706822171
 12
209.2297111838
 22
869.0780896245
 13
209.2297111838
 23
869.0780896245
  0
SOLID
  5
313
100
AcDbEntity
  8
0
100
AcDbTrace
 62
5
  6
CONTINUOUS
 10
215.7482297023
 20
868.9299448672
 11
215.6000815541
 21
869.5225340689
 12
217.9704519245
 22
869.8188303652
 13
217.9704519245
 23
869.8188303652
  0
SOLID
  5
314
100
AcDbEntity
  8
0
100
AcDbTrace
 62
5
  6
CONTINUOUS
 10
215.7482297023
 20
868.9299448672
 11
217.9704519245
 21
869.8188303652
 12
218.2667482208
 22
868.9299448672
 13
218.2667482208
 23
868.9299448672
  0
SOLID
  5
315
100
AcDbEntity
  8
0
100
AcDbTrace
 62
5
  6
CONTINUOUS
 10
218.2667482208
 20
868.9299448672
 11
216.0445259986
 21
868.1891916934
 12
215.7482297023
 22
868.9299448672
 13
215.7482297023
 23
868.9299448672
  0
SOLID
  5
316
100
AcDbEntity
  8
0
100
AcDbTrace
 62
5
  6
CONTINUOUS
 10
216.0445259986
 20
868.1891916934
 11
218.2667482208
 21
868.9299448672
 12
218.5630445171
 22
868.1891916934
 13
218.5630445171
 23
868.1891916934
  0
SOLID
  5
317
100
AcDbEntity
  8
0
100
AcDbTrace
 62
5
  6
CONTINUOUS
 10
209.2297111838
 20
869.0780896245
 11
209.0815630356
 21
868.3373488838
 12
206.4148963689
 22
868.0410525875
 13
206.4148963689
 23
868.0410525875
  0
SOLID
  5
318
100
AcDbEntity
  8
0
100
AcDbTrace
 62
5
  6
CONTINUOUS
 10
209.2297111838
 20
869.0780896245
 11
206.4148963689
 21
868.0410525875
 12
206.7111926652
 22
869.2262377726
 13
206.7111926652
 23
869.2262377726
  0
SOLID
  5
319
100
AcDbEntity
  8
0
100
AcDbTrace
 62
5
  6
CONTINUOUS
 10
206.4148963689
 20
868.0410525875
 11
209.0815630356
 21
868.3373488838
 12
208.9334148875
 22
867.596608143
 13
208.9334148875
 23
867.596608143
  0
SOLID
  5
31A
100
AcDbEntity
  8
0
100
AcDbTrace
 62
5
  6
CONTINUOUS
 10
218.5630445171
 20
868.1891916934
 11
216.1926741467
 21
867.4484599949
 12
216.0445259986
 22
868.1891916934
 13
216.0445259986
 23
868.1891916934
  0
SOLID
  5
31B
100
AcDbEntity
  8
0
100
AcDbTrace
 62
5
  6
CONTINUOUS
 10
216.1926741467
 20
867.4484599949
 11
218.5630445171
 21
868.1891916934
 12
218.7111926652
 22
867.1521636986
 13
218.7111926652
 23
867.1521636986
  0
SOLID
  5
31C
100
AcDbEntity
  8
0
100
AcDbTrace
 62
5
  6
CONTINUOUS
 10
208.9334148875
 20
867.596608143
 11
206.2667482208
 21
866.7077237753
 12
206.4148963689
 22
868.0410525875
 13
206.4148963689
 23
868.0410525875
  0
SOLID
  5
31D
100
AcDbEntity
  8
0
100
AcDbTrace
 62
5
  6
CONTINUOUS
 10
206.2667482208
 20
866.7077237753
 11
208.9334148875
 21
867.596608143
 12
208.7852667393
 22
866.7077237753
 13
208.7852667393
 23
866.7077237753
  0
SOLID
  5
31E
100
AcDbEntity
  8
0
100
AcDbTrace
 62
5
  6
CONTINUOUS
 10
218.7111926652
 20
867.1521636986
 11
216.1926741467
 21
866.7077237753
 12
216.1926741467
 22
867.4484599949
 13
216.1926741467
 23
867.4484599949
  0
SOLID
  5
31F
100
AcDbEntity
  8
0
100
AcDbTrace
 62
5
  6
CONTINUOUS
 10
216.1926741467
 20
866.7077237753
 11
218.7111926652
 21
867.1521636986
 12
218.8593408134
 22
866.1151266615
 13
218.8593408134
 23
866.1151266615
  0
SOLID
  5
320
100
AcDbEntity
  8
0
100
AcDbTrace
 62
5
  6
CONTINUOUS
 10
218.8593408134
 20
866.1151266615
 11
216.3408222949
 21
865.6706844777
 12
216.1926741467
 22
866.7077237753
 13
216.1926741467
 23
866.7077237753
  0
SOLID
  5
321
100
AcDbEntity
  8
0
100
AcDbTrace
 62
5
  6
CONTINUOUS
 10
208.7852667393
 20
866.7077237753
 11
208.6371185912
 21
865.6706844777
 12
206.1186000726
 22
865.0780896245
 13
206.1186000726
 23
865.0780896245
  0
SOLID
  5
322
100
AcDbEntity
  8
0
100
AcDbTrace
 62
5
  6
CONTINUOUS
 10
208.7852667393
 20
866.7077237753
 11
206.1186000726
 21
865.0780896245
 12
206.2667482208
 22
866.7077237753
 13
206.2667482208
 23
866.7077237753
  0
SOLID
  5
323
100
AcDbEntity
  8
0
100
AcDbTrace
 62
5
  6
CONTINUOUS
 10
216.3408222949
 20
865.6706844777
 11
218.8593408134
 21
866.1151266615
 12
218.8593408134
 22
864.7817933282
 13
218.8593408134
 23
864.7817933282
  0
SOLID
  5
324
100
AcDbEntity
  8
0
100
AcDbTrace
 62
5
  6
CONTINUOUS
 10
206.1186000726
 20
865.0780896245
 11
208.6371185912
 21
865.6706844777
 12
208.6371185912
 22
864.6336451801
 13
208.6371185912
 23
864.6336451801
  0
SOLID
  5
325
100
AcDbEntity
  8
0
100
AcDbTrace
 62
5
  6
CONTINUOUS
 10
218.8593408134
 20
864.7817933282
 11
216.3408222949
 21
864.6336451801
 12
216.3408222949
 22
865.6706844777
 13
216.3408222949
 23
865.6706844777
  0
SOLID
  5
326
100
AcDbEntity
  8
0
100
AcDbTrace
 62
5
  6
CONTINUOUS
 10
208.6371185912
 20
864.6336451801
 11
206.1186000726
 21
863.4484633857
 12
206.1186000726
 22
865.0780896245
 13
206.1186000726
 23
865.0780896245
  0
SOLID
  5
327
100
AcDbEntity
  8
0
100
AcDbTrace
 62
5
  6
CONTINUOUS
 10
206.1186000726
 20
863.4484633857
 11
208.6371185912
 21
864.6336451801
 12
208.6371185912
 22
863.4484633857
 13
208.6371185912
 23
863.4484633857
  0
SOLID
  5
328
100
AcDbEntity
  8
0
100
AcDbTrace
 62
5
  6
CONTINUOUS
 10
216.488970443
 20
863.4484633857
 11
216.3408222949
 21
864.6336451801
 12
218.8593408134
 22
864.7817933282
 13
218.8593408134
 23
864.7817933282
  0
SOLID
  5
329
100
AcDbEntity
  8
0
100
AcDbTrace
 62
5
  6
CONTINUOUS
 10
216.488970443
 20
863.4484633857
 11
218.8593408134
 21
864.7817933282
 12
219.0074889615
 22
863.4484633857
 13
219.0074889615
 23
863.4484633857
  0
SOLID
  5
32A
100
AcDbEntity
  8
0
100
AcDbTrace
 62
5
  6
CONTINUOUS
 10
219.0074889615
 20
863.4484633857
 11
216.3408222949
 21
862.2632815914
 12
216.488970443
 22
863.4484633857
 13
216.488970443
 23
863.4484633857
  0
SOLID
  5
32B
100
AcDbEntity
  8
0
100
AcDbTrace
 62
5
  6
CONTINUOUS
 10
208.6371185912
 20
863.4484633857
 11
208.6371185912
 21
862.2632815914
 12
206.1186000726
 22
862.1151266615
 13
206.1186000726
 23
862.1151266615
  0
SOLID
  5
32C
100
AcDbEntity
  8
0
100
AcDbTrace
 62
5
  6
CONTINUOUS
 10
208.6371185912
 20
863.4484633857
 11
206.1186000726
 21
862.1151266615
 12
206.1186000726
 22
863.4484633857
 13
206.1186000726
 23
863.4484633857
  0
SOLID
  5
32D
100
AcDbEntity
  8
0
100
AcDbTrace
 62
5
  6
CONTINUOUS
 10
216.3408222949
 20
862.2632815914
 11
219.0074889615
 21
863.4484633857
 12
218.8593408134
 22
861.8188303652
 13
218.8593408134
 23
861.8188303652
  0
SOLID
  5
32E
100
AcDbEntity
  8
0
100
AcDbTrace
 62
5
  6
CONTINUOUS
 10
206.1186000726
 20
862.1151266615
 11
208.6371185912
 21
862.2632815914
 12
208.6371185912
 22
861.2262422938
 13
208.6371185912
 23
861.2262422938
  0
SOLID
  5
32F
100
AcDbEntity
  8
0
100
AcDbTrace
 62
5
  6
CONTINUOUS
 10
218.8593408134
 20
861.8188303652
 11
216.3408222949
 21
861.2262422938
 12
216.3408222949
 22
862.2632815914
 13
216.3408222949
 23
862.2632815914
  0
SOLID
  5
330
100
AcDbEntity
  8
0
100
AcDbTrace
 62
5
  6
CONTINUOUS
 10
208.6371185912
 20
861.2262422938
 11
206.1186000726
 21
860.7817933282
 12
206.1186000726
 22
862.1151266615
 13
206.1186000726
 23
862.1151266615
  0
SOLID
  5
331
100
AcDbEntity
  8
0
100
AcDbTrace
 62
5
  6
CONTINUOUS
 10
216.3408222949
 20
861.2262422938
 11
218.8593408134
 21
861.8188303652
 12
218.7111926652
 22
860.3373488838
 13
218.7111926652
 23
860.3373488838
  0
SOLID
  5
332
100
AcDbEntity
  8
0
100
AcDbTrace
 62
5
  6
CONTINUOUS
 10
206.1186000726
 20
860.7817933282
 11
208.6371185912
 21
861.2262422938
 12
208.7852667393
 22
860.1892029962
 13
208.7852667393
 23
860.1892029962
  0
SOLID
  5
333
100
AcDbEntity
  8
0
100
AcDbTrace
 62
5
  6
CONTINUOUS
 10
218.7111926652
 20
860.3373488838
 11
216.1926741467
 21
860.1892029962
 12
216.3408222949
 22
861.2262422938
 13
216.3408222949
 23
861.2262422938
  0
SOLID
  5
334
100
AcDbEntity
  8
0
100
AcDbTrace
 62
5
  6
CONTINUOUS
 10
208.7852667393
 20
860.1892029962
 11
206.2667482208
 21
859.7447562912
 12
206.1186000726
 22
860.7817933282
 13
206.1186000726
 23
860.7817933282
  0
SOLID
  5
335
100
AcDbEntity
  8
0
100
AcDbTrace
 62
5
  6
CONTINUOUS
 10
206.2667482208
 20
859.7447562912
 11
208.7852667393
 21
860.1892029962
 12
208.7852667393
 22
859.3003067605
 13
208.7852667393
 23
859.3003067605
  0
SOLID
  5
336
100
AcDbEntity
  8
0
100
AcDbTrace
 62
5
  6
CONTINUOUS
 10
216.1926741467
 20
859.3003067605
 11
216.1926741467
 21
860.1892029962
 12
218.7111926652
 22
860.3373488838
 13
218.7111926652
 23
860.3373488838
  0
SOLID
  5
337
100
AcDbEntity
  8
0
100
AcDbTrace
 62
5
  6
CONTINUOUS
 10
216.1926741467
 20
859.3003067605
 11
218.7111926652
 21
860.3373488838
 12
218.5630445171
 22
859.0040155504
 13
218.5630445171
 23
859.0040155504
  0
SOLID
  5
338
100
AcDbEntity
  8
0
100
AcDbTrace
 62
5
  6
CONTINUOUS
 10
208.7852667393
 20
859.3003067605
 11
206.5630445171
 21
858.5595728014
 12
206.2667482208
 22
859.7447562912
 13
206.2667482208
 23
859.7447562912
  0
SOLID
  5
339
100
AcDbEntity
  8
0
100
AcDbTrace
 62
5
  6
CONTINUOUS
 10
206.5630445171
 20
858.5595728014
 11
208.7852667393
 21
859.3003067605
 12
209.0815630356
 22
858.5595728014
 13
209.0815630356
 23
858.5595728014
  0
SOLID
  5
33A
100
AcDbEntity
  8
0
100
AcDbTrace
 62
5
  6
CONTINUOUS
 10
218.5630445171
 20
859.0040155504
 11
216.0445259986
 21
858.5595728014
 12
216.1926741467
 22
859.3003067605
 13
216.1926741467
 23
859.3003067605
  0
SOLID
  5
33B
100
AcDbEntity
  8
0
100
AcDbTrace
 62
5
  6
CONTINUOUS
 10
215.7482297023
 20
857.9669819042
 11
216.0445259986
 21
858.5595728014
 12
218.5630445171
 22
859.0040155504
 13
218.5630445171
 23
859.0040155504
  0
SOLID
  5
33C
100
AcDbEntity
  8
0
100
AcDbTrace
 62
5
  6
CONTINUOUS
 10
215.7482297023
 20
857.9669819042
 11
218.5630445171
 21
859.0040155504
 12
218.2667482208
 22
857.8188303652
 13
218.2667482208
 23
857.8188303652
  0
SOLID
  5
33D
100
AcDbEntity
  8
0
100
AcDbTrace
 62
5
  6
CONTINUOUS
 10
209.0815630356
 20
858.5595728014
 11
209.2297111838
 21
857.9669819042
 12
206.8593408134
 22
857.6706822171
 13
206.8593408134
 23
857.6706822171
  0
SOLID
  5
33E
100
AcDbEntity
  8
0
100
AcDbTrace
 62
5
  6
CONTINUOUS
 10
209.0815630356
 20
858.5595728014
 11
206.8593408134
 21
857.6706822171
 12
206.5630445171
 22
858.5595728014
 13
206.5630445171
 23
858.5595728014
  0
SOLID
  5
33F
100
AcDbEntity
  8
0
100
AcDbTrace
 62
5
  6
CONTINUOUS
 10
206.8593408134
 20
857.6706822171
 11
209.2297111838
 21
857.9669819042
 12
209.3778593319
 22
857.3743910071
 13
209.3778593319
 23
857.3743910071
  0
SOLID
  5
340
100
AcDbEntity
  8
0
100
AcDbTrace
 62
5
  6
CONTINUOUS
 10
218.2667482208
 20
857.8188303652
 11
215.6000815541
 21
857.3743910071
 12
215.7482297023
 22
857.9669819042
 13
215.7482297023
 23
857.9669819042
  0
SOLID
  5
341
100
AcDbEntity
  8
0
100
AcDbTrace
 62
5
  6
CONTINUOUS
 10
209.3778593319
 20
857.3743910071
 11
209.6741556282
 21
856.9299426066
 12
207.1556371097
 22
856.7818001099
 13
207.1556371097
 23
856.7818001099
  0
SOLID
  5
342
100
AcDbEntity
  8
0
100
AcDbTrace
 62
5
  6
CONTINUOUS
 10
209.3778593319
 20
857.3743910071
 11
207.1556371097
 21
856.7818001099
 12
206.8593408134
 22
857.6706822171
 13
206.8593408134
 23
857.6706822171
  0
SOLID
  5
343
100
AcDbEntity
  8
0
100
AcDbTrace
 62
5
  6
CONTINUOUS
 10
215.3037852578
 20
856.9299426066
 11
215.6000815541
 21
857.3743910071
 12
218.2667482208
 22
857.8188303652
 13
218.2667482208
 23
857.8188303652
  0
SOLID
  5
344
100
AcDbEntity
  8
0
100
AcDbTrace
 62
5
  6
CONTINUOUS
 10
215.3037852578
 20
856.9299426066
 11
218.2667482208
 21
857.8188303652
 12
217.8223037763
 22
856.7818001099
 13
217.8223037763
 23
856.7818001099
  0
SOLID
  5
345
100
AcDbEntity
  8
0
100
AcDbTrace
 62
5
  6
CONTINUOUS
 10
217.8223037763
 20
856.7818001099
 11
214.7111926652
 21
856.3373488838
 12
215.3037852578
 22
856.9299426066
 13
215.3037852578
 23
856.9299426066
  0
SOLID
  5
346
100
AcDbEntity
  8
0
100
AcDbTrace
 62
5
  6
CONTINUOUS
 10
207.1556371097
 20
856.7818001099
 11
209.6741556282
 21
856.9299426066
 12
210.2667482208
 22
856.1892007356
 13
210.2667482208
 23
856.1892007356
  0
SOLID
  5
347
100
AcDbEntity
  8
0
100
AcDbTrace
 62
5
  6
CONTINUOUS
 10
210.2667482208
 20
856.1892007356
 11
207.6000815541
 21
856.0410525875
 12
207.1556371097
 22
856.7818001099
 13
207.1556371097
 23
856.7818001099
  0
SOLID
  5
348
100
AcDbEntity
  8
0
100
AcDbTrace
 62
5
  6
CONTINUOUS
 10
214.7111926652
 20
856.3373488838
 11
217.8223037763
 21
856.7818001099
 12
217.3778593319
 22
855.8929044393
 13
217.3778593319
 23
855.8929044393
  0
SOLID
  5
349
100
AcDbEntity
  8
0
100
AcDbTrace
 62
5
  6
CONTINUOUS
 10
207.6000815541
 20
856.0410525875
 11
210.2667482208
 21
856.1892007356
 12
211.0074889615
 22
855.744760671
 13
211.0074889615
 23
855.744760671
  0
SOLID
  5
34A
100
AcDbEntity
  8
0
100
AcDbTrace
 62
5
  6
CONTINUOUS
 10
217.3778593319
 20
855.8929044393
 11
213.9704519245
 21
855.744760671
 12
214.7111926652
 22
856.3373488838
 13
214.7111926652
 23
856.3373488838
  0
SOLID
  5
34B
100
AcDbEntity
  8
0
100
AcDbTrace
 62
5
  6
CONTINUOUS
 10
212.488970443
 20
855.4484550499
 11
213.2297111838
 21
855.4484550499
 12
208.0445259986
 22
855.3003118467
 13
208.0445259986
 23
855.3003118467
  0
SOLID
  5
34C
100
AcDbEntity
  8
0
100
AcDbTrace
 62
5
  6
CONTINUOUS
 10
211.7482297023
 20
855.4484550499
 11
212.488970443
 21
855.4484550499
 12
208.0445259986
 22
855.3003118467
 13
208.0445259986
 23
855.3003118467
  0
SOLID
  5
34D
100
AcDbEntity
  8
0
100
AcDbTrace
 62
5
  6
CONTINUOUS
 10
211.0074889615
 20
855.744760671
 11
211.7482297023
 21
855.4484550499
 12
208.0445259986
 22
855.3003118467
 13
208.0445259986
 23
855.3003118467
  0
SOLID
  5
34E
100
AcDbEntity
  8
0
100
AcDbTrace
 62
5
  6
CONTINUOUS
 10
211.0074889615
 20
855.744760671
 11
208.0445259986
 21
855.3003118467
 12
207.6000815541
 22
856.0410525875
 13
207.6000815541
 23
856.0410525875
  0
SOLID
  5
34F
100
AcDbEntity
  8
0
100
AcDbTrace
 62
5
  6
CONTINUOUS
 10
213.2297111838
 20
855.4484550499
 11
213.9704519245
 21
855.744760671
 12
217.3778593319
 22
855.8929044393
 13
217.3778593319
 23
855.8929044393
  0
SOLID
  5
350
100
AcDbEntity
  8
0
100
AcDbTrace
 62
5
  6
CONTINUOUS
 10
216.7852667393
 20
855.0040155504
 11
208.0445259986
 21
855.3003118467
 12
213.2297111838
 22
855.4484550499
 13
213.2297111838
 23
855.4484550499
  0
SOLID
  5
351
100
AcDbEntity
  8
0
100
AcDbTrace
 62
5
  6
CONTINUOUS
 10
213.2297111838
 20
855.4484550499
 11
217.3778593319
 21
855.8929044393
 12
216.7852667393
 22
855.0040155504
 13
216.7852667393
 23
855.0040155504
  0
SOLID
  5
352
100
AcDbEntity
  8
0
100
AcDbTrace
 62
5
  6
CONTINUOUS
 10
216.7852667393
 20
855.0040155504
 11
208.488970443
 21
854.8558674023
 12
208.0445259986
 22
855.3003118467
 13
208.0445259986
 23
855.3003118467
  0
SOLID
  5
353
100
AcDbEntity
  8
0
100
AcDbTrace
 62
5
  6
CONTINUOUS
 10
208.9334148875
 20
854.4114158229
 11
208.488970443
 21
854.8558674023
 12
216.7852667393
 22
855.0040155504
 13
216.7852667393
 23
855.0040155504
  0
SOLID
  5
354
100
AcDbEntity
  8
0
100
AcDbTrace
 62
5
  6
CONTINUOUS
 10
208.9334148875
 20
854.4114158229
 11
216.7852667393
 21
855.0040155504
 12
216.0445259986
 22
854.4114158229
 13
216.0445259986
 23
854.4114158229
  0
SOLID
  5
355
100
AcDbEntity
  8
0
100
AcDbTrace
 62
5
  6
CONTINUOUS
 10
216.0445259986
 20
854.4114158229
 11
209.3778593319
 21
854.1151266615
 12
208.9334148875
 22
854.4114158229
 13
208.9334148875
 23
854.4114158229
  0
SOLID
  5
356
100
AcDbEntity
  8
0
100
AcDbTrace
 62
5
  6
CONTINUOUS
 10
209.3778593319
 20
854.1151266615
 11
216.0445259986
 21
854.4114158229
 12
215.3037852578
 22
853.9669785134
 13
215.3037852578
 23
853.9669785134
  0
SOLID
  5
357
100
AcDbEntity
  8
0
100
AcDbTrace
 62
5
  6
CONTINUOUS
 10
215.3037852578
 20
853.9669785134
 11
209.9704519245
 21
853.8188303652
 12
209.3778593319
 22
854.1151266615
 13
209.3778593319
 23
854.1151266615
  0
SOLID
  5
358
100
AcDbEntity
  8
0
100
AcDbTrace
 62
5
  6
CONTINUOUS
 10
210.5630445171
 20
853.6706822171
 11
209.9704519245
 21
853.8188303652
 12
215.3037852578
 22
853.9669785134
 13
215.3037852578
 23
853.9669785134
  0
SOLID
  5
359
100
AcDbEntity
  8
0
100
AcDbTrace
 62
5
  6
CONTINUOUS
 10
210.5630445171
 20
853.6706822171
 11
215.3037852578
 21
853.9669785134
 12
214.4148963689
 22
853.6706822171
 13
214.4148963689
 23
853.6706822171
  0
SOLID
  5
35A
100
AcDbEntity
  8
0
100
AcDbTrace
 62
5
  6
CONTINUOUS
 10
214.4148963689
 20
853.6706822171
 11
211.1556371097
 21
853.5225395526
 12
210.5630445171
 22
853.6706822171
 13
210.5630445171
 23
853.6706822171
  0
SOLID
  5
35B
100
AcDbEntity
  8
0
100
AcDbTrace
 62
5
  6
CONTINUOUS
 10
211.7482297023
 20
853.5225395526
 11
211.1556371097
 21
853.5225395526
 12
214.4148963689
 22
853.6706822171
 13
214.4148963689
 23
853.6706822171
  0
SOLID
  5
35C
100
AcDbEntity
  8
0
100
AcDbTrace
 62
5
  6
CONTINUOUS
 10
211.7482297023
 20
853.5225395526
 11
214.4148963689
 21
853.6706822171
 12
213.52600748
 22
853.5225395526
 13
213.52600748
 23
853.5225395526
  0
SOLID
  5
35D
100
AcDbEntity
  8
0
100
AcDbTrace
 62
5
  6
CONTINUOUS
 10
213.52600748
 20
853.5225395526
 11
212.488970443
 21
853.3743859208
 12
211.7482297023
 22
853.5225395526
 13
211.7482297023
 23
853.5225395526
  0
SOLID
  5
35E
100
AcDbEntity
  8
0
100
AcDbTrace
 62
5
  6
CONTINUOUS
 10
228.6371185912
 20
861.9669785134
 11
220.9334148875
 21
859.596608143
 12
220.9334148875
 22
861.9669785134
 13
220.9334148875
 23
861.9669785134
  0
SOLID
  5
35F
100
AcDbEntity
  8
0
100
AcDbTrace
 62
5
  6
CONTINUOUS
 10
220.9334148875
 20
859.596608143
 11
228.6371185912
 21
861.9669785134
 12
228.6371185912
 22
859.596608143
 13
228.6371185912
 23
859.596608143
  0
SOLID
  5
360
100
AcDbEntity
  8
0
100
AcDbTrace
 62
5
  6
CONTINUOUS
 10
236.7852667393
 20
873.5225295478
 11
237.52600748
 21
873.6706822171
 12
238.7111926652
 22
873.5225295478
 13
238.7111926652
 23
873.5225295478
  0
SOLID
  5
361
100
AcDbEntity
  8
0
100
AcDbTrace
 62
5
  6
CONTINUOUS
 10
236.7852667393
 20
873.5225295478
 11
238.7111926652
 21
873.5225295478
 12
235.3037852578
 22
873.2262445543
 13
235.3037852578
 23
873.2262445543
  0
SOLID
  5
362
100
AcDbEntity
  8
0
100
AcDbTrace
 62
5
  6
CONTINUOUS
 10
236.7852667393
 20
873.5225295478
 11
235.3037852578
 21
873.2262445543
 12
236.0445259986
 22
873.5225295478
 13
236.0445259986
 23
873.5225295478
  0
SOLID
  5
363
100
AcDbEntity
  8
0
100
AcDbTrace
 62
5
  6
CONTINUOUS
 10
235.3037852578
 20
873.2262445543
 11
238.7111926652
 21
873.5225295478
 12
239.7482297023
 22
873.2262445543
 13
239.7482297023
 23
873.2262445543
  0
SOLID
  5
364
100
AcDbEntity
  8
0
100
AcDbTrace
 62
5
  6
CONTINUOUS
 10
239.7482297023
 20
873.2262445543
 11
234.7111926652
 21
873.0780896245
 12
235.3037852578
 22
873.2262445543
 13
235.3037852578
 23
873.2262445543
  0
SOLID
  5
365
100
AcDbEntity
  8
0
100
AcDbTrace
 62
5
  6
CONTINUOUS
 10
234.1186000726
 20
872.7817955888
 11
234.7111926652
 21
873.0780896245
 12
239.7482297023
 22
873.2262445543
 13
239.7482297023
 23
873.2262445543
  0
SOLID
  5
366
100
AcDbEntity
  8
0
100
AcDbTrace
 62
5
  6
CONTINUOUS
 10
234.1186000726
 20
872.7817955888
 11
239.7482297023
 21
873.2262445543
 12
240.6371185912
 22
872.7817955888
 13
240.6371185912
 23
872.7817955888
  0
SOLID
  5
367
100
AcDbEntity
  8
0
100
AcDbTrace
 62
5
  6
CONTINUOUS
 10
240.6371185912
 20
872.7817955888
 11
233.52600748
 21
872.3373488838
 12
234.1186000726
 22
872.7817955888
 13
234.1186000726
 23
872.7817955888
  0
SOLID
  5
368
100
AcDbEntity
  8
0
100
AcDbTrace
 62
5
  6
CONTINUOUS
 10
233.52600748
 20
872.3373488838
 11
240.6371185912
 21
872.7817955888
 12
241.3778593319
 22
872.1892007356
 13
241.3778593319
 23
872.1892007356
  0
SOLID
  5
369
100
AcDbEntity
  8
0
100
AcDbTrace
 62
5
  6
CONTINUOUS
 10
241.3778593319
 20
872.1892007356
 11
232.9334148875
 21
871.8929044393
 12
233.52600748
 22
872.3373488838
 13
233.52600748
 23
872.3373488838
  0
SOLID
  5
36A
100
AcDbEntity
  8
0
100
AcDbTrace
 62
5
  6
CONTINUOUS
 10
237.3778593319
 20
871.5966149247
 11
232.9334148875
 21
871.8929044393
 12
241.3778593319
 22
872.1892007356
 13
241.3778593319
 23
872.1892007356
  0
SOLID
  5
36B
100
AcDbEntity
  8
0
100
AcDbTrace
 62
5
  6
CONTINUOUS
 10
237.3778593319
 20
871.5966149247
 11
241.3778593319
 21
872.1892007356
 12
242.1186000726
 22
871.5966149247
 13
242.1186000726
 23
871.5966149247
  0
SOLID
  5
36C
100
AcDbEntity
  8
0
100
AcDbTrace
 62
5
  6
CONTINUOUS
 10
242.1186000726
 20
871.5966149247
 11
238.1186000726
 21
871.4484520829
 12
237.3778593319
 22
871.5966149247
 13
237.3778593319
 23
871.5966149247
  0
SOLID
  5
36D
100
AcDbEntity
  8
0
100
AcDbTrace
 62
5
  6
CONTINUOUS
 10
237.3778593319
 20
871.5966149247
 11
236.7852667393
 21
871.4484520829
 12
232.488970443
 22
871.3003095862
 13
232.488970443
 23
871.3003095862
  0
SOLID
  5
36E
100
AcDbEntity
  8
0
100
AcDbTrace
 62
5
  6
CONTINUOUS
 10
237.3778593319
 20
871.5966149247
 11
232.488970443
 21
871.3003095862
 12
232.9334148875
 22
871.8929044393
 13
232.9334148875
 23
871.8929044393
  0
SOLID
  5
36F
100
AcDbEntity
  8
0
100
AcDbTrace
 62
5
  6
CONTINUOUS
 10
232.488970443
 20
871.3003095862
 11
236.7852667393
 21
871.4484520829
 12
236.3408222949
 22
871.3003095862
 13
236.3408222949
 23
871.3003095862
  0
SOLID
  5
370
100
AcDbEntity
  8
0
100
AcDbTrace
 62
5
  6
CONTINUOUS
 10
238.7111926652
 20
871.3003095862
 11
238.1186000726
 21
871.4484520829
 12
242.1186000726
 22
871.5966149247
 13
242.1186000726
 23
871.5966149247
  0
SOLID
  5
371
100
AcDbEntity
  8
0
100
AcDbTrace
 62
5
  6
CONTINUOUS
 10
239.3037852578
 20
871.0040155504
 11
238.7111926652
 21
871.3003095862
 12
242.1186000726
 22
871.5966149247
 13
242.1186000726
 23
871.5966149247
  0
SOLID
  5
372
100
AcDbEntity
  8
0
100
AcDbTrace
 62
5
  6
CONTINUOUS
 10
239.3037852578
 20
871.0040155504
 11
242.1186000726
 21
871.5966149247
 12
242.5630445171
 22
870.7077192541
 13
242.5630445171
 23
870.7077192541
  0
SOLID
  5
373
100
AcDbEntity
  8
0
100
AcDbTrace
 62
5
  6
CONTINUOUS
 10
235.7482297023
 20
871.1521636986
 11
235.3037852578
 21
870.8558674023
 12
232.0445259986
 22
870.5595756271
 13
232.0445259986
 23
870.5595756271
  0
SOLID
  5
374
100
AcDbEntity
  8
0
100
AcDbTrace
 62
5
  6
CONTINUOUS
 10
236.3408222949
 20
871.3003095862
 11
235.7482297023
 21
871.1521636986
 12
232.0445259986
 22
870.5595756271
 13
232.0445259986
 23
870.5595756271
  0
SOLID
  5
375
100
AcDbEntity
  8
0
100
AcDbTrace
 62
5
  6
CONTINUOUS
 10
236.3408222949
 20
871.3003095862
 11
232.0445259986
 21
870.5595756271
 12
232.488970443
 22
871.3003095862
 13
232.488970443
 23
871.3003095862
  0
SOLID
  5
376
100
AcDbEntity
  8
0
100
AcDbTrace
 62
5
  6
CONTINUOUS
 10
242.5630445171
 20
870.7077192541
 11
239.7482297023
 21
870.5595756271
 12
239.3037852578
 22
871.0040155504
 13
239.3037852578
 23
871.0040155504
  0
SOLID
  5
377
100
AcDbEntity
  8
0
100
AcDbTrace
 62
5
  6
CONTINUOUS
 10
232.0445259986
 20
870.5595756271
 11
235.3037852578
 21
870.8558674023
 12
234.7111926652
 22
870.4114229578
 13
234.7111926652
 23
870.4114229578
  0
SOLID
  5
378
100
AcDbEntity
  8
0
100
AcDbTrace
 62
5
  6
CONTINUOUS
 10
234.7111926652
 20
870.4114229578
 11
231.6000815541
 21
869.818821323
 12
232.0445259986
 22
870.5595756271
 13
232.0445259986
 23
870.5595756271
  0
SOLID
  5
379
100
AcDbEntity
  8
0
100
AcDbTrace
 62
5
  6
CONTINUOUS
 10
231.6000815541
 20
869.818821323
 11
234.7111926652
 21
870.4114229578
 12
234.2667482208
 22
869.818821323
 13
234.2667482208
 23
869.818821323
  0
SOLID
  5
37A
100
AcDbEntity
  8
0
100
AcDbTrace
 62
5
  6
CONTINUOUS
 10
240.0445259986
 20
870.1151266615
 11
239.7482297023
 21
870.5595756271
 12
242.5630445171
 22
870.7077192541
 13
242.5630445171
 23
870.7077192541
  0
SOLID
  5
37B
100
AcDbEntity
  8
0
100
AcDbTrace
 62
5
  6
CONTINUOUS
 10
240.3408222949
 20
869.6706788263
 11
240.0445259986
 21
870.1151266615
 12
242.5630445171
 22
870.7077192541
 13
242.5630445171
 23
870.7077192541
  0
SOLID
  5
37C
100
AcDbEntity
  8
0
100
AcDbTrace
 62
5
  6
CONTINUOUS
 10
240.3408222949
 20
869.6706788263
 11
242.5630445171
 21
870.7077192541
 12
243.0074889615
 22
869.6706788263
 13
243.0074889615
 23
869.6706788263
  0
SOLID
  5
37D
100
AcDbEntity
  8
0
100
AcDbTrace
 62
5
  6
CONTINUOUS
 10
243.0074889615
 20
869.6706788263
 11
240.488970443
 21
869.0780896245
 12
240.3408222949
 22
869.6706788263
 13
240.3408222949
 23
869.6706788263
  0
SOLID
  5
37E
100
AcDbEntity
  8
0
100
AcDbTrace
 62
5
  6
CONTINUOUS
 10
234.2667482208
 20
869.818821323
 11
233.9704519245
 21
869.2262377726
 12
231.1556371097
 22
868.9299414764
 13
231.1556371097
 23
868.9299414764
  0
SOLID
  5
37F
100
AcDbEntity
  8
0
100
AcDbTrace
 62
5
  6
CONTINUOUS
 10
234.2667482208
 20
869.818821323
 11
231.1556371097
 21
868.9299414764
 12
231.6000815541
 22
869.818821323
 13
231.6000815541
 23
869.818821323
  0
SOLID
  5
380
100
AcDbEntity
  8
0
100
AcDbTrace
 62
5
  6
CONTINUOUS
 10
240.488970443
 20
869.0780896245
 11
243.0074889615
 21
869.6706788263
 12
243.3037852578
 22
868.6336451801
 13
243.3037852578
 23
868.6336451801
  0
SOLID
  5
381
100
AcDbEntity
  8
0
100
AcDbTrace
 62
5
  6
CONTINUOUS
 10
231.1556371097
 20
868.9299414764
 11
233.9704519245
 21
869.2262377726
 12
233.52600748
 22
868.4854970319
 13
233.52600748
 23
868.4854970319
  0
SOLID
  5
382
100
AcDbEntity
  8
0
100
AcDbTrace
 62
5
  6
CONTINUOUS
 10
243.3037852578
 20
868.6336451801
 11
240.7852667393
 21
868.4854970319
 12
240.488970443
 22
869.0780896245
 13
240.488970443
 23
869.0780896245
  0
SOLID
  5
383
100
AcDbEntity
  8
0
100
AcDbTrace
 62
5
  6
CONTINUOUS
 10
233.52600748
 20
868.4854970319
 11
230.8593408134
 21
867.8929044393
 12
231.1556371097
 22
868.9299414764
 13
231.1556371097
 23
868.9299414764
  0
SOLID
  5
384
100
AcDbEntity
  8
0
100
AcDbTrace
 62
5
  6
CONTINUOUS
 10
230.8593408134
 20
867.8929044393
 11
233.52600748
 21
868.4854970319
 12
233.2297111838
 22
867.596608143
 13
233.2297111838
 23
867.596608143
  0
SOLID
  5
385
100
AcDbEntity
  8
0
100
AcDbTrace
 62
5
  6
CONTINUOUS
 10
233.2297111838
 20
867.596608143
 11
230.7111926652
 21
866.8558674023
 12
230.8593408134
 22
867.8929044393
 13
230.8593408134
 23
867.8929044393
  0
SOLID
  5
386
100
AcDbEntity
  8
0
100
AcDbTrace
 62
5
  6
CONTINUOUS
 10
230.7111926652
 20
866.8558674023
 11
233.2297111838
 21
867.596608143
 12
233.0815630356
 22
866.4114184367
 13
233.0815630356
 23
866.4114184367
  0
SOLID
  5
387
100
AcDbEntity
  8
0
100
AcDbTrace
 62
5
  6
CONTINUOUS
 10
236.9334148875
 20
866.4114184367
 11
237.6741556282
 21
866.559571106
 12
238.8593408134
 22
866.4114184367
 13
238.8593408134
 23
866.4114184367
  0
SOLID
  5
388
100
AcDbEntity
  8
0
100
AcDbTrace
 62
5
  6
CONTINUOUS
 10
238.8593408134
 20
866.4114184367
 11
236.3408222949
 21
866.2632748097
 12
236.9334148875
 22
866.4114184367
 13
236.9334148875
 23
866.4114184367
  0
SOLID
  5
389
100
AcDbEntity
  8
0
100
AcDbTrace
 62
5
  6
CONTINUOUS
 10
235.6000815541
 20
866.1151266615
 11
236.3408222949
 21
866.2632748097
 12
238.8593408134
 22
866.4114184367
 13
238.8593408134
 23
866.4114184367
  0
SOLID
  5
38A
100
AcDbEntity
  8
0
100
AcDbTrace
 62
5
  6
CONTINUOUS
 10
235.6000815541
 20
866.1151266615
 11
238.8593408134
 21
866.4114184367
 12
239.8963778504
 22
865.9669785134
 13
239.8963778504
 23
865.9669785134
  0
SOLID
  5
38B
100
AcDbEntity
  8
0
100
AcDbTrace
 62
5
  6
CONTINUOUS
 10
239.8963778504
 20
865.9669785134
 11
235.0074889615
 21
865.8188303652
 12
235.6000815541
 22
866.1151266615
 13
235.6000815541
 23
866.1151266615
  0
SOLID
  5
38C
100
AcDbEntity
  8
0
100
AcDbTrace
 62
5
  6
CONTINUOUS
 10
233.0815630356
 20
866.4114184367
 11
230.4148963689
 21
865.6706822171
 12
230.7111926652
 22
866.8558674023
 13
230.7111926652
 23
866.8558674023
  0
SOLID
  5
38D
100
AcDbEntity
  8
0
100
AcDbTrace
 62
5
  6
CONTINUOUS
 10
234.4148963689
 20
865.5225419809
 11
235.0074889615
 21
865.8188303652
 12
239.8963778504
 22
865.9669785134
 13
239.8963778504
 23
865.9669785134
  0
SOLID
  5
38E
100
AcDbEntity
  8
0
100
AcDbTrace
 62
5
  6
CONTINUOUS
 10
234.4148963689
 20
865.5225419809
 11
239.8963778504
 21
865.9669785134
 12
240.9334148875
 22
865.5225419809
 13
240.9334148875
 23
865.5225419809
  0
SOLID
  5
38F
100
AcDbEntity
  8
0
100
AcDbTrace
 62
5
  6
CONTINUOUS
 10
230.4148963689
 20
865.6706822171
 11
233.0815630356
 21
866.4114184367
 12
232.9334148875
 22
865.2262377726
 13
232.9334148875
 23
865.2262377726
  0
SOLID
  5
390
100
AcDbEntity
  8
0
100
AcDbTrace
 62
5
  6
CONTINUOUS
 10
240.9334148875
 20
865.5225419809
 11
233.8223037763
 21
865.0780896245
 12
234.4148963689
 22
865.5225419809
 13
234.4148963689
 23
865.5225419809
  0
SOLID
  5
391
100
AcDbEntity
  8
0
100
AcDbTrace
 62
5
  6
CONTINUOUS
 10
233.8223037763
 20
865.0780896245
 11
240.9334148875
 21
865.5225419809
 12
241.8223037763
 22
864.6336451801
 13
241.8223037763
 23
864.6336451801
  0
SOLID
  5
392
100
AcDbEntity
  8
0
100
AcDbTrace
 62
5
  6
CONTINUOUS
 10
241.8223037763
 20
864.6336451801
 11
233.3778593319
 21
864.4854970319
 12
233.8223037763
 22
865.0780896245
 13
233.8223037763
 23
865.0780896245
  0
SOLID
  5
393
100
AcDbEntity
  8
0
100
AcDbTrace
 62
5
  6
CONTINUOUS
 10
232.9334148875
 20
865.2262377726
 11
230.4148963689
 21
864.3373488838
 12
230.4148963689
 22
865.6706822171
 13
230.4148963689
 23
865.6706822171
  0
SOLID
  5
394
100
AcDbEntity
  8
0
100
AcDbTrace
 62
5
  6
CONTINUOUS
 10
230.4148963689
 20
864.3373488838
 11
232.9334148875
 21
865.2262377726
 12
232.9334148875
 22
863.8929123513
 13
232.9334148875
 23
863.8929123513
  0
SOLID
  5
395
100
AcDbEntity
  8
0
100
AcDbTrace
 62
5
  6
CONTINUOUS
 10
237.0815630356
 20
864.1892007356
 11
236.1926741467
 21
864.041054848
 12
232.9334148875
 22
863.8929123513
 13
232.9334148875
 23
863.8929123513
  0
SOLID
  5
396
100
AcDbEntity
  8
0
100
AcDbTrace
 62
5
  6
CONTINUOUS
 10
237.0815630356
 20
864.1892007356
 11
232.9334148875
 21
863.8929123513
 12
233.3778593319
 22
864.4854970319
 13
233.3778593319
 23
864.4854970319
  0
SOLID
  5
397
100
AcDbEntity
  8
0
100
AcDbTrace
 62
5
  6
CONTINUOUS
 10
232.9334148875
 20
863.8929123513
 11
236.1926741467
 21
864.041054848
 12
235.451933406
 22
863.8929123513
 13
235.451933406
 23
863.8929123513
  0
SOLID
  5
398
100
AcDbEntity
  8
0
100
AcDbTrace
 62
5
  6
CONTINUOUS
 10
237.0815630356
 20
864.1892007356
 11
233.3778593319
 21
864.4854970319
 12
241.8223037763
 22
864.6336451801
 13
241.8223037763
 23
864.6336451801
  0
SOLID
  5
399
100
AcDbEntity
  8
0
100
AcDbTrace
 62
5
  6
CONTINUOUS
 10
237.9704519245
 20
864.041054848
 11
237.0815630356
 21
864.1892007356
 12
241.8223037763
 22
864.6336451801
 13
241.8223037763
 23
864.6336451801
  0
SOLID
  5
39A
100
AcDbEntity
  8
0
100
AcDbTrace
 62
5
  6
CONTINUOUS
 10
238.7111926652
 20
863.8929123513
 11
237.9704519245
 21
864.041054848
 12
241.8223037763
 22
864.6336451801
 13
241.8223037763
 23
864.6336451801
  0
SOLID
  5
39B
100
AcDbEntity
  8
0
100
AcDbTrace
 62
5
  6
CONTINUOUS
 10
238.7111926652
 20
863.8929123513
 11
241.8223037763
 21
864.6336451801
 12
242.5630445171
 22
863.7447562912
 13
242.5630445171
 23
863.7447562912
  0
SOLID
  5
39C
100
AcDbEntity
  8
0
100
AcDbTrace
 62
5
  6
CONTINUOUS
 10
242.5630445171
 20
863.7447562912
 11
239.3037852578
 21
863.4484633857
 12
238.7111926652
 22
863.8929123513
 13
238.7111926652
 23
863.8929123513
  0
SOLID
  5
39D
100
AcDbEntity
  8
0
100
AcDbTrace
 62
5
  6
CONTINUOUS
 10
235.451933406
 20
863.8929123513
 11
234.8593408134
 21
863.4484633857
 12
230.4148963689
 22
863.0040149853
 13
230.4148963689
 23
863.0040149853
  0
SOLID
  5
39E
100
AcDbEntity
  8
0
100
AcDbTrace
 62
5
  6
CONTINUOUS
 10
232.9334148875
 20
863.8929123513
 11
235.451933406
 21
863.8929123513
 12
230.4148963689
 22
863.0040149853
 13
230.4148963689
 23
863.0040149853
  0
SOLID
  5
39F
100
AcDbEntity
  8
0
100
AcDbTrace
 62
5
  6
CONTINUOUS
 10
232.9334148875
 20
863.8929123513
 11
230.4148963689
 21
863.0040149853
 12
230.4148963689
 22
864.3373488838
 13
230.4148963689
 23
864.3373488838
  0
SOLID
  5
3A0
100
AcDbEntity
  8
0
100
AcDbTrace
 62
5
  6
CONTINUOUS
 10
230.4148963689
 20
863.0040149853
 11
234.8593408134
 21
863.4484633857
 12
234.1186000726
 22
863.0040149853
 13
234.1186000726
 23
863.0040149853
  0
SOLID
  5
3A1
100
AcDbEntity
  8
0
100
AcDbTrace
 62
5
  6
CONTINUOUS
 10
239.8963778504
 20
863.0040149853
 11
239.3037852578
 21
863.4484633857
 12
242.5630445171
 22
863.7447562912
 13
242.5630445171
 23
863.7447562912
  0
SOLID
  5
3A2
100
AcDbEntity
  8
0
100
AcDbTrace
 62
5
  6
CONTINUOUS
 10
239.8963778504
 20
863.0040149853
 11
242.5630445171
 21
863.7447562912
 12
243.1556371097
 22
862.7077192541
 13
243.1556371097
 23
862.7077192541
  0
SOLID
  5
3A3
100
AcDbEntity
  8
0
100
AcDbTrace
 62
5
  6
CONTINUOUS
 10
243.1556371097
 20
862.7077192541
 11
240.3408222949
 21
862.4114240881
 12
239.8963778504
 22
863.0040149853
 13
239.8963778504
 23
863.0040149853
  0
SOLID
  5
3A4
100
AcDbEntity
  8
0
100
AcDbTrace
 62
5
  6
CONTINUOUS
 10
234.1186000726
 20
863.0040149853
 11
233.6741556282
 21
862.4114240881
 12
230.4148963689
 22
861.6706906942
 13
230.4148963689
 23
861.6706906942
  0
SOLID
  5
3A5
100
AcDbEntity
  8
0
100
AcDbTrace
 62
5
  6
CONTINUOUS
 10
234.1186000726
 20
863.0040149853
 11
230.4148963689
 21
861.6706906942
 12
230.4148963689
 22
863.0040149853
 13
230.4148963689
 23
863.0040149853
  0
SOLID
  5
3A6
100
AcDbEntity
  8
0
100
AcDbTrace
 62
5
  6
CONTINUOUS
 10
230.4148963689
 20
861.6706906942
 11
233.6741556282
 21
862.4114240881
 12
233.3778593319
 22
861.6706906942
 13
233.3778593319
 23
861.6706906942
  0
SOLID
  5
3A7
100
AcDbEntity
  8
0
100
AcDbTrace
 62
5
  6
CONTINUOUS
 10
240.7852667393
 20
861.6706906942
 11
240.3408222949
 21
862.4114240881
 12
243.1556371097
 22
862.7077192541
 13
243.1556371097
 23
862.7077192541
  0
SOLID
  5
3A8
100
AcDbEntity
  8
0
100
AcDbTrace
 62
5
  6
CONTINUOUS
 10
240.7852667393
 20
861.6706906942
 11
243.1556371097
 21
862.7077192541
 12
243.451933406
 22
861.3743859208
 13
243.451933406
 23
861.3743859208
  0
SOLID
  5
3A9
100
AcDbEntity
  8
0
100
AcDbTrace
 62
5
  6
CONTINUOUS
 10
243.451933406
 20
861.3743859208
 11
240.9334148875
 21
860.7817933282
 12
240.7852667393
 22
861.6706906942
 13
240.7852667393
 23
861.6706906942
  0
SOLID
  5
3AA
100
AcDbEntity
  8
0
100
AcDbTrace
 62
5
  6
CONTINUOUS
 10
233.3778593319
 20
861.6706906942
 11
233.0815630356
 21
860.9299414764
 12
230.4148963689
 22
860.4854970319
 13
230.4148963689
 23
860.4854970319
  0
SOLID
  5
3AB
100
AcDbEntity
  8
0
100
AcDbTrace
 62
5
  6
CONTINUOUS
 10
233.3778593319
 20
861.6706906942
 11
230.4148963689
 21
860.4854970319
 12
230.4148963689
 22
861.6706906942
 13
230.4148963689
 23
861.6706906942
  0
SOLID
  5
3AC
100
AcDbEntity
  8
0
100
AcDbTrace
 62
5
  6
CONTINUOUS
 10
230.4148963689
 20
860.4854970319
 11
233.0815630356
 21
860.9299414764
 12
233.0815630356
 22
860.0410604994
 13
233.0815630356
 23
860.0410604994
  0
SOLID
  5
3AD
100
AcDbEntity
  8
0
100
AcDbTrace
 62
5
  6
CONTINUOUS
 10
240.9334148875
 20
860.7817933282
 11
243.451933406
 21
861.3743859208
 12
243.6000815541
 22
860.0410604994
 13
243.6000815541
 23
860.0410604994
  0
SOLID
  5
3AE
100
AcDbEntity
  8
0
100
AcDbTrace
 62
5
  6
CONTINUOUS
 10
243.6000815541
 20
860.0410604994
 11
241.0815630356
 21
859.8929044393
 12
240.9334148875
 22
860.7817933282
 13
240.9334148875
 23
860.7817933282
  0
SOLID
  5
3AF
100
AcDbEntity
  8
0
100
AcDbTrace
 62
5
  6
CONTINUOUS
 10
233.0815630356
 20
860.0410604994
 11
230.5630445171
 21
859.4484696023
 12
230.4148963689
 22
860.4854970319
 13
230.4148963689
 23
860.4854970319
  0
SOLID
  5
3B0
100
AcDbEntity
  8
0
100
AcDbTrace
 62
5
  6
CONTINUOUS
 10
230.5630445171
 20
859.4484696023
 11
233.0815630356
 21
860.0410604994
 12
233.0815630356
 22
859.4484696023
 13
233.0815630356
 23
859.4484696023
  0
SOLID
  5
3B1
100
AcDbEntity
  8
0
100
AcDbTrace
 62
5
  6
CONTINUOUS
 10
241.0815630356
 20
859.8929044393
 11
243.6000815541
 21
860.0410604994
 12
243.451933406
 22
859.1521636986
 13
243.451933406
 23
859.1521636986
  0
SOLID
  5
3B2
100
AcDbEntity
  8
0
100
AcDbTrace
 62
5
  6
CONTINUOUS
 10
243.451933406
 20
859.1521636986
 11
240.9334148875
 21
858.85585836
 12
241.0815630356
 22
859.8929044393
 13
241.0815630356
 23
859.8929044393
  0
SOLID
  5
3B3
100
AcDbEntity
  8
0
100
AcDbTrace
 62
5
  6
CONTINUOUS
 10
233.0815630356
 20
859.4484696023
 11
233.0815630356
 21
858.85585836
 12
230.8593408134
 22
858.559571106
 13
230.8593408134
 23
858.559571106
  0
SOLID
  5
3B4
100
AcDbEntity
  8
0
100
AcDbTrace
 62
5
  6
CONTINUOUS
 10
233.0815630356
 20
859.4484696023
 11
230.8593408134
 21
858.559571106
 12
230.5630445171
 22
859.4484696023
 13
230.5630445171
 23
859.4484696023
  0
SOLID
  5
3B5
100
AcDbEntity
  8
0
100
AcDbTrace
 62
5
  6
CONTINUOUS
 10
230.8593408134
 20
858.559571106
 11
233.0815630356
 21
858.85585836
 12
233.3778593319
 22
858.2632671803
 13
233.3778593319
 23
858.2632671803
  0
SOLID
  5
3B6
100
AcDbEntity
  8
0
100
AcDbTrace
 62
5
  6
CONTINUOUS
 10
240.9334148875
 20
858.85585836
 11
243.451933406
 21
859.1521636986
 12
243.3037852578
 22
858.2632671803
 13
243.3037852578
 23
858.2632671803
  0
SOLID
  5
3B7
100
AcDbEntity
  8
0
100
AcDbTrace
 62
5
  6
CONTINUOUS
 10
243.3037852578
 20
858.2632671803
 11
240.7852667393
 21
857.9669785134
 12
240.9334148875
 22
858.85585836
 13
240.9334148875
 23
858.85585836
  0
SOLID
  5
3B8
100
AcDbEntity
  8
0
100
AcDbTrace
 62
5
  6
CONTINUOUS
 10
233.3778593319
 20
858.2632671803
 11
231.1556371097
 21
857.6706762831
 12
230.8593408134
 22
858.559571106
 13
230.8593408134
 23
858.559571106
  0
SOLID
  5
3B9
100
AcDbEntity
  8
0
100
AcDbTrace
 62
5
  6
CONTINUOUS
 10
231.1556371097
 20
857.6706762831
 11
233.3778593319
 21
858.2632671803
 12
233.52600748
 22
857.6706762831
 13
233.52600748
 23
857.6706762831
  0
SOLID
  5
3BA
100
AcDbEntity
  8
0
100
AcDbTrace
 62
5
  6
CONTINUOUS
 10
240.7852667393
 20
857.9669785134
 11
243.3037852578
 21
858.2632671803
 12
243.0074889615
 22
857.3743859208
 13
243.0074889615
 23
857.3743859208
  0
SOLID
  5
3BB
100
AcDbEntity
  8
0
100
AcDbTrace
 62
5
  6
CONTINUOUS
 10
243.0074889615
 20
857.3743859208
 11
240.3408222949
 21
857.2262377726
 12
240.7852667393
 22
857.9669785134
 13
240.7852667393
 23
857.9669785134
  0
SOLID
  5
3BC
100
AcDbEntity
  8
0
100
AcDbTrace
 62
5
  6
CONTINUOUS
 10
233.52600748
 20
857.6706762831
 11
233.8223037763
 21
857.0780896245
 12
231.451933406
 22
856.7817933282
 13
231.451933406
 23
856.7817933282
  0
SOLID
  5
3BD
100
AcDbEntity
  8
0
100
AcDbTrace
 62
5
  6
CONTINUOUS
 10
233.52600748
 20
857.6706762831
 11
231.451933406
 21
856.7817933282
 12
231.1556371097
 22
857.6706762831
 13
231.1556371097
 23
857.6706762831
  0
SOLID
  5
3BE
100
AcDbEntity
  8
0
100
AcDbTrace
 62
5
  6
CONTINUOUS
 10
231.451933406
 20
856.7817933282
 11
233.8223037763
 21
857.0780896245
 12
234.2667482208
 22
856.6336369855
 13
234.2667482208
 23
856.6336369855
  0
SOLID
  5
3BF
100
AcDbEntity
  8
0
100
AcDbTrace
 62
5
  6
CONTINUOUS
 10
239.8963778504
 20
856.6336369855
 11
240.3408222949
 21
857.2262377726
 12
243.0074889615
 22
857.3743859208
 13
243.0074889615
 23
857.3743859208
  0
SOLID
  5
3C0
100
AcDbEntity
  8
0
100
AcDbTrace
 62
5
  6
CONTINUOUS
 10
239.8963778504
 20
856.6336369855
 11
243.0074889615
 21
857.3743859208
 12
242.7111926652
 22
856.6336369855
 13
242.7111926652
 23
856.6336369855
  0
SOLID
  5
3C1
100
AcDbEntity
  8
0
100
AcDbTrace
 62
5
  6
CONTINUOUS
 10
234.2667482208
 20
856.6336369855
 11
234.5630445171
 21
856.3373488838
 12
231.8963778504
 22
856.1892007356
 13
231.8963778504
 23
856.1892007356
  0
SOLID
  5
3C2
100
AcDbEntity
  8
0
100
AcDbTrace
 62
5
  6
CONTINUOUS
 10
234.2667482208
 20
856.6336369855
 11
231.8963778504
 21
856.1892007356
 12
231.451933406
 22
856.7817933282
 13
231.451933406
 23
856.7817933282
  0
SOLID
  5
3C3
100
AcDbEntity
  8
0
100
AcDbTrace
 62
5
  6
CONTINUOUS
 10
242.7111926652
 20
856.6336369855
 11
239.3037852578
 21
856.0410525875
 12
239.8963778504
 22
856.6336369855
 13
239.8963778504
 23
856.6336369855
  0
SOLID
  5
3C4
100
AcDbEntity
  8
0
100
AcDbTrace
 62
5
  6
CONTINUOUS
 10
231.8963778504
 20
856.1892007356
 11
234.5630445171
 21
856.3373488838
 12
235.0074889615
 22
855.8929034503
 13
235.0074889615
 23
855.8929034503
  0
SOLID
  5
3C5
100
AcDbEntity
  8
0
100
AcDbTrace
 62
5
  6
CONTINUOUS
 10
239.3037852578
 20
856.0410525875
 11
242.7111926652
 21
856.6336369855
 12
242.2667482208
 22
855.8929034503
 13
242.2667482208
 23
855.8929034503
  0
SOLID
  5
3C6
100
AcDbEntity
  8
0
100
AcDbTrace
 62
5
  6
CONTINUOUS
 10
242.2667482208
 20
855.8929034503
 11
238.7111926652
 21
855.744760671
 12
239.3037852578
 22
856.0410525875
 13
239.3037852578
 23
856.0410525875
  0
SOLID
  5
3C7
100
AcDbEntity
  8
0
100
AcDbTrace
 62
5
  6
CONTINUOUS
 10
235.0074889615
 20
855.8929034503
 11
235.6000815541
 21
855.744760671
 12
232.3408222949
 22
855.596608143
 13
232.3408222949
 23
855.596608143
  0
SOLID
  5
3C8
100
AcDbEntity
  8
0
100
AcDbTrace
 62
5
  6
CONTINUOUS
 10
235.0074889615
 20
855.8929034503
 11
232.3408222949
 21
855.596608143
 12
231.8963778504
 22
856.1892007356
 13
231.8963778504
 23
856.1892007356
  0
SOLID
  5
3C9
100
AcDbEntity
  8
0
100
AcDbTrace
 62
5
  6
CONTINUOUS
 10
232.3408222949
 20
855.596608143
 11
235.6000815541
 21
855.744760671
 12
236.0445259986
 22
855.4484550499
 13
236.0445259986
 23
855.4484550499
  0
SOLID
  5
3CA
100
AcDbEntity
  8
0
100
AcDbTrace
 62
5
  6
CONTINUOUS
 10
237.9704519245
 20
855.4484550499
 11
238.7111926652
 21
855.744760671
 12
242.2667482208
 22
855.8929034503
 13
242.2667482208
 23
855.8929034503
  0
SOLID
  5
3CB
100
AcDbEntity
  8
0
100
AcDbTrace
 62
5
  6
CONTINUOUS
 10
237.9704519245
 20
855.4484550499
 11
242.2667482208
 21
855.8929034503
 12
241.8223037763
 22
855.1521636986
 13
241.8223037763
 23
855.1521636986
  0
SOLID
  5
3CC
100
AcDbEntity
  8
0
100
AcDbTrace
 62
5
  6
CONTINUOUS
 10
237.9704519245
 20
855.4484550499
 11
241.8223037763
 21
855.1521636986
 12
232.7852667393
 22
855.0040155504
 13
232.7852667393
 23
855.0040155504
  0
SOLID
  5
3CD
100
AcDbEntity
  8
0
100
AcDbTrace
 62
5
  6
CONTINUOUS
 10
237.0815630356
 20
855.4484550499
 11
237.9704519245
 21
855.4484550499
 12
232.7852667393
 22
855.0040155504
 13
232.7852667393
 23
855.0040155504
  0
SOLID
  5
3CE
100
AcDbEntity
  8
0
100
AcDbTrace
 62
5
  6
CONTINUOUS
 10
236.6371185912
 20
855.4484550499
 11
237.0815630356
 21
855.4484550499
 12
232.7852667393
 22
855.0040155504
 13
232.7852667393
 23
855.0040155504
  0
SOLID
  5
3CF
100
AcDbEntity
  8
0
100
AcDbTrace
 62
5
  6
CONTINUOUS
 10
236.0445259986
 20
855.4484550499
 11
236.6371185912
 21
855.4484550499
 12
232.7852667393
 22
855.0040155504
 13
232.7852667393
 23
855.0040155504
  0
SOLID
  5
3D0
100
AcDbEntity
  8
0
100
AcDbTrace
 62
5
  6
CONTINUOUS
 10
236.0445259986
 20
855.4484550499
 11
232.7852667393
 21
855.0040155504
 12
232.3408222949
 22
855.596608143
 13
232.3408222949
 23
855.596608143
  0
SOLID
  5
3D1
100
AcDbEntity
  8
0
100
AcDbTrace
 62
5
  6
CONTINUOUS
 10
233.3778593319
 20
854.559578806
 11
232.7852667393
 21
855.0040155504
 12
241.8223037763
 22
855.1521636986
 13
241.8223037763
 23
855.1521636986
  0
SOLID
  5
3D2
100
AcDbEntity
  8
0
100
AcDbTrace
 62
5
  6
CONTINUOUS
 10
233.3778593319
 20
854.559578806
 11
241.8223037763
 21
855.1521636986
 12
241.2297111838
 22
854.559578806
 13
241.2297111838
 23
854.559578806
  0
SOLID
  5
3D3
100
AcDbEntity
  8
0
100
AcDbTrace
 62
5
  6
CONTINUOUS
 10
241.2297111838
 20
854.559578806
 11
233.8223037763
 21
854.1151305116
 12
233.3778593319
 22
854.559578806
 13
233.3778593319
 23
854.559578806
  0
SOLID
  5
3D4
100
AcDbEntity
  8
0
100
AcDbTrace
 62
5
  6
CONTINUOUS
 10
233.8223037763
 20
854.1151305116
 11
241.2297111838
 21
854.559578806
 12
240.488970443
 22
854.1151305116
 13
240.488970443
 23
854.1151305116
  0
SOLID
  5
3D5
100
AcDbEntity
  8
0
100
AcDbTrace
 62
5
  6
CONTINUOUS
 10
240.488970443
 20
854.1151305116
 11
234.5630445171
 21
853.8188248816
 12
233.8223037763
 22
854.1151305116
 13
233.8223037763
 23
854.1151305116
  0
SOLID
  5
3D6
100
AcDbEntity
  8
0
100
AcDbTrace
 62
5
  6
CONTINUOUS
 10
234.5630445171
 20
853.8188248816
 11
240.488970443
 21
854.1151305116
 12
239.7482297023
 22
853.8188248816
 13
239.7482297023
 23
853.8188248816
  0
SOLID
  5
3D7
100
AcDbEntity
  8
0
100
AcDbTrace
 62
5
  6
CONTINUOUS
 10
239.7482297023
 20
853.8188248816
 11
235.1556371097
 21
853.6706822171
 12
234.5630445171
 22
853.8188248816
 13
234.5630445171
 23
853.8188248816
  0
SOLID
  5
3D8
100
AcDbEntity
  8
0
100
AcDbTrace
 62
5
  6
CONTINUOUS
 10
235.1556371097
 20
853.6706822171
 11
239.7482297023
 21
853.8188248816
 12
239.0074889615
 22
853.6706822171
 13
239.0074889615
 23
853.6706822171
  0
SOLID
  5
3D9
100
AcDbEntity
  8
0
100
AcDbTrace
 62
5
  6
CONTINUOUS
 10
239.0074889615
 20
853.6706822171
 11
235.7482297023
 21
853.5225395526
 12
235.1556371097
 22
853.6706822171
 13
235.1556371097
 23
853.6706822171
  0
SOLID
  5
3DA
100
AcDbEntity
  8
0
100
AcDbTrace
 62
5
  6
CONTINUOUS
 10
236.488970443
 20
853.5225395526
 11
235.7482297023
 21
853.5225395526
 12
239.0074889615
 22
853.6706822171
 13
239.0074889615
 23
853.6706822171
  0
SOLID
  5
3DB
100
AcDbEntity
  8
0
100
AcDbTrace
 62
5
  6
CONTINUOUS
 10
236.488970443
 20
853.5225395526
 11
239.0074889615
 21
853.6706822171
 12
238.1186000726
 22
853.5225395526
 13
238.1186000726
 23
853.5225395526
  0
SOLID
  5
3DC
100
AcDbEntity
  8
0
100
AcDbTrace
 62
5
  6
CONTINUOUS
 10
238.1186000726
 20
853.5225395526
 11
237.2297111838
 21
853.3743859208
 12
236.488970443
 22
853.5225395526
 13
236.488970443
 23
853.5225395526
  0
SOLID
  5
3DD
100
AcDbEntity
  8
0
100
AcDbTrace
 62
5
  6
CONTINUOUS
 10
250.2667482208
 20
870.8558617509
 11
257.9704519245
 21
873.3743813997
 12
257.9704519245
 22
870.8558617509
 13
257.9704519245
 23
870.8558617509
  0
SOLID
  5
3DE
100
AcDbEntity
  8
0
100
AcDbTrace
 62
5
  6
CONTINUOUS
 10
251.8963778504
 20
866.8558617509
 11
252.9334148875
 21
867.0040155504
 12
254.1186000726
 22
866.8558617509
 13
254.1186000726
 23
866.8558617509
  0
SOLID
  5
3DF
100
AcDbEntity
  8
0
100
AcDbTrace
 62
5
  6
CONTINUOUS
 10
254.1186000726
 20
866.8558617509
 11
251.0074889615
 21
866.559571106
 12
251.8963778504
 22
866.8558617509
 13
251.8963778504
 23
866.8558617509
  0
SOLID
  5
3E0
100
AcDbEntity
  8
0
100
AcDbTrace
 62
5
  6
CONTINUOUS
 10
251.0074889615
 20
866.559571106
 11
254.1186000726
 21
866.8558617509
 12
255.3037852578
 22
866.4114229578
 13
255.3037852578
 23
866.4114229578
  0
SOLID
  5
3E1
100
AcDbEntity
  8
0
100
AcDbTrace
 62
5
  6
CONTINUOUS
 10
255.3037852578
 20
866.4114229578
 11
250.1186000726
 21
866.1151266615
 12
251.0074889615
 22
866.559571106
 13
251.0074889615
 23
866.559571106
  0
SOLID
  5
3E2
100
AcDbEntity
  8
0
100
AcDbTrace
 62
5
  6
CONTINUOUS
 10
250.1186000726
 20
866.1151266615
 11
255.3037852578
 21
866.4114229578
 12
256.1926741467
 22
865.9669785134
 13
256.1926741467
 23
865.9669785134
  0
SOLID
  5
3E3
100
AcDbEntity
  8
0
100
AcDbTrace
 62
5
  6
CONTINUOUS
 10
256.1926741467
 20
865.9669785134
 11
249.2297111838
 21
865.5225340689
 12
250.1186000726
 22
866.1151266615
 13
250.1186000726
 23
866.1151266615
  0
SOLID
  5
3E4
100
AcDbEntity
  8
0
100
AcDbTrace
 62
5
  6
CONTINUOUS
 10
249.2297111838
 20
865.5225340689
 11
256.1926741467
 21
865.9669785134
 12
257.2297111838
 22
865.0780896245
 13
257.2297111838
 23
865.0780896245
  0
SOLID
  5
3E5
100
AcDbEntity
  8
0
100
AcDbTrace
 62
5
  6
CONTINUOUS
 10
251.1556371097
 20
864.4855026833
 11
252.3408222949
 21
864.6336451801
 12
251.7482297023
 22
864.4855026833
 13
251.7482297023
 23
864.4855026833
  0
SOLID
  5
3E6
100
AcDbEntity
  8
0
100
AcDbTrace
 62
5
  6
CONTINUOUS
 10
253.2297111838
 20
864.4855026833
 11
252.3408222949
 21
864.6336451801
 12
257.2297111838
 22
865.0780896245
 13
257.2297111838
 23
865.0780896245
  0
SOLID
  5
3E7
100
AcDbEntity
  8
0
100
AcDbTrace
 62
5
  6
CONTINUOUS
 10
254.1186000726
 20
864.3373421021
 11
253.2297111838
 21
864.4855026833
 12
257.2297111838
 22
865.0780896245
 13
257.2297111838
 23
865.0780896245
  0
SOLID
  5
3E8
100
AcDbEntity
  8
0
100
AcDbTrace
 62
5
  6
CONTINUOUS
 10
254.1186000726
 20
864.3373421021
 11
257.2297111838
 21
865.0780896245
 12
257.9704519245
 22
864.1892007356
 13
257.9704519245
 23
864.1892007356
  0
SOLID
  5
3E9
100
AcDbEntity
  8
0
100
AcDbTrace
 62
5
  6
CONTINUOUS
 10
257.9704519245
 20
864.1892007356
 11
254.7111926652
 21
863.8929044393
 12
254.1186000726
 22
864.3373421021
 13
254.1186000726
 23
864.3373421021
  0
SOLID
  5
3EA
100
AcDbEntity
  8
0
100
AcDbTrace
 62
5
  6
CONTINUOUS
 10
250.2667482208
 20
864.0410525875
 11
249.52600748
 21
863.4484622554
 12
246.4148963689
 22
863.1521636986
 13
246.4148963689
 23
863.1521636986
  0
SOLID
  5
3EB
100
AcDbEntity
  8
0
100
AcDbTrace
 62
5
  6
CONTINUOUS
 10
250.7111926652
 20
864.3373421021
 11
250.2667482208
 21
864.0410525875
 12
246.4148963689
 22
863.1521636986
 13
246.4148963689
 23
863.1521636986
  0
SOLID
  5
3EC
100
AcDbEntity
  8
0
100
AcDbTrace
 62
5
  6
CONTINUOUS
 10
251.1556371097
 20
864.4855026833
 11
250.7111926652
 21
864.3373421021
 12
246.4148963689
 22
863.1521636986
 13
246.4148963689
 23
863.1521636986
  0
SOLID
  5
3ED
100
AcDbEntity
  8
0
100
AcDbTrace
 62
5
  6
CONTINUOUS
 10
249.2297111838
 20
865.5225340689
 11
257.2297111838
 21
865.0780896245
 12
252.3408222949
 22
864.6336451801
 13
252.3408222949
 23
864.6336451801
  0
SOLID
  5
3EE
100
AcDbEntity
  8
0
100
AcDbTrace
 62
5
  6
CONTINUOUS
 10
249.2297111838
 20
865.5225340689
 11
252.3408222949
 21
864.6336451801
 12
251.1556371097
 22
864.4855026833
 13
251.1556371097
 23
864.4855026833
  0
SOLID
  5
3EF
100
AcDbEntity
  8
0
100
AcDbTrace
 62
5
  6
CONTINUOUS
 10
249.2297111838
 20
865.5225340689
 11
251.1556371097
 21
864.4855026833
 12
246.4148963689
 22
863.1521636986
 13
246.4148963689
 23
863.1521636986
  0
SOLID
  5
3F0
100
AcDbEntity
  8
0
100
AcDbTrace
 62
5
  6
CONTINUOUS
 10
250.2667482208
 20
870.8558617509
 11
249.2297111838
 21
865.5225340689
 12
246.4148963689
 22
863.1521636986
 13
246.4148963689
 23
863.1521636986
  0
SOLID
  5
3F1
100
AcDbEntity
  8
0
100
AcDbTrace
 62
5
  6
CONTINUOUS
 10
248.488970443
 20
873.3743813997
 11
257.9704519245
 21
873.3743813997
 12
250.2667482208
 22
870.8558617509
 13
250.2667482208
 23
870.8558617509
  0
SOLID
  5
3F2
100
AcDbEntity
  8
0
100
AcDbTrace
 62
5
  6
CONTINUOUS
 10
250.2667482208
 20
870.8558617509
 11
246.4148963689
 21
863.1521636986
 12
248.488970443
 22
873.3743813997
 13
248.488970443
 23
873.3743813997
  0
SOLID
  5
3F3
100
AcDbEntity
  8
0
100
AcDbTrace
 62
5
  6
CONTINUOUS
 10
255.3037852578
 20
863.4484622554
 11
254.7111926652
 21
863.8929044393
 12
257.9704519245
 22
864.1892007356
 13
257.9704519245
 23
864.1892007356
  0
SOLID
  5
3F4
100
AcDbEntity
  8
0
100
AcDbTrace
 62
5
  6
CONTINUOUS
 10
255.3037852578
 20
863.4484622554
 11
257.9704519245
 21
864.1892007356
 12
258.5630445171
 22
863.0040155504
 13
258.5630445171
 23
863.0040155504
  0
SOLID
  5
3F5
100
AcDbEntity
  8
0
100
AcDbTrace
 62
5
  6
CONTINUOUS
 10
246.4148963689
 20
863.1521636986
 11
249.52600748
 21
863.4484622554
 12
248.9334148875
 22
862.8558674023
 13
248.9334148875
 23
862.8558674023
  0
SOLID
  5
3F6
100
AcDbEntity
  8
0
100
AcDbTrace
 62
5
  6
CONTINUOUS
 10
258.5630445171
 20
863.0040155504
 11
255.7482297023
 21
862.7077192541
 12
255.3037852578
 22
863.4484622554
 13
255.3037852578
 23
863.4484622554
  0
SOLID
  5
3F7
100
AcDbEntity
  8
0
100
AcDbTrace
 62
5
  6
CONTINUOUS
 10
256.1926741467
 20
861.9669785134
 11
255.7482297023
 21
862.7077192541
 12
258.5630445171
 22
863.0040155504
 13
258.5630445171
 23
863.0040155504
  0
SOLID
  5
3F8
100
AcDbEntity
  8
0
100
AcDbTrace
 62
5
  6
CONTINUOUS
 10
256.1926741467
 20
861.9669785134
 11
258.5630445171
 21
863.0040155504
 12
258.8593408134
 22
861.8188303652
 13
258.8593408134
 23
861.8188303652
  0
SOLID
  5
3F9
100
AcDbEntity
  8
0
100
AcDbTrace
 62
5
  6
CONTINUOUS
 10
258.8593408134
 20
861.8188303652
 11
256.3408222949
 21
861.0780896245
 12
256.1926741467
 22
861.9669785134
 13
256.1926741467
 23
861.9669785134
  0
SOLID
  5
3FA
100
AcDbEntity
  8
0
100
AcDbTrace
 62
5
  6
CONTINUOUS
 10
256.3408222949
 20
861.0780896245
 11
258.8593408134
 21
861.8188303652
 12
259.0074889615
 22
860.4854970319
 13
259.0074889615
 23
860.4854970319
  0
SOLID
  5
3FB
100
AcDbEntity
  8
0
100
AcDbTrace
 62
5
  6
CONTINUOUS
 10
259.0074889615
 20
860.4854970319
 11
256.488970443
 21
860.1892007356
 12
256.3408222949
 22
861.0780896245
 13
256.3408222949
 23
861.0780896245
  0
SOLID
  5
3FC
100
AcDbEntity
  8
0
100
AcDbTrace
 62
5
  6
CONTINUOUS
 10
256.3408222949
 20
859.1521620032
 11
256.488970443
 21
860.1892007356
 12
259.0074889615
 22
860.4854970319
 13
259.0074889615
 23
860.4854970319
  0
SOLID
  5
3FD
100
AcDbEntity
  8
0
100
AcDbTrace
 62
5
  6
CONTINUOUS
 10
256.3408222949
 20
859.1521620032
 11
259.0074889615
 21
860.4854970319
 12
258.8593408134
 22
859.1521620032
 13
258.8593408134
 23
859.1521620032
  0
SOLID
  5
3FE
100
AcDbEntity
  8
0
100
AcDbTrace
 62
5
  6
CONTINUOUS
 10
246.1186000726
 20
859.0040155504
 11
248.6371185912
 21
859.1521620032
 12
248.7852667393
 22
858.2632821565
 13
248.7852667393
 23
858.2632821565
  0
SOLID
  5
3FF
100
AcDbEntity
  8
0
100
AcDbTrace
 62
5
  6
CONTINUOUS
 10
258.8593408134
 20
859.1521620032
 11
256.1926741467
 21
858.2632821565
 12
256.3408222949
 22
859.1521620032
 13
256.3408222949
 23
859.1521620032
  0
SOLID
  5
400
100
AcDbEntity
  8
0
100
AcDbTrace
 62
5
  6
CONTINUOUS
 10
256.1926741467
 20
858.2632821565
 11
258.8593408134
 21
859.1521620032
 12
258.5630445171
 22
857.9669785134
 13
258.5630445171
 23
857.9669785134
  0
SOLID
  5
401
100
AcDbEntity
  8
0
100
AcDbTrace
 62
5
  6
CONTINUOUS
 10
248.7852667393
 20
858.2632821565
 11
246.2667482208
 21
857.6706822171
 12
246.1186000726
 22
859.0040155504
 13
246.1186000726
 23
859.0040155504
  0
SOLID
  5
402
100
AcDbEntity
  8
0
100
AcDbTrace
 62
5
  6
CONTINUOUS
 10
246.2667482208
 20
857.6706822171
 11
248.7852667393
 21
858.2632821565
 12
249.0815630356
 22
857.5225340689
 13
249.0815630356
 23
857.5225340689
  0
SOLID
  5
403
100
AcDbEntity
  8
0
100
AcDbTrace
 62
5
  6
CONTINUOUS
 10
258.5630445171
 20
857.9669785134
 11
255.7482297023
 21
857.3743859208
 12
256.1926741467
 22
858.2632821565
 13
256.1926741467
 23
858.2632821565
  0
SOLID
  5
404
100
AcDbEntity
  8
0
100
AcDbTrace
 62
5
  6
CONTINUOUS
 10
255.7482297023
 20
857.3743859208
 11
258.5630445171
 21
857.9669785134
 12
258.1186000726
 22
856.7818020879
 13
258.1186000726
 23
856.7818020879
  0
SOLID
  5
405
100
AcDbEntity
  8
0
100
AcDbTrace
 62
5
  6
CONTINUOUS
 10
249.0815630356
 20
857.5225340689
 11
249.3778593319
 21
856.7818020879
 12
246.7111926652
 22
856.6336423544
 13
246.7111926652
 23
856.6336423544
  0
SOLID
  5
406
100
AcDbEntity
  8
0
100
AcDbTrace
 62
5
  6
CONTINUOUS
 10
249.0815630356
 20
857.5225340689
 11
246.7111926652
 21
856.6336423544
 12
246.2667482208
 22
857.6706822171
 13
246.2667482208
 23
857.6706822171
  0
SOLID
  5
407
100
AcDbEntity
  8
0
100
AcDbTrace
 62
5
  6
CONTINUOUS
 10
258.1186000726
 20
856.7818020879
 11
255.3037852578
 21
856.6336423544
 12
255.7482297023
 22
857.3743859208
 13
255.7482297023
 23
857.3743859208
  0
SOLID
  5
408
100
AcDbEntity
  8
0
100
AcDbTrace
 62
5
  6
CONTINUOUS
 10
246.7111926652
 20
856.6336423544
 11
249.3778593319
 21
856.7818020879
 12
249.8223037763
 22
856.3373488838
 13
249.8223037763
 23
856.3373488838
  0
SOLID
  5
409
100
AcDbEntity
  8
0
100
AcDbTrace
 62
5
  6
CONTINUOUS
 10
249.8223037763
 20
856.3373488838
 11
250.4148963689
 21
855.8929044393
 12
247.1556371097
 22
855.7447622251
 13
247.1556371097
 23
855.7447622251
  0
SOLID
  5
40A
100
AcDbEntity
  8
0
100
AcDbTrace
 62
5
  6
CONTINUOUS
 10
249.8223037763
 20
856.3373488838
 11
247.1556371097
 21
855.7447622251
 12
246.7111926652
 22
856.6336423544
 13
246.7111926652
 23
856.6336423544
  0
SOLID
  5
40B
100
AcDbEntity
  8
0
100
AcDbTrace
 62
5
  6
CONTINUOUS
 10
254.7111926652
 20
856.0410525875
 11
255.3037852578
 21
856.6336423544
 12
258.1186000726
 22
856.7818020879
 13
258.1186000726
 23
856.7818020879
  0
SOLID
  5
40C
100
AcDbEntity
  8
0
100
AcDbTrace
 62
5
  6
CONTINUOUS
 10
253.9704519245
 20
855.7447622251
 11
254.7111926652
 21
856.0410525875
 12
258.1186000726
 22
856.7818020879
 13
258.1186000726
 23
856.7818020879
  0
SOLID
  5
40D
100
AcDbEntity
  8
0
100
AcDbTrace
 62
5
  6
CONTINUOUS
 10
253.9704519245
 20
855.7447622251
 11
258.1186000726
 21
856.7818020879
 12
257.3778593319
 22
855.7447622251
 13
257.3778593319
 23
855.7447622251
  0
SOLID
  5
40E
100
AcDbEntity
  8
0
100
AcDbTrace
 62
5
  6
CONTINUOUS
 10
247.1556371097
 20
855.7447622251
 11
250.4148963689
 21
855.8929044393
 12
250.8593408134
 22
855.596608143
 13
250.8593408134
 23
855.596608143
  0
SOLID
  5
40F
100
AcDbEntity
  8
0
100
AcDbTrace
 62
5
  6
CONTINUOUS
 10
257.3778593319
 20
855.7447622251
 11
253.2297111838
 21
855.4484622554
 12
253.9704519245
 22
855.7447622251
 13
253.9704519245
 23
855.7447622251
  0
SOLID
  5
410
100
AcDbEntity
  8
0
100
AcDbTrace
 62
5
  6
CONTINUOUS
 10
253.2297111838
 20
855.4484622554
 11
257.3778593319
 21
855.7447622251
 12
256.9334148875
 22
855.1521636986
 13
256.9334148875
 23
855.1521636986
  0
SOLID
  5
411
100
AcDbEntity
  8
0
100
AcDbTrace
 62
5
  6
CONTINUOUS
 10
253.2297111838
 20
855.4484622554
 11
256.9334148875
 21
855.1521636986
 12
247.8963778504
 22
854.8558674023
 13
247.8963778504
 23
854.8558674023
  0
SOLID
  5
412
100
AcDbEntity
  8
0
100
AcDbTrace
 62
5
  6
CONTINUOUS
 10
252.3408222949
 20
855.4484622554
 11
253.2297111838
 21
855.4484622554
 12
247.8963778504
 22
854.8558674023
 13
247.8963778504
 23
854.8558674023
  0
SOLID
  5
413
100
AcDbEntity
  8
0
100
AcDbTrace
 62
5
  6
CONTINUOUS
 10
251.6000815541
 20
855.4484622554
 11
252.3408222949
 21
855.4484622554
 12
247.8963778504
 22
854.8558674023
 13
247.8963778504
 23
854.8558674023
  0
SOLID
  5
414
100
AcDbEntity
  8
0
100
AcDbTrace
 62
5
  6
CONTINUOUS
 10
250.8593408134
 20
855.596608143
 11
251.6000815541
 21
855.4484622554
 12
247.8963778504
 22
854.8558674023
 13
247.8963778504
 23
854.8558674023
  0
SOLID
  5
415
100
AcDbEntity
  8
0
100
AcDbTrace
 62
5
  6
CONTINUOUS
 10
250.8593408134
 20
855.596608143
 11
247.8963778504
 21
854.8558674023
 12
247.1556371097
 22
855.7447622251
 13
247.1556371097
 23
855.7447622251
  0
SOLID
  5
416
100
AcDbEntity
  8
0
100
AcDbTrace
 62
5
  6
CONTINUOUS
 10
247.8963778504
 20
854.8558674023
 11
256.9334148875
 21
855.1521636986
 12
256.3408222949
 22
854.7077192541
 13
256.3408222949
 23
854.7077192541
  0
SOLID
  5
417
100
AcDbEntity
  8
0
100
AcDbTrace
 62
5
  6
CONTINUOUS
 10
256.3408222949
 20
854.7077192541
 11
255.7482297023
 21
854.2632748097
 12
248.9334148875
 22
854.1151266615
 13
248.9334148875
 23
854.1151266615
  0
SOLID
  5
418
100
AcDbEntity
  8
0
100
AcDbTrace
 62
5
  6
CONTINUOUS
 10
256.3408222949
 20
854.7077192541
 11
248.9334148875
 21
854.1151266615
 12
247.8963778504
 22
854.8558674023
 13
247.8963778504
 23
854.8558674023
  0
SOLID
  5
419
100
AcDbEntity
  8
0
100
AcDbTrace
 62
5
  6
CONTINUOUS
 10
248.9334148875
 20
854.1151266615
 11
255.7482297023
 21
854.2632748097
 12
255.1556371097
 22
853.9669785134
 13
255.1556371097
 23
853.9669785134
  0
SOLID
  5
41A
100
AcDbEntity
  8
0
100
AcDbTrace
 62
5
  6
CONTINUOUS
 10
255.1556371097
 20
853.9669785134
 11
249.8223037763
 21
853.6706822171
 12
248.9334148875
 22
854.1151266615
 13
248.9334148875
 23
854.1151266615
  0
SOLID
  5
41B
100
AcDbEntity
  8
0
100
AcDbTrace
 62
5
  6
CONTINUOUS
 10
253.8223037763
 20
853.6706822171
 11
249.8223037763
 21
853.6706822171
 12
255.1556371097
 22
853.9669785134
 13
255.1556371097
 23
853.9669785134
  0
SOLID
  5
41C
100
AcDbEntity
  8
0
100
AcDbTrace
 62
5
  6
CONTINUOUS
 10
253.8223037763
 20
853.6706822171
 11
255.1556371097
 21
853.9669785134
 12
254.5630445171
 22
853.6706822171
 13
254.5630445171
 23
853.6706822171
  0
SOLID
  5
41D
100
AcDbEntity
  8
0
100
AcDbTrace
 62
5
  6
CONTINUOUS
 10
253.8223037763
 20
853.6706822171
 11
251.0074889615
 21
853.5225422193
 12
249.8223037763
 22
853.6706822171
 13
249.8223037763
 23
853.6706822171
  0
SOLID
  5
41E
100
AcDbEntity
  8
0
100
AcDbTrace
 62
5
  6
CONTINUOUS
 10
251.0074889615
 20
853.5225422193
 11
253.8223037763
 21
853.6706822171
 12
253.0815630356
 22
853.5225422193
 13
253.0815630356
 23
853.5225422193
  0
SOLID
  5
41F
100
AcDbEntity
  8
0
100
AcDbTrace
 62
5
  6
CONTINUOUS
 10
253.0815630356
 20
853.5225422193
 11
252.3408222949
 21
853.3743859208
 12
251.0074889615
 22
853.5225422193
 13
251.0074889615
 23
853.5225422193
  0
SOLID
  5
420
100
AcDbEntity
  8
0
100
AcDbTrace
 62
5
  6
CONTINUOUS
 10
266.8593408134
 20
873.5225295478
 11
267.8963778504
 21
873.6706822171
 12
268.6371185912
 22
873.5225295478
 13
268.6371185912
 23
873.5225295478
  0
SOLID
  5
421
100
AcDbEntity
  8
0
100
AcDbTrace
 62
5
  6
CONTINUOUS
 10
268.6371185912
 20
873.5225295478
 11
265.9704519245
 21
873.3743881814
 12
266.8593408134
 22
873.5225295478
 13
266.8593408134
 23
873.5225295478
  0
SOLID
  5
422
100
AcDbEntity
  8
0
100
AcDbTrace
 62
5
  6
CONTINUOUS
 10
265.9704519245
 20
873.3743881814
 11
268.6371185912
 21
873.5225295478
 12
269.3778593319
 22
873.3743881814
 13
269.3778593319
 23
873.3743881814
  0
SOLID
  5
423
100
AcDbEntity
  8
0
100
AcDbTrace
 62
5
  6
CONTINUOUS
 10
269.3778593319
 20
873.3743881814
 11
270.1186000726
 21
873.2262377726
 12
265.0815630356
 22
872.9299392158
 13
265.0815630356
 23
872.9299392158
  0
SOLID
  5
424
100
AcDbEntity
  8
0
100
AcDbTrace
 62
5
  6
CONTINUOUS
 10
269.3778593319
 20
873.3743881814
 11
265.0815630356
 21
872.9299392158
 12
265.9704519245
 22
873.3743881814
 13
265.9704519245
 23
873.3743881814
  0
SOLID
  5
425
100
AcDbEntity
  8
0
100
AcDbTrace
 62
5
  6
CONTINUOUS
 10
265.0815630356
 20
872.9299392158
 11
270.1186000726
 21
873.2262377726
 12
270.7111926652
 22
872.9299392158
 13
270.7111926652
 23
872.9299392158
  0
SOLID
  5
426
100
AcDbEntity
  8
0
100
AcDbTrace
 62
5
  6
CONTINUOUS
 10
270.7111926652
 20
872.9299392158
 11
271.3037852578
 21
872.6336451801
 12
264.3408222949
 22
872.4854970319
 13
264.3408222949
 23
872.4854970319
  0
SOLID
  5
427
100
AcDbEntity
  8
0
100
AcDbTrace
 62
5
  6
CONTINUOUS
 10
270.7111926652
 20
872.9299392158
 11
264.3408222949
 21
872.4854970319
 12
265.0815630356
 22
872.9299392158
 13
265.0815630356
 23
872.9299392158
  0
SOLID
  5
428
100
AcDbEntity
  8
0
100
AcDbTrace
 62
5
  6
CONTINUOUS
 10
264.3408222949
 20
872.4854970319
 11
271.3037852578
 21
872.6336451801
 12
271.8963778504
 22
872.1892007356
 13
271.8963778504
 23
872.1892007356
  0
SOLID
  5
429
100
AcDbEntity
  8
0
100
AcDbTrace
 62
5
  6
CONTINUOUS
 10
271.8963778504
 20
872.1892007356
 11
263.6000815541
 21
871.8929044393
 12
264.3408222949
 22
872.4854970319
 13
264.3408222949
 23
872.4854970319
  0
SOLID
  5
42A
100
AcDbEntity
  8
0
100
AcDbTrace
 62
5
  6
CONTINUOUS
 10
267.8963778504
 20
871.5966149247
 11
263.6000815541
 21
871.8929044393
 12
271.8963778504
 22
872.1892007356
 13
271.8963778504
 23
872.1892007356
  0
SOLID
  5
42B
100
AcDbEntity
  8
0
100
AcDbTrace
 62
5
  6
CONTINUOUS
 10
267.8963778504
 20
871.5966149247
 11
271.8963778504
 21
872.1892007356
 12
272.3408222949
 22
871.5966149247
 13
272.3408222949
 23
871.5966149247
  0
SOLID
  5
42C
100
AcDbEntity
  8
0
100
AcDbTrace
 62
5
  6
CONTINUOUS
 10
272.3408222949
 20
871.5966149247
 11
268.6371185912
 21
871.4484520829
 12
267.8963778504
 22
871.5966149247
 13
267.8963778504
 23
871.5966149247
  0
SOLID
  5
42D
100
AcDbEntity
  8
0
100
AcDbTrace
 62
5
  6
CONTINUOUS
 10
269.3778593319
 20
871.1521659591
 11
268.6371185912
 21
871.4484520829
 12
272.3408222949
 22
871.5966149247
 13
272.3408222949
 23
871.5966149247
  0
SOLID
  5
42E
100
AcDbEntity
  8
0
100
AcDbTrace
 62
5
  6
CONTINUOUS
 10
269.3778593319
 20
871.1521659591
 11
272.3408222949
 21
871.5966149247
 12
272.6371185912
 22
871.1521659591
 13
272.6371185912
 23
871.1521659591
  0
SOLID
  5
42F
100
AcDbEntity
  8
0
100
AcDbTrace
 62
5
  6
CONTINUOUS
 10
267.0074889615
 20
871.4484520829
 11
266.4148963689
 21
871.1521659591
 12
263.0074889615
 22
871.0040155504
 13
263.0074889615
 23
871.0040155504
  0
SOLID
  5
430
100
AcDbEntity
  8
0
100
AcDbTrace
 62
5
  6
CONTINUOUS
 10
267.8963778504
 20
871.5966149247
 11
267.0074889615
 21
871.4484520829
 12
263.0074889615
 22
871.0040155504
 13
263.0074889615
 23
871.0040155504
  0
SOLID
  5
431
100
AcDbEntity
  8
0
100
AcDbTrace
 62
5
  6
CONTINUOUS
 10
267.8963778504
 20
871.5966149247
 11
263.0074889615
 21
871.0040155504
 12
263.6000815541
 22
871.8929044393
 13
263.6000815541
 23
871.8929044393
  0
SOLID
  5
432
100
AcDbEntity
  8
0
100
AcDbTrace
 62
5
  6
CONTINUOUS
 10
263.0074889615
 20
871.0040155504
 11
266.4148963689
 21
871.1521659591
 12
265.6741556282
 22
870.7077192541
 13
265.6741556282
 23
870.7077192541
  0
SOLID
  5
433
100
AcDbEntity
  8
0
100
AcDbTrace
 62
5
  6
CONTINUOUS
 10
272.6371185912
 20
871.1521659591
 11
270.1186000726
 21
870.559571106
 12
269.3778593319
 22
871.1521659591
 13
269.3778593319
 23
871.1521659591
  0
SOLID
  5
434
100
AcDbEntity
  8
0
100
AcDbTrace
 62
5
  6
CONTINUOUS
 10
270.1186000726
 20
870.559571106
 11
272.6371185912
 21
871.1521659591
 12
273.0815630356
 22
870.4114229578
 13
273.0815630356
 23
870.4114229578
  0
SOLID
  5
435
100
AcDbEntity
  8
0
100
AcDbTrace
 62
5
  6
CONTINUOUS
 10
265.6741556282
 20
870.7077192541
 11
262.5630445171
 21
870.1151266615
 12
263.0074889615
 22
871.0040155504
 13
263.0074889615
 23
871.0040155504
  0
SOLID
  5
436
100
AcDbEntity
  8
0
100
AcDbTrace
 62
5
  6
CONTINUOUS
 10
262.5630445171
 20
870.1151266615
 11
265.6741556282
 21
870.7077192541
 12
265.2297111838
 22
870.1151266615
 13
265.2297111838
 23
870.1151266615
  0
SOLID
  5
437
100
AcDbEntity
  8
0
100
AcDbTrace
 62
5
  6
CONTINUOUS
 10
273.0815630356
 20
870.4114229578
 11
270.7111926652
 21
869.9669785134
 12
270.1186000726
 22
870.559571106
 13
270.1186000726
 23
870.559571106
  0
SOLID
  5
438
100
AcDbEntity
  8
0
100
AcDbTrace
 62
5
  6
CONTINUOUS
 10
270.7111926652
 20
869.9669785134
 11
273.0815630356
 21
870.4114229578
 12
273.3778593319
 22
869.8188303652
 13
273.3778593319
 23
869.8188303652
  0
SOLID
  5
439
100
AcDbEntity
  8
0
100
AcDbTrace
 62
5
  6
CONTINUOUS
 10
273.3778593319
 20
869.8188303652
 11
271.0074889615
 21
869.5225340689
 12
270.7111926652
 22
869.9669785134
 13
270.7111926652
 23
869.9669785134
  0
SOLID
  5
43A
100
AcDbEntity
  8
0
100
AcDbTrace
 62
5
  6
CONTINUOUS
 10
265.2297111838
 20
870.1151266615
 11
264.9334148875
 21
869.6706822171
 12
262.1186000726
 22
869.2262377726
 13
262.1186000726
 23
869.2262377726
  0
SOLID
  5
43B
100
AcDbEntity
  8
0
100
AcDbTrace
 62
5
  6
CONTINUOUS
 10
265.2297111838
 20
870.1151266615
 11
262.1186000726
 21
869.2262377726
 12
262.5630445171
 22
870.1151266615
 13
262.5630445171
 23
870.1151266615
  0
SOLID
  5
43C
100
AcDbEntity
  8
0
100
AcDbTrace
 62
5
  6
CONTINUOUS
 10
262.1186000726
 20
869.2262377726
 11
264.9334148875
 21
869.6706822171
 12
264.6371185912
 22
869.0780896245
 13
264.6371185912
 23
869.0780896245
  0
SOLID
  5
43D
100
AcDbEntity
  8
0
100
AcDbTrace
 62
5
  6
CONTINUOUS
 10
271.1556371097
 20
868.9299448672
 11
271.0074889615
 21
869.5225340689
 12
273.3778593319
 22
869.8188303652
 13
273.3778593319
 23
869.8188303652
  0
SOLID
  5
43E
100
AcDbEntity
  8
0
100
AcDbTrace
 62
5
  6
CONTINUOUS
 10
271.1556371097
 20
868.9299448672
 11
273.3778593319
 21
869.8188303652
 12
273.6741556282
 22
868.9299448672
 13
273.6741556282
 23
868.9299448672
  0
SOLID
  5
43F
100
AcDbEntity
  8
0
100
AcDbTrace
 62
5
  6
CONTINUOUS
 10
273.6741556282
 20
868.9299448672
 11
271.451933406
 21
868.1891916934
 12
271.1556371097
 22
868.9299448672
 13
271.1556371097
 23
868.9299448672
  0
SOLID
  5
440
100
AcDbEntity
  8
0
100
AcDbTrace
 62
5
  6
CONTINUOUS
 10
271.451933406
 20
868.1891916934
 11
273.6741556282
 21
868.9299448672
 12
273.9704519245
 22
868.1891916934
 13
273.9704519245
 23
868.1891916934
  0
SOLID
  5
441
100
AcDbEntity
  8
0
100
AcDbTrace
 62
5
  6
CONTINUOUS
 10
264.6371185912
 20
869.0780896245
 11
264.488970443
 21
868.3373488838
 12
261.8223037763
 22
868.0410525875
 13
261.8223037763
 23
868.0410525875
  0
SOLID
  5
442
100
AcDbEntity
  8
0
100
AcDbTrace
 62
5
  6
CONTINUOUS
 10
264.6371185912
 20
869.0780896245
 11
261.8223037763
 21
868.0410525875
 12
262.1186000726
 22
869.2262377726
 13
262.1186000726
 23
869.2262377726
  0
SOLID
  5
443
100
AcDbEntity
  8
0
100
AcDbTrace
 62
5
  6
CONTINUOUS
 10
261.8223037763
 20
868.0410525875
 11
264.488970443
 21
868.3373488838
 12
264.3408222949
 22
867.596608143
 13
264.3408222949
 23
867.596608143
  0
SOLID
  5
444
100
AcDbEntity
  8
0
100
AcDbTrace
 62
5
  6
CONTINUOUS
 10
273.9704519245
 20
868.1891916934
 11
271.6000815541
 21
867.4484599949
 12
271.451933406
 22
868.1891916934
 13
271.451933406
 23
868.1891916934
  0
SOLID
  5
445
100
AcDbEntity
  8
0
100
AcDbTrace
 62
5
  6
CONTINUOUS
 10
271.6000815541
 20
867.4484599949
 11
273.9704519245
 21
868.1891916934
 12
274.1186000726
 22
867.1521636986
 13
274.1186000726
 23
867.1521636986
  0
SOLID
  5
446
100
AcDbEntity
  8
0
100
AcDbTrace
 62
5
  6
CONTINUOUS
 10
264.3408222949
 20
867.596608143
 11
261.6741556282
 21
866.7077237753
 12
261.8223037763
 22
868.0410525875
 13
261.8223037763
 23
868.0410525875
  0
SOLID
  5
447
100
AcDbEntity
  8
0
100
AcDbTrace
 62
5
  6
CONTINUOUS
 10
261.6741556282
 20
866.7077237753
 11
264.3408222949
 21
867.596608143
 12
264.1926741467
 22
866.7077237753
 13
264.1926741467
 23
866.7077237753
  0
SOLID
  5
448
100
AcDbEntity
  8
0
100
AcDbTrace
 62
5
  6
CONTINUOUS
 10
274.1186000726
 20
867.1521636986
 11
271.6000815541
 21
866.7077237753
 12
271.6000815541
 22
867.4484599949
 13
271.6000815541
 23
867.4484599949
  0
SOLID
  5
449
100
AcDbEntity
  8
0
100
AcDbTrace
 62
5
  6
CONTINUOUS
 10
271.6000815541
 20
866.7077237753
 11
274.1186000726
 21
867.1521636986
 12
274.2667482208
 22
866.1151266615
 13
274.2667482208
 23
866.1151266615
  0
SOLID
  5
44A
100
AcDbEntity
  8
0
100
AcDbTrace
 62
5
  6
CONTINUOUS
 10
274.2667482208
 20
866.1151266615
 11
271.7482297023
 21
865.6706844777
 12
271.6000815541
 22
866.7077237753
 13
271.6000815541
 23
866.7077237753
  0
SOLID
  5
44B
100
AcDbEntity
  8
0
100
AcDbTrace
 62
5
  6
CONTINUOUS
 10
264.1926741467
 20
866.7077237753
 11
264.0445259986
 21
865.6706844777
 12
261.52600748
 22
865.0780896245
 13
261.52600748
 23
865.0780896245
  0
SOLID
  5
44C
100
AcDbEntity
  8
0
100
AcDbTrace
 62
5
  6
CONTINUOUS
 10
264.1926741467
 20
866.7077237753
 11
261.52600748
 21
865.0780896245
 12
261.6741556282
 22
866.7077237753
 13
261.6741556282
 23
866.7077237753
  0
SOLID
  5
44D
100
AcDbEntity
  8
0
100
AcDbTrace
 62
5
  6
CONTINUOUS
 10
271.7482297023
 20
865.6706844777
 11
274.2667482208
 21
866.1151266615
 12
274.2667482208
 22
864.7817933282
 13
274.2667482208
 23
864.7817933282
  0
SOLID
  5
44E
100
AcDbEntity
  8
0
100
AcDbTrace
 62
5
  6
CONTINUOUS
 10
261.52600748
 20
865.0780896245
 11
264.0445259986
 21
865.6706844777
 12
264.0445259986
 22
864.6336451801
 13
264.0445259986
 23
864.6336451801
  0
SOLID
  5
44F
100
AcDbEntity
  8
0
100
AcDbTrace
 62
5
  6
CONTINUOUS
 10
274.2667482208
 20
864.7817933282
 11
271.7482297023
 21
864.6336451801
 12
271.7482297023
 22
865.6706844777
 13
271.7482297023
 23
865.6706844777
  0
SOLID
  5
450
100
AcDbEntity
  8
0
100
AcDbTrace
 62
5
  6
CONTINUOUS
 10
264.0445259986
 20
864.6336451801
 11
261.52600748
 21
863.4484633857
 12
261.52600748
 22
865.0780896245
 13
261.52600748
 23
865.0780896245
  0
SOLID
  5
451
100
AcDbEntity
  8
0
100
AcDbTrace
 62
5
  6
CONTINUOUS
 10
261.52600748
 20
863.4484633857
 11
264.0445259986
 21
864.6336451801
 12
264.0445259986
 22
863.4484633857
 13
264.0445259986
 23
863.4484633857
  0
SOLID
  5
452
100
AcDbEntity
  8
0
100
AcDbTrace
 62
5
  6
CONTINUOUS
 10
271.8963778504
 20
863.4484633857
 11
271.7482297023
 21
864.6336451801
 12
274.2667482208
 22
864.7817933282
 13
274.2667482208
 23
864.7817933282
  0
SOLID
  5
453
100
AcDbEntity
  8
0
100
AcDbTrace
 62
5
  6
CONTINUOUS
 10
271.8963778504
 20
863.4484633857
 11
274.2667482208
 21
864.7817933282
 12
274.4148963689
 22
863.4484633857
 13
274.4148963689
 23
863.4484633857
  0
SOLID
  5
454
100
AcDbEntity
  8
0
100
AcDbTrace
 62
5
  6
CONTINUOUS
 10
274.4148963689
 20
863.4484633857
 11
271.7482297023
 21
862.2632815914
 12
271.8963778504
 22
863.4484633857
 13
271.8963778504
 23
863.4484633857
  0
SOLID
  5
455
100
AcDbEntity
  8
0
100
AcDbTrace
 62
5
  6
CONTINUOUS
 10
264.0445259986
 20
863.4484633857
 11
264.0445259986
 21
862.2632815914
 12
261.52600748
 22
862.1151266615
 13
261.52600748
 23
862.1151266615
  0
SOLID
  5
456
100
AcDbEntity
  8
0
100
AcDbTrace
 62
5
  6
CONTINUOUS
 10
264.0445259986
 20
863.4484633857
 11
261.52600748
 21
862.1151266615
 12
261.52600748
 22
863.4484633857
 13
261.52600748
 23
863.4484633857
  0
SOLID
  5
457
100
AcDbEntity
  8
0
100
AcDbTrace
 62
5
  6
CONTINUOUS
 10
271.7482297023
 20
862.2632815914
 11
274.4148963689
 21
863.4484633857
 12
274.2667482208
 22
861.8188303652
 13
274.2667482208
 23
861.8188303652
  0
SOLID
  5
458
100
AcDbEntity
  8
0
100
AcDbTrace
 62
5
  6
CONTINUOUS
 10
261.52600748
 20
862.1151266615
 11
264.0445259986
 21
862.2632815914
 12
264.0445259986
 22
861.2262422938
 13
264.0445259986
 23
861.2262422938
  0
SOLID
  5
459
100
AcDbEntity
  8
0
100
AcDbTrace
 62
5
  6
CONTINUOUS
 10
274.2667482208
 20
861.8188303652
 11
271.7482297023
 21
861.2262422938
 12
271.7482297023
 22
862.2632815914
 13
271.7482297023
 23
862.2632815914
  0
SOLID
  5
45A
100
AcDbEntity
  8
0
100
AcDbTrace
 62
5
  6
CONTINUOUS
 10
264.0445259986
 20
861.2262422938
 11
261.52600748
 21
860.7817933282
 12
261.52600748
 22
862.1151266615
 13
261.52600748
 23
862.1151266615
  0
SOLID
  5
45B
100
AcDbEntity
  8
0
100
AcDbTrace
 62
5
  6
CONTINUOUS
 10
271.7482297023
 20
861.2262422938
 11
274.2667482208
 21
861.8188303652
 12
274.1186000726
 22
860.3373488838
 13
274.1186000726
 23
860.3373488838
  0
SOLID
  5
45C
100
AcDbEntity
  8
0
100
AcDbTrace
 62
5
  6
CONTINUOUS
 10
261.52600748
 20
860.7817933282
 11
264.0445259986
 21
861.2262422938
 12
264.1926741467
 22
860.1892029962
 13
264.1926741467
 23
860.1892029962
  0
SOLID
  5
45D
100
AcDbEntity
  8
0
100
AcDbTrace
 62
5
  6
CONTINUOUS
 10
274.1186000726
 20
860.3373488838
 11
271.6000815541
 21
860.1892029962
 12
271.7482297023
 22
861.2262422938
 13
271.7482297023
 23
861.2262422938
  0
SOLID
  5
45E
100
AcDbEntity
  8
0
100
AcDbTrace
 62
5
  6
CONTINUOUS
 10
264.1926741467
 20
860.1892029962
 11
261.6741556282
 21
859.7447562912
 12
261.52600748
 22
860.7817933282
 13
261.52600748
 23
860.7817933282
  0
SOLID
  5
45F
100
AcDbEntity
  8
0
100
AcDbTrace
 62
5
  6
CONTINUOUS
 10
261.6741556282
 20
859.7447562912
 11
264.1926741467
 21
860.1892029962
 12
264.1926741467
 22
859.3003067605
 13
264.1926741467
 23
859.3003067605
  0
SOLID
  5
460
100
AcDbEntity
  8
0
100
AcDbTrace
 62
5
  6
CONTINUOUS
 10
271.6000815541
 20
859.3003067605
 11
271.6000815541
 21
860.1892029962
 12
274.1186000726
 22
860.3373488838
 13
274.1186000726
 23
860.3373488838
  0
SOLID
  5
461
100
AcDbEntity
  8
0
100
AcDbTrace
 62
5
  6
CONTINUOUS
 10
271.6000815541
 20
859.3003067605
 11
274.1186000726
 21
860.3373488838
 12
273.9704519245
 22
859.0040155504
 13
273.9704519245
 23
859.0040155504
  0
SOLID
  5
462
100
AcDbEntity
  8
0
100
AcDbTrace
 62
5
  6
CONTINUOUS
 10
264.1926741467
 20
859.3003067605
 11
261.9704519245
 21
858.5595728014
 12
261.6741556282
 22
859.7447562912
 13
261.6741556282
 23
859.7447562912
  0
SOLID
  5
463
100
AcDbEntity
  8
0
100
AcDbTrace
 62
5
  6
CONTINUOUS
 10
261.9704519245
 20
858.5595728014
 11
264.1926741467
 21
859.3003067605
 12
264.488970443
 22
858.5595728014
 13
264.488970443
 23
858.5595728014
  0
SOLID
  5
464
100
AcDbEntity
  8
0
100
AcDbTrace
 62
5
  6
CONTINUOUS
 10
273.9704519245
 20
859.0040155504
 11
271.451933406
 21
858.5595728014
 12
271.6000815541
 22
859.3003067605
 13
271.6000815541
 23
859.3003067605
  0
SOLID
  5
465
100
AcDbEntity
  8
0
100
AcDbTrace
 62
5
  6
CONTINUOUS
 10
271.1556371097
 20
857.9669819042
 11
271.451933406
 21
858.5595728014
 12
273.9704519245
 22
859.0040155504
 13
273.9704519245
 23
859.0040155504
  0
SOLID
  5
466
100
AcDbEntity
  8
0
100
AcDbTrace
 62
5
  6
CONTINUOUS
 10
271.1556371097
 20
857.9669819042
 11
273.9704519245
 21
859.0040155504
 12
273.6741556282
 22
857.8188303652
 13
273.6741556282
 23
857.8188303652
  0
SOLID
  5
467
100
AcDbEntity
  8
0
100
AcDbTrace
 62
5
  6
CONTINUOUS
 10
264.488970443
 20
858.5595728014
 11
264.6371185912
 21
857.9669819042
 12
262.2667482208
 22
857.6706822171
 13
262.2667482208
 23
857.6706822171
  0
SOLID
  5
468
100
AcDbEntity
  8
0
100
AcDbTrace
 62
5
  6
CONTINUOUS
 10
264.488970443
 20
858.5595728014
 11
262.2667482208
 21
857.6706822171
 12
261.9704519245
 22
858.5595728014
 13
261.9704519245
 23
858.5595728014
  0
SOLID
  5
469
100
AcDbEntity
  8
0
100
AcDbTrace
 62
5
  6
CONTINUOUS
 10
262.2667482208
 20
857.6706822171
 11
264.6371185912
 21
857.9669819042
 12
264.7852667393
 22
857.3743910071
 13
264.7852667393
 23
857.3743910071
  0
SOLID
  5
46A
100
AcDbEntity
  8
0
100
AcDbTrace
 62
5
  6
CONTINUOUS
 10
273.6741556282
 20
857.8188303652
 11
271.0074889615
 21
857.3743910071
 12
271.1556371097
 22
857.9669819042
 13
271.1556371097
 23
857.9669819042
  0
SOLID
  5
46B
100
AcDbEntity
  8
0
100
AcDbTrace
 62
5
  6
CONTINUOUS
 10
264.7852667393
 20
857.3743910071
 11
265.0815630356
 21
856.9299426066
 12
262.5630445171
 22
856.7818001099
 13
262.5630445171
 23
856.7818001099
  0
SOLID
  5
46C
100
AcDbEntity
  8
0
100
AcDbTrace
 62
5
  6
CONTINUOUS
 10
264.7852667393
 20
857.3743910071
 11
262.5630445171
 21
856.7818001099
 12
262.2667482208
 22
857.6706822171
 13
262.2667482208
 23
857.6706822171
  0
SOLID
  5
46D
100
AcDbEntity
  8
0
100
AcDbTrace
 62
5
  6
CONTINUOUS
 10
270.7111926652
 20
856.9299426066
 11
271.0074889615
 21
857.3743910071
 12
273.6741556282
 22
857.8188303652
 13
273.6741556282
 23
857.8188303652
  0
SOLID
  5
46E
100
AcDbEntity
  8
0
100
AcDbTrace
 62
5
  6
CONTINUOUS
 10
270.7111926652
 20
856.9299426066
 11
273.6741556282
 21
857.8188303652
 12
273.2297111838
 22
856.7818001099
 13
273.2297111838
 23
856.7818001099
  0
SOLID
  5
46F
100
AcDbEntity
  8
0
100
AcDbTrace
 62
5
  6
CONTINUOUS
 10
273.2297111838
 20
856.7818001099
 11
270.1186000726
 21
856.3373488838
 12
270.7111926652
 22
856.9299426066
 13
270.7111926652
 23
856.9299426066
  0
SOLID
  5
470
100
AcDbEntity
  8
0
100
AcDbTrace
 62
5
  6
CONTINUOUS
 10
262.5630445171
 20
856.7818001099
 11
265.0815630356
 21
856.9299426066
 12
265.6741556282
 22
856.1892007356
 13
265.6741556282
 23
856.1892007356
  0
SOLID
  5
471
100
AcDbEntity
  8
0
100
AcDbTrace
 62
5
  6
CONTINUOUS
 10
265.6741556282
 20
856.1892007356
 11
263.0074889615
 21
856.0410525875
 12
262.5630445171
 22
856.7818001099
 13
262.5630445171
 23
856.7818001099
  0
SOLID
  5
472
100
AcDbEntity
  8
0
100
AcDbTrace
 62
5
  6
CONTINUOUS
 10
270.1186000726
 20
856.3373488838
 11
273.2297111838
 21
856.7818001099
 12
272.7852667393
 22
855.8929044393
 13
272.7852667393
 23
855.8929044393
  0
SOLID
  5
473
100
AcDbEntity
  8
0
100
AcDbTrace
 62
5
  6
CONTINUOUS
 10
263.0074889615
 20
856.0410525875
 11
265.6741556282
 21
856.1892007356
 12
266.4148963689
 22
855.744760671
 13
266.4148963689
 23
855.744760671
  0
SOLID
  5
474
100
AcDbEntity
  8
0
100
AcDbTrace
 62
5
  6
CONTINUOUS
 10
272.7852667393
 20
855.8929044393
 11
269.3778593319
 21
855.744760671
 12
270.1186000726
 22
856.3373488838
 13
270.1186000726
 23
856.3373488838
  0
SOLID
  5
475
100
AcDbEntity
  8
0
100
AcDbTrace
 62
5
  6
CONTINUOUS
 10
267.8963778504
 20
855.4484550499
 11
268.6371185912
 21
855.4484550499
 12
263.451933406
 22
855.3003118467
 13
263.451933406
 23
855.3003118467
  0
SOLID
  5
476
100
AcDbEntity
  8
0
100
AcDbTrace
 62
5
  6
CONTINUOUS
 10
267.1556371097
 20
855.4484550499
 11
267.8963778504
 21
855.4484550499
 12
263.451933406
 22
855.3003118467
 13
263.451933406
 23
855.3003118467
  0
SOLID
  5
477
100
AcDbEntity
  8
0
100
AcDbTrace
 62
5
  6
CONTINUOUS
 10
266.4148963689
 20
855.744760671
 11
267.1556371097
 21
855.4484550499
 12
263.451933406
 22
855.3003118467
 13
263.451933406
 23
855.3003118467
  0
SOLID
  5
478
100
AcDbEntity
  8
0
100
AcDbTrace
 62
5
  6
CONTINUOUS
 10
266.4148963689
 20
855.744760671
 11
263.451933406
 21
855.3003118467
 12
263.0074889615
 22
856.0410525875
 13
263.0074889615
 23
856.0410525875
  0
SOLID
  5
479
100
AcDbEntity
  8
0
100
AcDbTrace
 62
5
  6
CONTINUOUS
 10
268.6371185912
 20
855.4484550499
 11
269.3778593319
 21
855.744760671
 12
272.7852667393
 22
855.8929044393
 13
272.7852667393
 23
855.8929044393
  0
SOLID
  5
47A
100
AcDbEntity
  8
0
100
AcDbTrace
 62
5
  6
CONTINUOUS
 10
272.1926741467
 20
855.0040155504
 11
263.451933406
 21
855.3003118467
 12
268.6371185912
 22
855.4484550499
 13
268.6371185912
 23
855.4484550499
  0
SOLID
  5
47B
100
AcDbEntity
  8
0
100
AcDbTrace
 62
5
  6
CONTINUOUS
 10
268.6371185912
 20
855.4484550499
 11
272.7852667393
 21
855.8929044393
 12
272.1926741467
 22
855.0040155504
 13
272.1926741467
 23
855.0040155504
  0
SOLID
  5
47C
100
AcDbEntity
  8
0
100
AcDbTrace
 62
5
  6
CONTINUOUS
 10
272.1926741467
 20
855.0040155504
 11
263.8963778504
 21
854.8558674023
 12
263.451933406
 22
855.3003118467
 13
263.451933406
 23
855.3003118467
  0
SOLID
  5
47D
100
AcDbEntity
  8
0
100
AcDbTrace
 62
5
  6
CONTINUOUS
 10
264.3408222949
 20
854.4114158229
 11
263.8963778504
 21
854.8558674023
 12
272.1926741467
 22
855.0040155504
 13
272.1926741467
 23
855.0040155504
  0
SOLID
  5
47E
100
AcDbEntity
  8
0
100
AcDbTrace
 62
5
  6
CONTINUOUS
 10
264.3408222949
 20
854.4114158229
 11
272.1926741467
 21
855.0040155504
 12
271.451933406
 22
854.4114158229
 13
271.451933406
 23
854.4114158229
  0
SOLID
  5
47F
100
AcDbEntity
  8
0
100
AcDbTrace
 62
5
  6
CONTINUOUS
 10
271.451933406
 20
854.4114158229
 11
264.7852667393
 21
854.1151266615
 12
264.3408222949
 22
854.4114158229
 13
264.3408222949
 23
854.4114158229
  0
SOLID
  5
480
100
AcDbEntity
  8
0
100
AcDbTrace
 62
5
  6
CONTINUOUS
 10
264.7852667393
 20
854.1151266615
 11
271.451933406
 21
854.4114158229
 12
270.7111926652
 22
853.9669785134
 13
270.7111926652
 23
853.9669785134
  0
SOLID
  5
481
100
AcDbEntity
  8
0
100
AcDbTrace
 62
5
  6
CONTINUOUS
 10
270.7111926652
 20
853.9669785134
 11
265.3778593319
 21
853.8188303652
 12
264.7852667393
 22
854.1151266615
 13
264.7852667393
 23
854.1151266615
  0
SOLID
  5
482
100
AcDbEntity
  8
0
100
AcDbTrace
 62
5
  6
CONTINUOUS
 10
265.9704519245
 20
853.6706822171
 11
265.3778593319
 21
853.8188303652
 12
270.7111926652
 22
853.9669785134
 13
270.7111926652
 23
853.9669785134
  0
SOLID
  5
483
100
AcDbEntity
  8
0
100
AcDbTrace
 62
5
  6
CONTINUOUS
 10
265.9704519245
 20
853.6706822171
 11
270.7111926652
 21
853.9669785134
 12
269.8223037763
 22
853.6706822171
 13
269.8223037763
 23
853.6706822171
  0
SOLID
  5
484
100
AcDbEntity
  8
0
100
AcDbTrace
 62
5
  6
CONTINUOUS
 10
269.8223037763
 20
853.6706822171
 11
266.5630445171
 21
853.5225395526
 12
265.9704519245
 22
853.6706822171
 13
265.9704519245
 23
853.6706822171
  0
SOLID
  5
485
100
AcDbEntity
  8
0
100
AcDbTrace
 62
5
  6
CONTINUOUS
 10
267.1556371097
 20
853.5225395526
 11
266.5630445171
 21
853.5225395526
 12
269.8223037763
 22
853.6706822171
 13
269.8223037763
 23
853.6706822171
  0
SOLID
  5
486
100
AcDbEntity
  8
0
100
AcDbTrace
 62
5
  6
CONTINUOUS
 10
267.1556371097
 20
853.5225395526
 11
269.8223037763
 21
853.6706822171
 12
268.9334148875
 22
853.5225395526
 13
268.9334148875
 23
853.5225395526
  0
SOLID
  5
487
100
AcDbEntity
  8
0
100
AcDbTrace
 62
5
  6
CONTINUOUS
 10
268.9334148875
 20
853.5225395526
 11
267.8963778504
 21
853.3743859208
 12
267.1556371097
 22
853.5225395526
 13
267.1556371097
 23
853.5225395526
  0
LINE
  5
488
100
AcDbEntity
  8
0
100
AcDbLine
 62
7
  6
CONTINUOUS
 10
0.0
 20
0.0
 11
500.0
 21
0.0
  0
LINE
  5
489
100
AcDbEntity
  8
0
100
AcDbLine
 62
7
  6
CONTINUOUS
 10
90.4834308611
 20
185.9420002125
 11
371.4834308611
 21
185.9420002125
  0
LINE
  5
48A
100
AcDbEntity
  8
0
100
AcDbLine
 62
7
  6
CONTINUOUS
 10
0.0
 20
0.0
 11
0.0
 21
1000.0
  0
LINE
  5
48B
100
AcDbEntity
  8
0
100
AcDbLine
 62
7
  6
CONTINUOUS
 10
500.0
 20
0.0
 11
500.0
 21
1000.0
  0
LINE
  5
48C
100
AcDbEntity
  8
0
100
AcDbLine
 62
7
  6
CONTINUOUS
 10
0.0
 20
1000.0
 11
500.0
 21
1000.0
  0
LINE
  5
48D
100
AcDbEntity
  8
0
100
AcDbLine
 62
7
  6
CONTINUOUS
 10
427.4834308611
 20
258.7482770001
 11
77.4834308611
 21
258.7482770001
  0
LINE
  5
48E
100
AcDbEntity
  8
0
100
AcDbLine
 62
7
  6
CONTINUOUS
 10
408.4834308611
 20
274.7482770001
 11
77.4834308611
 21
274.7482770001
  0
LINE
  5
48F
100
AcDbEntity
  8
0
100
AcDbLine
 62
2
  6
CONTINUOUS
 10
160.5334308611
 20
942.7482770001
 11
176.5334308611
 21
958.7482770001
  0
LWPOLYLINE
  5
490
100
AcDbEntity
  8
0
100
AcDbPolyline
 62
7
  6
CONTINUOUS
 90
3
 70
0
 43
0.5
 10
50.5776548032
 20
896.0983072917
 10
51.5776548032
 20
899.5983072917
 10
52.5776548032
 20
896.0983072917
  0
LWPOLYLINE
  5
491
100
AcDbEntity
  8
DIMENSIONS
100
AcDbPolyline
 62
5
  6
CONTINUOUS
 90
10
 70
0
 10
223.8584346065
 20
972.1157407407
 10
224.5726996528
 20
972.830005787
 10
224.7513020833
 20
973.5443431713
 10
224.7513020833
 20
974.2586082176
 10
224.3941333912
 20
974.6157407407
 10
223.8584346065
 20
974.6157407407
 10
223.5013020833
 20
974.2586082176
 10
223.5013020833
 20
973.5443431713
 10
223.8584346065
 20
973.1871383102
 10
224.6322337963
 20
973.1871383102
  0
LINE
  5
492
100
AcDbEntity
  8
0
100
AcDbLine
 62
2
  6
CONTINUOUS
 10
159.5334308611
 20
822.7482770001
 11
175.5334308611
 21
838.7482770001
  0
LINE
  5
493
100
AcDbEntity
  8
0
100
AcDbLine
 62
2
  6
CONTINUOUS
 10
279.5334308611
 20
942.7482770001
 11
295.5334308611
 21
958.7482770001
  0
LINE
  5
494
100
AcDbEntity
  8
0
100
AcDbLine
 62
7
  6
CONTINUOUS
 10
77.4834308611
 20
258.7482770001
 11
77.4834308611
 21
274.7482770001
  0
LINE
  5
495
100
AcDbEntity
  8
ACHSEN
100
AcDbLine
 62
7
  6
CONTINUOUS
 10
77.4834308611
 20
274.7482770001
 11
77.4834308611
 21
838.7482770001
  0
LINE
  5
496
100
AcDbEntity
  8
0
100
AcDbLine
 62
7
  6
CONTINUOUS
 10
77.4834308611
 20
838.7482770001
 11
77.4834308611
 21
939.7482770001
  0
LINE
  5
497
100
AcDbEntity
  8
ACHSEN
100
AcDbLine
 62
7
  6
CONTINUOUS
 10
77.4834308611
 20
939.7482770001
 11
77.4834308611
 21
942.7482770001
  0
LINE
  5
498
100
AcDbEntity
  8
0
100
AcDbLine
 62
7
  6
CONTINUOUS
 10
77.4834308611
 20
942.7482770001
 11
77.4834308611
 21
958.7482770001
  0
LINE
  5
499
100
AcDbEntity
  8
0
100
AcDbLine
 62
7
  6
CONTINUOUS
 10
90.4834308611
 20
822.7482770001
 11
90.4834308611
 21
838.7482770001
  0
LINE
  5
49A
100
AcDbEntity
  8
0
100
AcDbLine
 62
2
  6
CONTINUOUS
 10
278.5334308611
 20
822.7482770001
 11
294.5334308611
 21
838.7482770001
  0
LINE
  5
49B
100
AcDbEntity
  8
0
100
AcDbLine
 62
2
  6
CONTINUOUS
 10
398.5334308611
 20
942.7482770001
 11
414.5334308611
 21
958.7482770001
  0
LINE
  5
49C
100
AcDbEntity
  8
0
100
AcDbLine
 62
2
  6
CONTINUOUS
 10
397.5334308611
 20
822.7482770001
 11
413.5334308611
 21
838.7482770001
  0
LINE
  5
49D
100
AcDbEntity
  8
DIMENSIONS
100
AcDbLine
 62
5
  6
CONTINUOUS
 10
226.298900463
 20
972.1157407407
 11
226.298900463
 21
973.3657407407
  0
LINE
  5
49E
100
AcDbEntity
  8
0
100
AcDbLine
 62
2
  6
CONTINUOUS
 10
408.4834308611
 20
714.6982770001
 11
427.4834308611
 21
733.6982770001
  0
LWPOLYLINE
  5
49F
100
AcDbEntity
  8
DIMENSIONS
100
AcDbPolyline
 62
5
  6
CONTINUOUS
 90
3
 70
0
 10
65.0726996528
 20
886.8375289352
 10
64.3584346065
 20
887.5518663194
 10
66.8584346065
 20
887.5518663194
  0
LWPOLYLINE
  5
4A0
100
AcDbEntity
  8
DIMENSIONS
100
AcDbPolyline
 62
5
  6
CONTINUOUS
 90
3
 70
0
 10
65.0726996528
 20
890.230396412
 10
64.3584346065
 20
890.9447337963
 10
66.8584346065
 20
890.9447337963
  0
LWPOLYLINE
  5
4A1
100
AcDbEntity
  8
DIMENSIONS
100
AcDbPolyline
 62
5
  6
CONTINUOUS
 90
3
 70
0
 10
65.0726996528
 20
947.5518663194
 10
64.3584346065
 20
948.2661313657
 10
66.8584346065
 20
948.2661313657
  0
LINE
  5
4A2
100
AcDbEntity
  8
ACHSEN
100
AcDbLine
 62
7
  6
CONTINUOUS
 10
371.4834308611
 20
868.7482770001
 11
371.4834308611
 21
909.7482770001
  0
LWPOLYLINE
  5
4A3
100
AcDbEntity
  8
0
100
AcDbPolyline
 62
7
  6
CONTINUOUS
 90
3
 70
0
 43
0.5
 10
451.3891782407
 20
896.0983072917
 10
452.3891782407
 20
899.5983072917
 10
453.3891782407
 20
896.0983072917
  0
LINE
  5
4A4
100
AcDbEntity
  8
0
100
AcDbLine
 62
2
  6
CONTINUOUS
 10
77.4834308611
 20
264.6982770001
 11
87.5334308611
 21
274.7482770001
  0
LINE
  5
4A5
100
AcDbEntity
  8
0
100
AcDbLine
 62
2
  6
CONTINUOUS
 10
408.4834308611
 20
595.6982770001
 11
427.4834308611
 21
614.6982770001
  0
LWPOLYLINE
  5
4A6
100
AcDbEntity
  8
DIMENSIONS
100
AcDbPolyline
 62
5
  6
CONTINUOUS
 90
10
 70
0
 10
66.8584346065
 20
949.3375289352
 10
66.1441333912
 20
950.0518663194
 10
65.4298683449
 20
950.230396412
 10
64.7155671296
 20
950.230396412
 10
64.3584346065
 20
949.8732638889
 10
64.3584346065
 20
949.3375289352
 10
64.7155671296
 20
948.980396412
 10
65.4298683449
 20
948.980396412
 10
65.7870008681
 20
949.3375289352
 10
65.7870008681
 20
950.111400463
  0
LINE
  5
4A7
100
AcDbEntity
  8
0
100
AcDbLine
 62
7
  6
CONTINUOUS
 10
408.4834308611
 20
274.7482770001
 11
408.4834308611
 21
822.7482770001
  0
LINE
  5
4A8
100
AcDbEntity
  8
0
100
AcDbLine
 62
7
  6
CONTINUOUS
 10
427.4834308611
 20
258.7482770001
 11
427.4834308611
 21
838.7482770001
  0
LINE
  5
4A9
100
AcDbEntity
  8
KOERPER
100
AcDbLine
 62
7
  6
CONTINUOUS
 10
427.4834308611
 20
838.7482770001
 11
427.4834308611
 21
942.7482770001
  0
LINE
  5
4AA
100
AcDbEntity
  8
0
100
AcDbLine
 62
7
  6
CONTINUOUS
 10
427.4834308611
 20
942.7482770001
 11
427.4834308611
 21
958.7482770001
  0
LINE
  5
4AB
100
AcDbEntity
  8
0
100
AcDbLine
 62
2
  6
CONTINUOUS
 10
190.5334308611
 20
258.7482770001
 11
206.5334308611
 21
274.7482770001
  0
LINE
  5
4AC
100
AcDbEntity
  8
0
100
AcDbLine
 62
2
  6
CONTINUOUS
 10
408.4834308611
 20
476.6982770001
 11
427.4834308611
 21
495.6982770001
  0
LINE
  5
4AD
100
AcDbEntity
  8
0
100
AcDbLine
 62
7
  6
CONTINUOUS
 10
408.4834308611
 20
822.7482770001
 11
90.4834308611
 21
822.7482770001
  0
LINE
  5
4AE
100
AcDbEntity
  8
0
100
AcDbLine
 62
7
  6
CONTINUOUS
 10
427.4834308611
 20
838.7482770001
 11
90.4834308611
 21
838.7482770001
  0
LINE
  5
4AF
100
AcDbEntity
  8
ACHSEN
100
AcDbLine
 62
7
  6
CONTINUOUS
 10
77.4834308611
 20
838.7482770001
 11
90.4834308611
 21
838.7482770001
  0
LINE
  5
4B0
100
AcDbEntity
  8
0
100
AcDbLine
 62
2
  6
CONTINUOUS
 10
309.5334308611
 20
258.7482770001
 11
325.5334308611
 21
274.7482770001
  0
LINE
  5
4B1
100
AcDbEntity
  8
0
100
AcDbLine
 62
2
  6
CONTINUOUS
 10
408.4834308611
 20
357.6982770001
 11
427.4834308611
 21
376.6982770001
  0
LINE
  5
4B2
100
AcDbEntity
  8
DEFAULT_1
100
AcDbLine
 62
7
  6
CENTER
 10
450.0142015919
 20
883.7482770001
 11
446.0142015919
 21
883.7482770001
  0
LINE
  5
4B3
100
AcDbEntity
  8
DEFAULT_1
100
AcDbLine
 62
9
  6
CENTER
 10
446.0142015919
 20
883.7482770001
 11
58.9526601303
 21
883.7482770001
  0
LINE
  5
4B4
100
AcDbEntity
  8
DEFAULT_1
100
AcDbLine
 62
7
  6
CENTER
 10
58.9526601303
 20
883.7482770001
 11
54.9526601303
 21
883.7482770001
  0
LWPOLYLINE
  5
4B5
100
AcDbEntity
  8
DIMENSIONS
100
AcDbPolyline
 62
5
  6
CONTINUOUS
 90
13
 70
0
 10
66.1441333912
 20
888.2661313657
 10
65.0726996528
 20
888.2661313657
 10
64.7155671296
 20
888.4447337963
 10
64.3584346065
 20
888.8018663194
 10
64.3584346065
 20
888.980396412
 10
64.7155671296
 20
889.3375289352
 10
65.0726996528
 20
889.5161313657
 10
66.1441333912
 20
889.5161313657
 10
66.5013020833
 20
889.3375289352
 10
66.8584346065
 20
888.980396412
 10
66.8584346065
 20
888.8018663194
 10
66.5013020833
 20
888.4447337963
 10
66.1441333912
 20
888.2661313657
  0
LWPOLYLINE
  5
4B6
100
AcDbEntity
  8
0
100
AcDbPolyline
 62
7
  6
CONTINUOUS
 90
2
 70
0
 43
0.5
 10
50.9109881366
 20
897.0983072917
 10
52.2443214699
 20
897.0983072917
  0
LWPOLYLINE
  5
4B7
100
AcDbEntity
  8
0
100
AcDbPolyline
 62
7
  6
CONTINUOUS
 90
2
 70
0
 43
0.5
 10
451.7225115741
 20
897.0983072917
 10
453.0558449074
 20
897.0983072917
  0
LINE
  5
4B8
100
AcDbEntity
  8
ACHSEN
100
AcDbLine
 62
7
  6
CONTINUOUS
 10
77.4834308611
 20
939.7482770001
 11
371.4834308611
 21
939.7482770001
  0
LINE
  5
4B9
100
AcDbEntity
  8
0
100
AcDbLine
 62
7
  6
CONTINUOUS
 10
427.4834308611
 20
942.7482770001
 11
77.4834308611
 21
942.7482770001
  0
LINE
  5
4BA
100
AcDbEntity
  8
0
100
AcDbLine
 62
7
  6
CONTINUOUS
 10
427.4834308611
 20
958.7482770001
 11
77.4834308611
 21
958.7482770001
  0
LWPOLYLINE
  5
4BB
100
AcDbEntity
  8
DIMENSIONS
100
AcDbPolyline
 62
5
  6
CONTINUOUS
 90
7
 70
0
 10
222.7870008681
 20
972.1157407407
 10
221.5370008681
 20
972.1157407407
 10
222.7870008681
 20
973.9014756944
 10
222.7870008681
 20
974.2586082176
 10
222.4298683449
 20
974.6157407407
 10
221.8941333912
 20
974.6157407407
 10
221.5370008681
 20
974.080005787
  0
LWPOLYLINE
  5
4BC
100
AcDbEntity
  8
DIMENSIONS
100
AcDbPolyline
 62
5
  6
CONTINUOUS
 90
3
 70
0
 10
226.7155671296
 20
972.6514756944
 10
225.4655671296
 20
972.6514756944
 10
226.0013020833
 20
974.6157407407
  0
LWPOLYLINE
  5
4BD
100
AcDbEntity
  8
DIMENSIONS
100
AcDbPolyline
 62
5
  6
CONTINUOUS
 90
8
 70
0
 10
64.5399305556
 20
198.5491355613
 10
64.5399305556
 20
199.2634367766
 10
64.1827618634
 20
199.6205692998
 10
63.4684968171
 20
199.6205692998
 10
63.111328125
 20
199.2634367766
 10
63.111328125
 20
198.5491355613
 10
62.0399305556
 20
198.5491355613
 10
62.0399305556
 20
199.6205692998
  0
LWPOLYLINE
  5
4BE
100
AcDbEntity
  8
DIMENSIONS
100
AcDbPolyline
 62
5
  6
CONTINUOUS
 90
3
 70
0
 10
68.7413917824
 20
187.5562065972
 10
68.7413917824
 20
186.3062065972
 10
66.7770905671
 20
186.8419234664
  0
LINE
  5
4BF
100
AcDbEntity
  8
0
100
AcDbLine
 62
7
  6
CONTINUOUS
 10
77.4834308611
 20
199.9420002125
 11
77.4834308611
 21
196.9420002125
  0
LINE
  5
4C0
100
AcDbEntity
  8
ACHSEN
100
AcDbLine
 62
7
  6
CONTINUOUS
 10
77.4834308611
 20
192.9420002125
 11
77.4834308611
 21
185.9420002125
  0
LINE
  5
4C1
100
AcDbEntity
  8
KOERPER
100
AcDbLine
 62
7
  6
CONTINUOUS
 10
77.4834308611
 20
99.7271650932
 11
77.4834308611
 21
185.9420002125
  0
LWPOLYLINE
  5
4C2
100
AcDbEntity
  8
DIMENSIONS
100
AcDbPolyline
 62
5
  6
CONTINUOUS
 90
4
 70
0
 10
80.5013020833
 20
212.7104673032
 10
80.5013020833
 20
213.424750434
 10
80.8584346065
 20
213.7819010417
 10
81.3941333912
 20
213.7819010417
  0
LINE
  5
4C3
100
AcDbEntity
  8
ACHSEN
100
AcDbLine
 62
7
  6
CONTINUOUS
 10
85.4834308611
 20
196.9420002125
 11
85.4834308611
 21
192.9420002125
  0
LINE
  5
4C4
100
AcDbEntity
  8
ACHSEN
100
AcDbLine
 62
7
  6
CONTINUOUS
 10
90.4834308611
 20
98.5954091896
 11
90.4834308611
 21
185.9420002125
  0
LINE
  5
4C5
100
AcDbEntity
  8
0
100
AcDbLine
 62
2
  6
CONTINUOUS
 10
146.5091823651
 20
196.9420002125
 11
151.5091823651
 21
201.9420002125
  0
LINE
  5
4C6
100
AcDbEntity
  8
0
100
AcDbLine
 62
2
  6
CONTINUOUS
 10
77.4834308611
 20
99.7271650932
 11
85.931723263
 21
98.533071607
  0
LINE
  5
4C7
100
AcDbEntity
  8
0
100
AcDbLine
 62
2
  6
CONTINUOUS
 10
219.5861054421
 20
196.9420002125
 11
224.5861054421
 21
201.9420002125
  0
LINE
  5
4C8
100
AcDbEntity
  8
0
100
AcDbLine
 62
2
  6
CONTINUOUS
 10
353.4586320216
 20
103.0980251823
 11
368.9439076688
 21
104.7797187016
  0
LINE
  5
4C9
100
AcDbEntity
  8
0
100
AcDbLine
 62
2
  6
CONTINUOUS
 10
338.4357869346
 20
101.6421676893
 11
353.4586320216
 21
103.0980251823
  0
LINE
  5
4CA
100
AcDbEntity
  8
0
100
AcDbLine
 62
2
  6
CONTINUOUS
 10
85.931723263
 20
98.533071607
 11
96.8301528672
 21
98.6823302624
  0
LWPOLYLINE
  5
4CB
100
AcDbEntity
  8
0
100
AcDbPolyline
 62
5
  6
CONTINUOUS
 90
2
 70
0
 43
0.5
 10
252.8167679398
 20
94.7730758102
 10
254.1501012731
 20
94.7730758102
  0
LWPOLYLINE
  5
4CC
100
AcDbEntity
  8
0
100
AcDbPolyline
 62
5
  6
CONTINUOUS
 90
2
 70
0
 43
0.5
 10
258.3167679398
 20
94.7730758102
 10
259.6501012731
 20
94.7730758102
  0
LWPOLYLINE
  5
4CD
100
AcDbEntity
  8
0
100
AcDbPolyline
 62
5
  6
CONTINUOUS
 90
2
 70
0
 43
0.5
 10
255.4834346065
 20
95.0230758102
 10
256.9834346065
 20
95.0230758102
  0
LWPOLYLINE
  5
4CE
100
AcDbEntity
  8
DIMENSIONS
100
AcDbPolyline
 62
5
  6
CONTINUOUS
 90
13
 70
0
 10
80.8584346065
 20
213.7819010417
 10
80.6203342014
 20
213.9604673032
 10
80.6203342014
 20
214.4961841725
 10
80.8584346065
 20
214.8533166956
 10
81.3941333912
 20
214.8533166956
 10
81.6322337963
 20
214.4961841725
 10
81.6322337963
 20
213.9604673032
 10
81.3941333912
 20
213.7819010417
 10
81.7513020833
 20
213.424750434
 10
81.7513020833
 20
212.7104673032
 10
81.3941333912
 20
212.3533166956
 10
80.8584346065
 20
212.3533166956
 10
80.5013020833
 20
212.7104673032
  0
LINE
  5
4CF
100
AcDbEntity
  8
0
100
AcDbLine
 62
2
  6
CONTINUOUS
 10
157.2938204595
 20
102.7822381522
 11
182.0160640903
 21
105.2798356624
  0
LINE
  5
4D0
100
AcDbEntity
  8
0
100
AcDbLine
 62
2
  6
CONTINUOUS
 10
96.8301528672
 20
98.6823302624
 11
107.7037040679
 21
99.5635002761
  0
LINE
  5
4D1
100
AcDbEntity
  8
0
100
AcDbLine
 62
2
  6
CONTINUOUS
 10
107.7037040679
 20
99.5635002761
 11
132.4937971044
 21
101.2392981678
  0
LINE
  5
4D2
100
AcDbEntity
  8
0
100
AcDbLine
 62
2
  6
CONTINUOUS
 10
221.0935793765
 20
111.2376016909
 11
240.7384185136
 21
112.5551716086
  0
LINE
  5
4D3
100
AcDbEntity
  8
0
100
AcDbLine
 62
2
  6
CONTINUOUS
 10
132.4937971044
 20
101.2392981678
 11
157.2938204595
 21
102.7822381522
  0
LINE
  5
4D4
100
AcDbEntity
  8
0
100
AcDbLine
 62
2
  6
CONTINUOUS
 10
368.9439076688
 20
104.7797187016
 11
385.7254705852
 21
104.7601688091
  0
LINE
  5
4D5
100
AcDbEntity
  8
0
100
AcDbLine
 62
2
  6
CONTINUOUS
 10
306.4993141158
 20
103.8423569262
 11
338.4357869346
 21
101.6421676893
  0
LINE
  5
4D6
100
AcDbEntity
  8
0
100
AcDbLine
 62
2
  6
CONTINUOUS
 10
240.7384185136
 20
112.5551716086
 11
273.6913261896
 21
109.4364565828
  0
LINE
  5
4D7
100
AcDbEntity
  8
0
100
AcDbLine
 62
2
  6
CONTINUOUS
 10
273.6913261896
 20
109.4364565828
 11
306.4993141158
 21
103.8423569262
  0
LINE
  5
4D8
100
AcDbEntity
  8
0
100
AcDbLine
 62
2
  6
CONTINUOUS
 10
182.0160640903
 20
105.2798356624
 11
201.5544666386
 21
108.3335503537
  0
LINE
  5
4D9
100
AcDbEntity
  8
0
100
AcDbLine
 62
2
  6
CONTINUOUS
 10
201.5544666386
 20
108.3335503537
 11
221.0935793765
 21
111.2376016909
  0
LINE
  5
4DA
100
AcDbEntity
  8
0
100
AcDbLine
 62
2
  6
CONTINUOUS
 10
408.2834107961
 20
101.3039318572
 11
427.4834308611
 21
99.3811839329
  0
LINE
  5
4DB
100
AcDbEntity
  8
0
100
AcDbLine
 62
2
  6
CONTINUOUS
 10
385.7254705852
 20
104.7601688091
 11
408.2834107961
 21
101.3039318572
  0
LINE
  5
4DC
100
AcDbEntity
  8
0
100
AcDbLine
 62
2
  6
CONTINUOUS
 10
292.663028519
 20
196.9420002125
 11
297.663028519
 21
201.9420002125
  0
LWPOLYLINE
  5
4DD
100
AcDbEntity
  8
0
100
AcDbPolyline
 62
5
  6
CONTINUOUS
 90
3
 70
0
 43
0.5
 10
252.4834346065
 20
93.7730758102
 10
253.4834346065
 20
97.2730758102
 10
254.4834346065
 20
93.7730758102
  0
LWPOLYLINE
  5
4DE
100
AcDbEntity
  8
0
100
AcDbPolyline
 62
5
  6
CONTINUOUS
 90
3
 70
0
 43
0.5
 10
257.9834346065
 20
93.7730758102
 10
258.9834346065
 20
97.2730758102
 10
259.9834346065
 20
93.7730758102
  0
LINE
  5
4DF
100
AcDbEntity
  8
0
100
AcDbLine
 62
7
  6
CONTINUOUS
 10
427.4834308611
 20
185.9420002125
 11
371.4834308611
 21
185.9420002125
  0
LINE
  5
4E0
100
AcDbEntity
  8
ACHSEN
100
AcDbLine
 62
7
  6
CONTINUOUS
 10
77.4834308611
 20
185.9420002125
 11
90.4834308611
 21
185.9420002125
  0
LINE
  5
4E1
100
AcDbEntity
  8
DIMENSIONS
100
AcDbLine
 62
5
  6
CONTINUOUS
 10
69.2770905671
 20
187.1395399306
 11
68.0270905671
 21
187.1395399306
  0
LINE
  5
4E2
100
AcDbEntity
  8
0
100
AcDbLine
 62
2
  6
CONTINUOUS
 10
365.7399515959
 20
196.9420002125
 11
370.7399515959
 21
201.9420002125
  0
LINE
  5
4E3
100
AcDbEntity
  8
ACHSEN
100
AcDbLine
 62
7
  6
CONTINUOUS
 10
85.4834308611
 20
192.9420002125
 11
77.4834308611
 21
192.9420002125
  0
LINE
  5
4E4
100
AcDbEntity
  8
0
100
AcDbLine
 62
7
  6
CONTINUOUS
 10
371.4834308611
 20
196.9420002125
 11
77.4834308611
 21
196.9420002125
  0
LINE
  5
4E5
100
AcDbEntity
  8
0
100
AcDbLine
 62
7
  6
CONTINUOUS
 10
427.4834308611
 20
201.9420002125
 11
79.4834308611
 21
201.9420002125
  0
LINE
  5
4E6
100
AcDbEntity
  8
0
100
AcDbLine
 62
7
  6
CONTINUOUS
 10
371.4834308611
 20
196.9420002125
 11
371.4834308611
 21
185.9420002125
  0
LINE
  5
4E7
100
AcDbEntity
  8
0
100
AcDbLine
 62
7
  6
CONTINUOUS
 10
427.4834308611
 20
201.9420002125
 11
427.4834308611
 21
185.9420002125
  0
LINE
  5
4E8
100
AcDbEntity
  8
KOERPER
100
AcDbLine
 62
7
  6
CONTINUOUS
 10
427.4834308611
 20
99.3811839329
 11
427.4834308611
 21
185.9420002125
  0
ARC
  5
4E9
100
AcDbEntity
  8
ACHSEN
100
AcDbCircle
 62
7
  6
CONTINUOUS
 10
371.4834308611
 20
924.7482770001
 40
15.0
100
AcDbArc
 50
270.0
 51
90.0
  0
ARC
  5
4EA
100
AcDbEntity
  8
ACHSEN
100
AcDbCircle
 62
7
  6
CONTINUOUS
 10
371.4834308611
 20
853.7482770001
 40
15.0
100
AcDbArc
 50
270.0
 51
90.0
  0
ARC
  5
4EB
100
AcDbEntity
  8
0
100
AcDbCircle
 62
7
  6
CONTINUOUS
 10
79.4834308611
 20
199.9420002125
 40
2.0
100
AcDbArc
 50
90.0
 51
180.0
  0
ENDSEC
  0
SECTION
  2
OBJECTS
  0
DICTIONARY
  5
C
100
AcDbDictionary
280
0
281
1
  3
ACAD_GROUP
350
D
  3
ACAD_MLINESTYLE
350
17
  3
ACAD_LAYOUT
350
1A
  3
ACAD_PLOTSETTINGS
350
19
  3
ACAD_PLOTSTYLENAME
350
E
  0
DICTIONARY
  5
D
102
{ACAD_REACTORS
330
C
102
}
100
AcDbDictionary
280
0
281
1
  0
ACDBDICTIONARYWDFLT
  5
E
102
{ACAD_REACTORS
330
C
102
}
100
AcDbDictionary
281
1
  3
Normal
350
F
100
AcDbDictionaryWithDefault
340
F
  0
DICTIONARY
  5
17
102
{ACAD_REACTORS
330
C
102
}
100
AcDbDictionary
280
0
281
1
  3
Standard
350
18
  0
DICTIONARY
  5
19
102
{ACAD_REACTORS
330
C
102
}
100
AcDbDictionary
281
1
  0
DICTIONARY
  5
1A
102
{ACAD_REACTORS
330
C
102
}
100
AcDbDictionary
281
1
  3
Layout1
350
1E
  3
Model
350
22
  0
ACDBPLACEHOLDER
  5
F
102
{ACAD_REACTORS
330
E
102
}
  0
MLINESTYLE
  5
18
102
{ACAD_REACTORS
330
17
102
}
100
AcDbMlineStyle
  2
STANDARD
 70
0
  3

 62
256
 51
90.0
 52
90.0
 71
2
 49
0.5
 62
256
  6
BYLAYER
 49
-0.5
 62
256
  6
BYLAYER
  0
LAYOUT
  5
1E
102
{ACAD_REACTORS
330
1A
102
}
100
AcDbPlotSettings
  1

  2

  4

  6

 40
0.0
 41
0.0
 42
0.0
 43
0.0
 44
0.0
 45
0.0
 46
0.0
 47
0.0
 48
0.0
 49
0.0
140
0.0
141
0.0
142
1.0
143
1.0
 70
0
 72
0
 73
0
 74
0
  7

 75
0
147
1.0
148
0.0
149
0.0
100
AcDbLayout
  1
Layout1
 70
0
 71
0
 10
0.0
 20
0.0
 11
0.0
 21
0.0
 12
0.0
 22
0.0
 32
0.0
 14
0.0
 24
0.0
 34
0.0
 15
0.0
 25
0.0
 35
0.0
146
0.0
 13
0.0
 23
0.0
 33
0.0
 16
0.0
 26
0.0
 36
0.0
 17
0.0
 27
0.0
 37
0.0
 76
0
330
1B
331
0
345
0
346
0
  0
LAYOUT
  5
22
102
{ACAD_REACTORS
330
1A
102
}
100
AcDbPlotSettings
  1

  2

  4

  6

 40
0.0
 41
0.0
 42
0.0
 43
0.0
 44
0.0
 45
0.0
 46
0.0
 47
0.0
 48
0.0
 49
0.0
140
0.0
141
0.0
142
1.0
143
1.0
 70
1024
 72
0
 73
0
 74
0
  7

 75
0
147
1.0
148
0.0
149
0.0
100
AcDbLayout
  1
Model
 70
0
 71
0
 10
0.0
 20
0.0
 11
0.0
 21
0.0
 12
0.0
 22
0.0
 32
0.0
 14
0.0
 24
0.0
 34
0.0
 15
0.0
 25
0.0
 35
0.0
146
0.0
 13
0.0
 23
0.0
 33
0.0
 16
0.0
 26
0.0
 36
0.0
 17
0.0
 27
0.0
 37
0.0
 76
0
330
1F
331
0
345
0
346
0
  0
ENDSEC
  0
EOF
