999
DXF file: korpus_frameline_genutet.dxf
999
Pro/ENGINEER 2009400 by Parametric Technology Corporation
  0
SECTION
  2
HEADER
  9
$ACADVER
  1
AC1015
  9
$DWGCODEPAGE
  3
ANSI_1252
  9
$EXTMAX
 10
594.0
 20
420.0
 30
0.0
  9
$EXTMIN
 10
0.0
 20
0.0
 30
0.0
  9
$LIMMIN
 10
0.0
 20
0.0
  9
$LIMMAX
 10
594.0
 20
420.0
  9
$VIEWCTR
 10
297.0
 20
210.0
  9
$VIEWSIZE
 40
420.0
  9
$CLAYER
  8
0
  9
$LTSCALE
 40
32.67
  9
$CELTYPE
  6
BYLAYER
  9
$DIMSCALE
 40
1.0
  9
$DIMASZ
 40
2.5
  9
$DIMEXO
 40
3.7125
  9
$DIMDLI
 40
22.572
  9
$DIMEXE
 40
10.692
  9
$DIMCEN
 40
5.346
  9
$DIMLFAC
 40
1.0
  9
$DIMBLK
  1
_FILLED
  9
$DIMTXT
 40
2.5
  9
$DIMTOL
 70
1
  9
$DIMLIM
 70
0
  9
$DIMTFAC
 40
1.0
  9
$DIMTP
 40
0.01
  9
$DIMTM
 40
0.01
  9
$PDMODE
 70
3
  9
$PDSIZE
 40
0.5
  9
$HANDSEED
  5
324
  9
$MEASUREMENT
 70
1
  9
$INSUNITS
 70
4
  0
ENDSEC
  0
SECTION
  2
CLASSES
  0
CLASS
  1
ACDBDICTIONARYWDFLT
  2
AcDbDictionaryWithDefault
  3
AutoCAD 2000
 90
0
280
0
281
0
  0
CLASS
  1
ACDBPLACEHOLDER
  2
AcDbPlaceHolder
  3
AutoCAD 2000
 90
0
280
0
281
0
  0
CLASS
  1
LAYOUT
  2
AcDbLayout
  3
AutoCAD 2000
 90
0
280
0
281
0
  0
ENDSEC
  0
SECTION
  2
TABLES
  0
TABLE
  2
VPORT
  5
8
100
AcDbSymbolTable
 70
2
  0
VPORT
  5
1F4
100
AcDbSymbolTableRecord
100
AcDbViewportTableRecord
  2
*ACTIVE
 70
0
 10
0.0
 20
0.0
 11
1.0
 21
1.0
 12
297.0
 22
210.0
 13
0.0
 23
0.0
 14
1.0
 24
1.0
 15
0.0
 25
0.0
 16
0.0
 26
0.0
 36
1.0
 17
0.0
 27
0.0
 37
0.0
 40
420.0
 41
1.4142857143
 42
50.0
 43
0.0
 44
0.0
 50
0.0
 51
0.0
 71
0
 72
100
 73
1
 74
1
 75
0
 76
0
 77
0
 78
0
  0
ENDTAB
  0
TABLE
  2
LTYPE
  5
5
100
AcDbSymbolTable
 70
6
  0
LTYPE
  5
14
100
AcDbSymbolTableRecord
100
AcDbLinetypeTableRecord
  2
BYBLOCK
 70
0
  3

 72
65
 73
0
 40
0.0
  0
LTYPE
  5
15
100
AcDbSymbolTableRecord
100
AcDbLinetypeTableRecord
  2
BYLAYER
 70
0
  3

 72
65
 73
0
 40
0.0
  0
LTYPE
  5
16
100
AcDbSymbolTableRecord
100
AcDbLinetypeTableRecord
  2
CONTINUOUS
 70
64
  3
Solid line
 72
65
 73
0
 40
0.0
  0
LTYPE
  5
1F5
100
AcDbSymbolTableRecord
100
AcDbLinetypeTableRecord
  2
CENTER
 70
64
  3
____ _ ____ _ ____ _ ____ _ ____ _ ____ _ ____
 72
65
 73
4
 40
0.6
 49
0.375
 74
0
 49
-0.075
 74
0
 49
0.075
 74
0
 49
-0.075
 74
0
  0
LTYPE
  5
1F6
100
AcDbSymbolTableRecord
100
AcDbLinetypeTableRecord
  2
HIDDEN
 70
64
  3
- - - - - - - - - - - - - - - - - - - -
 72
65
 73
2
 40
0.2
 49
0.1
 74
0
 49
-0.1
 74
0
  0
LTYPE
  5
1F7
100
AcDbSymbolTableRecord
100
AcDbLinetypeTableRecord
  2
PHANTOM
 70
64
  3
_____ _ _ _____ _ _ _____ _ _ _____
 72
65
 73
6
 40
0.8
 49
0.45
 74
0
 49
-0.05
 74
0
 49
0.1
 74
0
 49
-0.05
 74
0
 49
0.1
 74
0
 49
-0.05
 74
0
  0
LTYPE
  5
1F8
100
AcDbSymbolTableRecord
100
AcDbLinetypeTableRecord
  2
DOT
 70
64
  3
. . . . . . . . . . . . . . . . . . . .
 72
65
 73
2
 40
0.2
 49
0.1
 74
0
 49
-0.1
 74
0
  0
LTYPE
  5
1F9
100
AcDbSymbolTableRecord
100
AcDbLinetypeTableRecord
  2
DASHED
 70
64
  3
- - - - - - - - - - - - - - - - - - - -
 72
65
 73
2
 40
0.2
 49
0.1
 74
0
 49
-0.1
 74
0
  0
ENDTAB
  0
TABLE
  2
LAYER
  5
2
100
AcDbSymbolTable
 70
36
  0
LAYER
  5
10
100
AcDbSymbolTableRecord
100
AcDbLayerTableRecord
  2
0
 70
0
 62
7
  6
CONTINUOUS
370
-3
390
F
  0
LAYER
  5
1FA
100
AcDbSymbolTableRecord
100
AcDbLayerTableRecord
  2
DEFAULT_1
 70
0
 62
7
  6
CENTER
370
-3
390
F
  0
LAYER
  5
1FB
100
AcDbSymbolTableRecord
100
AcDbLayerTableRecord
  2
DEFAULT_2
 70
0
 62
8
  6
HIDDEN
370
-3
390
F
  0
LAYER
  5
1FC
100
AcDbSymbolTableRecord
100
AcDbLayerTableRecord
  2
DEFAULT_3
 70
0
 62
7
  6
PHANTOM
370
-3
390
F
  0
LAYER
  5
1FD
100
AcDbSymbolTableRecord
100
AcDbLayerTableRecord
  2
_2D_DELETED_OBJS
 70
0
 62
7
  6
CONTINUOUS
370
-3
390
F
  0
LAYER
  5
1FE
100
AcDbSymbolTableRecord
100
AcDbLayerTableRecord
  2
_BLACK_HOLE
 70
0
 62
7
  6
CONTINUOUS
370
-3
390
F
  0
LAYER
  5
1FF
100
AcDbSymbolTableRecord
100
AcDbLayerTableRecord
  2
ACHSEN
 70
0
 62
7
  6
CONTINUOUS
370
-3
390
F
  0
LAYER
  5
200
100
AcDbSymbolTableRecord
100
AcDbLayerTableRecord
  2
AXIS
 70
0
 62
7
  6
CONTINUOUS
370
-3
390
F
  0
LAYER
  5
201
100
AcDbSymbolTableRecord
100
AcDbLayerTableRecord
  2
A_EBENEN
 70
0
 62
7
  6
CONTINUOUS
370
-3
390
F
  0
LAYER
  5
202
100
AcDbSymbolTableRecord
100
AcDbLayerTableRecord
  2
BOHRUNGEN
 70
0
 62
7
  6
CONTINUOUS
370
-3
390
F
  0
LAYER
  5
203
100
AcDbSymbolTableRecord
100
AcDbLayerTableRecord
  2
CHAMFER
 70
0
 62
7
  6
CONTINUOUS
370
-3
390
F
  0
LAYER
  5
204
100
AcDbSymbolTableRecord
100
AcDbLayerTableRecord
  2
CURVES
 70
0
 62
7
  6
CONTINUOUS
370
-3
390
F
  0
LAYER
  5
205
100
AcDbSymbolTableRecord
100
AcDbLayerTableRecord
  2
DATUM-PLANES
 70
0
 62
7
  6
CONTINUOUS
370
-3
390
F
  0
LAYER
  5
206
100
AcDbSymbolTableRecord
100
AcDbLayerTableRecord
  2
DIMENSIONS
 70
0
 62
7
  6
CONTINUOUS
370
-3
390
F
  0
LAYER
  5
207
100
AcDbSymbolTableRecord
100
AcDbLayerTableRecord
  2
EBENEN
 70
0
 62
7
  6
CONTINUOUS
370
-3
390
F
  0
LAYER
  5
208
100
AcDbSymbolTableRecord
100
AcDbLayerTableRecord
  2
FASEN
 70
0
 62
7
  6
CONTINUOUS
370
-3
390
F
  0
LAYER
  5
209
100
AcDbSymbolTableRecord
100
AcDbLayerTableRecord
  2
FLAECHEN
 70
0
 62
7
  6
CONTINUOUS
370
-3
390
F
  0
LAYER
  5
20A
100
AcDbSymbolTableRecord
100
AcDbLayerTableRecord
  2
HOLES
 70
0
 62
7
  6
CONTINUOUS
370
-3
390
F
  0
LAYER
  5
20B
100
AcDbSymbolTableRecord
100
AcDbLayerTableRecord
  2
KOERPER
 70
0
 62
7
  6
CONTINUOUS
370
-3
390
F
  0
LAYER
  5
20C
100
AcDbSymbolTableRecord
100
AcDbLayerTableRecord
  2
KURVEN
 70
0
 62
7
  6
CONTINUOUS
370
-3
390
F
  0
LAYER
  5
20D
100
AcDbSymbolTableRecord
100
AcDbLayerTableRecord
  2
ORI_FL
 70
0
 62
7
  6
CONTINUOUS
370
-3
390
F
  0
LAYER
  5
20E
100
AcDbSymbolTableRecord
100
AcDbLayerTableRecord
  2
POINTS
 70
0
 62
7
  6
CONTINUOUS
370
-3
390
F
  0
LAYER
  5
20F
100
AcDbSymbolTableRecord
100
AcDbLayerTableRecord
  2
PUNKTE
 70
0
 62
7
  6
CONTINUOUS
370
-3
390
F
  0
LAYER
  5
210
100
AcDbSymbolTableRecord
100
AcDbLayerTableRecord
  2
QUILTS
 70
0
 62
7
  6
CONTINUOUS
370
-3
390
F
  0
LAYER
  5
211
100
AcDbSymbolTableRecord
100
AcDbLayerTableRecord
  2
ROUNDS
 70
0
 62
7
  6
CONTINUOUS
370
-3
390
F
  0
LAYER
  5
212
100
AcDbSymbolTableRecord
100
AcDbLayerTableRecord
  2
RUNDUNGEN
 70
0
 62
7
  6
CONTINUOUS
370
-3
390
F
  0
LAYER
  5
213
100
AcDbSymbolTableRecord
100
AcDbLayerTableRecord
  2
SAMMELFLAECHEN
 70
0
 62
7
  6
CONTINUOUS
370
-3
390
F
  0
LAYER
  5
214
100
AcDbSymbolTableRecord
100
AcDbLayerTableRecord
  2
SKETCH
 70
0
 62
7
  6
CONTINUOUS
370
-3
390
F
  0
LAYER
  5
215
100
AcDbSymbolTableRecord
100
AcDbLayerTableRecord
  2
SOLIDS
 70
0
 62
7
  6
CONTINUOUS
370
-3
390
F
  0
LAYER
  5
216
100
AcDbSymbolTableRecord
100
AcDbLayerTableRecord
  2
SURFACES
 70
0
 62
7
  6
CONTINUOUS
370
-3
390
F
  0
LAYER
  5
217
100
AcDbSymbolTableRecord
100
AcDbLayerTableRecord
  2
TEMP_QUILTS
 70
0
 62
7
  6
CONTINUOUS
370
-3
390
F
  0
LAYER
  5
218
100
AcDbSymbolTableRecord
100
AcDbLayerTableRecord
  2
XSEC_DATUMS
 70
0
 62
7
  6
CONTINUOUS
370
-3
390
F
  0
LAYER
  5
219
100
AcDbSymbolTableRecord
100
AcDbLayerTableRecord
  2
ZEICH_ELEMENTE
 70
0
 62
7
  6
CONTINUOUS
370
-3
390
F
  0
ENDTAB
  0
TABLE
  2
STYLE
  5
3
100
AcDbSymbolTable
 70
1
  0
STYLE
  5
11
100
AcDbSymbolTableRecord
100
AcDbTextStyleTableRecord
  2
STANDARD
 70
0
 40
0.0
 41
0.8
 50
0.0
 71
0
 42
0.2
  3
txt
  4

  0
ENDTAB
  0
TABLE
  2
VIEW
  5
6
100
AcDbSymbolTable
 70
0
  0
ENDTAB
  0
TABLE
  2
UCS
  5
7
100
AcDbSymbolTable
 70
0
  0
ENDTAB
  0
TABLE
  2
APPID
  5
9
100
AcDbSymbolTable
 70
1
  0
APPID
  5
21A
100
AcDbSymbolTableRecord
100
AcDbRegAppTableRecord
  2
ACAD
 70
0
  0
ENDTAB
  0
TABLE
  2
BLOCK_RECORD
  5
1
100
AcDbSymbolTable
 70
0
  0
BLOCK_RECORD
  5
1F
100
AcDbSymbolTableRecord
100
AcDbBlockTableRecord
  2
*MODEL_SPACE
  0
BLOCK_RECORD
  5
1B
100
AcDbSymbolTableRecord
100
AcDbBlockTableRecord
  2
*PAPER_SPACE
  0
BLOCK_RECORD
  5
21B
100
AcDbSymbolTableRecord
100
AcDbBlockTableRecord
  2
_FILLED
  0
BLOCK_RECORD
  5
21C
100
AcDbSymbolTableRecord
100
AcDbBlockTableRecord
  2
*D0
  0
BLOCK_RECORD
  5
21D
100
AcDbSymbolTableRecord
100
AcDbBlockTableRecord
  2
*D1
  0
BLOCK_RECORD
  5
21E
100
AcDbSymbolTableRecord
100
AcDbBlockTableRecord
  2
*D2
  0
BLOCK_RECORD
  5
21F
100
AcDbSymbolTableRecord
100
AcDbBlockTableRecord
  2
*D3
  0
BLOCK_RECORD
  5
220
100
AcDbSymbolTableRecord
100
AcDbBlockTableRecord
  2
*D4
  0
BLOCK_RECORD
  5
221
100
AcDbSymbolTableRecord
100
AcDbBlockTableRecord
  2
*D5
  0
BLOCK_RECORD
  5
222
100
AcDbSymbolTableRecord
100
AcDbBlockTableRecord
  2
*D6
  0
BLOCK_RECORD
  5
223
100
AcDbSymbolTableRecord
100
AcDbBlockTableRecord
  2
*D7
  0
BLOCK_RECORD
  5
224
100
AcDbSymbolTableRecord
100
AcDbBlockTableRecord
  2
*D8
  0
BLOCK_RECORD
  5
225
100
AcDbSymbolTableRecord
100
AcDbBlockTableRecord
  2
*D9
  0
BLOCK_RECORD
  5
226
100
AcDbSymbolTableRecord
100
AcDbBlockTableRecord
  2
*D10
  0
BLOCK_RECORD
  5
227
100
AcDbSymbolTableRecord
100
AcDbBlockTableRecord
  2
*D11
  0
ENDTAB
  0
TABLE
  2
DIMSTYLE
  5
A
100
AcDbSymbolTable
 70
1
100
AcDbDimStyleTable
 71
0
  0
DIMSTYLE
105
228
100
AcDbSymbolTableRecord
100
AcDbDimStyleTableRecord
  2
STANDARD
 70
0
  3

  4

 40
1.0
 41
2.5
 42
0.0625
 43
0.38
 44
0.18
 45
0.0
 46
0.0
 47
0.01
 48
0.01
140
2.5
141
0.09
142
0.0
143
25.4
144
1.0
145
0.0
146
1.0
147
0.09
 71
1.0
 72
0.0
 73
0
 74
0
 75
0
 76
0
 77
1
 78
8
170
0
171
2
172
0
173
0
174
0
175
0
176
0
177
0
178
5
270
2
271
2
272
2
273
2
274
2
275
0
280
0
281
0
282
0
283
1
284
8
285
0
286
0
287
3
288
0
340
11
341
21B
342
21B
343
21B
344
21B
  0
DIMSTYLE
105
229
100
AcDbSymbolTableRecord
100
AcDbDimStyleTableRecord
  2
DIMSTYLE_1
 70
0
  3

  4

 40
1.0
 41
2.5
 42
0.0625
 43
0.38
 44
0.18
 45
0.0
 46
0.0
 47
0.1
 48
0.1
140
2.5
141
0.09
142
0.0
143
25.4
144
1.0
145
0.0
146
1.0
147
0.09
 71
0.0
 72
0.0
 73
0
 74
0
 75
0
 76
0
 77
1
 78
8
170
0
171
2
172
0
173
0
174
0
175
0
176
0
177
0
178
5
270
2
271
2
272
2
273
2
274
2
275
0
280
0
281
0
282
0
283
1
284
8
285
0
286
0
287
3
288
0
340
11
341
21B
342
21B
343
21B
344
21B
  0
DIMSTYLE
105
22A
100
AcDbSymbolTableRecord
100
AcDbDimStyleTableRecord
  2
DIMSTYLE_2
 70
0
  3

  4

 40
1.0
 41
2.5
 42
0.0625
 43
0.38
 44
0.18
 45
0.0
 46
0.0
 47
0.2
 48
0.2
140
2.5
141
0.09
142
0.0
143
25.4
144
1.0
145
0.0
146
1.0
147
0.09
 71
0.0
 72
0.0
 73
0
 74
0
 75
0
 76
0
 77
1
 78
8
170
0
171
2
172
0
173
0
174
0
175
0
176
0
177
0
178
5
270
2
271
2
272
2
273
2
274
2
275
0
280
0
281
0
282
0
283
1
284
8
285
0
286
0
287
3
288
0
340
11
341
21B
342
21B
343
21B
344
21B
  0
DIMSTYLE
105
22B
100
AcDbSymbolTableRecord
100
AcDbDimStyleTableRecord
  2
DIMSTYLE_3
 70
0
  3

  4

 40
1.0
 41
2.5
 42
0.0625
 43
0.38
 44
0.18
 45
0.0
 46
0.0
 47
0.1
 48
0.1
140
2.5
141
0.09
142
0.0
143
25.4
144
1.0
145
0.0
146
1.0
147
0.09
 71
0.0
 72
0.0
 73
0
 74
0
 75
0
 76
0
 77
1
 78
8
170
0
171
2
172
0
173
0
174
0
175
0
176
0
177
0
178
5
270
2
271
2
272
2
273
2
274
2
275
0
280
0
281
0
282
0
283
1
284
8
285
0
286
0
287
3
288
0
340
11
341
21B
342
21B
343
21B
344
21B
  0
ENDTAB
  0
ENDSEC
  0
SECTION
  2
BLOCKS
  0
BLOCK
  5
20
100
AcDbEntity
  8
0
100
AcDbBlockBegin
  2
*MODEL_SPACE
 70
0
 10
0.0
 20
0.0
 30
0.0
  3
*MODEL_SPACE
  1

  0
ENDBLK
  5
21
100
AcDbEntity
  8
0
100
AcDbBlockEnd
  0
BLOCK
  5
1C
100
AcDbEntity
  8
0
100
AcDbBlockBegin
  2
*PAPER_SPACE
 70
0
 10
0.0
 20
0.0
 30
0.0
  3
*PAPER_SPACE
  1

  0
ENDBLK
  5
1D
100
AcDbEntity
  8
0
100
AcDbBlockEnd
  0
BLOCK
  5
22C
100
AcDbEntity
  8
DIMENSIONS
100
AcDbBlockBegin
 62
2
  6
CONTINUOUS
  2
*D0
 70
65
 10
0.0
 20
0.0
  3
*D0
  1

  0
LINE
  5
22D
100
AcDbEntity
  8
DIMENSIONS
100
AcDbLine
 62
2
  6
CONTINUOUS
 10
524.1258871512
 20
93.098927062
 11
524.1258871512
 21
102.8057705409
  0
LINE
  5
22E
100
AcDbEntity
  8
DIMENSIONS
100
AcDbLine
 62
2
  6
CONTINUOUS
 10
519.1258871512
 20
93.098927062
 11
519.1258871512
 21
105.4818678758
  0
LINE
  5
22F
100
AcDbEntity
  8
DIMENSIONS
100
AcDbLine
 62
2
  6
CONTINUOUS
 10
524.1258871512
 20
94.098927062
 11
531.6258871512
 21
94.098927062
  0
LINE
  5
230
100
AcDbEntity
  8
DIMENSIONS
100
AcDbLine
 62
2
  6
CONTINUOUS
 10
531.6258871512
 20
94.098927062
 11
521.6258871512
 21
94.098927062
  0
LINE
  5
231
100
AcDbEntity
  8
DIMENSIONS
100
AcDbLine
 62
2
  6
CONTINUOUS
 10
519.1258871512
 20
94.098927062
 11
511.6258871512
 21
94.098927062
  0
LINE
  5
232
100
AcDbEntity
  8
DIMENSIONS
100
AcDbLine
 62
2
  6
CONTINUOUS
 10
511.6258871512
 20
94.098927062
 11
521.6258871512
 21
94.098927062
  0
INSERT
  5
233
100
AcDbEntity
  8
DIMENSIONS
100
AcDbBlockReference
 62
2
  6
CONTINUOUS
  2
_FILLED
 10
524.1258871512
 20
94.098927062
 41
2.5
 42
2.5
 43
2.5
 50
180.0
  0
INSERT
  5
234
100
AcDbEntity
  8
DIMENSIONS
100
AcDbBlockReference
 62
2
  6
CONTINUOUS
  2
_FILLED
 10
519.1258871512
 20
94.098927062
 41
2.5
 42
2.5
 43
2.5
  0
ENDBLK
  5
235
100
AcDbEntity
  8
0
  6
BYBLOCK
 62
0
100
AcDbBlockEnd
  0
BLOCK
  5
236
100
AcDbEntity
  8
DIMENSIONS
100
AcDbBlockBegin
 62
2
  6
CONTINUOUS
  2
*D1
 70
65
 10
0.0
 20
0.0
  3
*D1
  1

  0
LINE
  5
237
100
AcDbEntity
  8
DIMENSIONS
100
AcDbLine
 62
2
  6
CONTINUOUS
 10
524.1258871512
 20
88.2942262256
 11
524.1258871512
 21
99.5349849094
  0
LINE
  5
238
100
AcDbEntity
  8
DIMENSIONS
100
AcDbLine
 62
2
  6
CONTINUOUS
 10
528.1258871512
 20
88.2942262256
 11
528.1258871512
 21
101.9137380959
  0
LINE
  5
239
100
AcDbEntity
  8
DIMENSIONS
100
AcDbLine
 62
2
  6
CONTINUOUS
 10
524.1258871512
 20
89.2942262256
 11
516.6258871512
 21
89.2942262256
  0
LINE
  5
23A
100
AcDbEntity
  8
DIMENSIONS
100
AcDbLine
 62
2
  6
CONTINUOUS
 10
516.6258871512
 20
89.2942262256
 11
526.1258871512
 21
89.2942262256
  0
LINE
  5
23B
100
AcDbEntity
  8
DIMENSIONS
100
AcDbLine
 62
2
  6
CONTINUOUS
 10
528.1258871512
 20
89.2942262256
 11
532.2673861993
 21
89.2942262256
  0
LINE
  5
23C
100
AcDbEntity
  8
DIMENSIONS
100
AcDbLine
 62
2
  6
CONTINUOUS
 10
532.2673861993
 20
89.2942262256
 11
526.1258871512
 21
89.2942262256
  0
INSERT
  5
23D
100
AcDbEntity
  8
DIMENSIONS
100
AcDbBlockReference
 62
2
  6
CONTINUOUS
  2
_FILLED
 10
524.1258871512
 20
89.2942262256
 41
2.5
 42
2.5
 43
2.5
  0
INSERT
  5
23E
100
AcDbEntity
  8
DIMENSIONS
100
AcDbBlockReference
 62
2
  6
CONTINUOUS
  2
_FILLED
 10
528.1258871512
 20
89.2942262256
 41
2.5
 42
2.5
 43
2.5
 50
180.0
  0
ENDBLK
  5
23F
100
AcDbEntity
  8
0
  6
BYBLOCK
 62
0
100
AcDbBlockEnd
  0
BLOCK
  5
240
100
AcDbEntity
  8
DIMENSIONS
100
AcDbBlockBegin
 62
2
  6
CONTINUOUS
  2
*D2
 70
65
 10
0.0
 20
0.0
  3
*D2
  1

  0
LINE
  5
241
100
AcDbEntity
  8
DIMENSIONS
100
AcDbLine
 62
2
  6
CONTINUOUS
 10
525.6258871512
 20
265.4954092297
 11
525.6258871512
 21
294.5199219231
  0
LINE
  5
242
100
AcDbEntity
  8
DIMENSIONS
100
AcDbLine
 62
2
  6
CONTINUOUS
 10
535.1258871512
 20
284.4954092297
 11
535.1258871512
 21
294.5199219231
  0
LINE
  5
243
100
AcDbEntity
  8
DIMENSIONS
100
AcDbLine
 62
2
  6
CONTINUOUS
 10
525.6258871512
 20
293.5199219231
 11
530.3758871512
 21
293.5199219231
  0
LINE
  5
244
100
AcDbEntity
  8
DIMENSIONS
100
AcDbLine
 62
2
  6
CONTINUOUS
 10
535.1258871512
 20
293.5199219231
 11
530.3758871512
 21
293.5199219231
  0
INSERT
  5
245
100
AcDbEntity
  8
DIMENSIONS
100
AcDbBlockReference
 62
2
  6
CONTINUOUS
  2
_FILLED
 10
525.6258871512
 20
293.5199219231
 41
2.5
 42
2.5
 43
2.5
 50
180.0
  0
INSERT
  5
246
100
AcDbEntity
  8
DIMENSIONS
100
AcDbBlockReference
 62
2
  6
CONTINUOUS
  2
_FILLED
 10
535.1258871512
 20
293.5199219231
 41
2.5
 42
2.5
 43
2.5
  0
ENDBLK
  5
247
100
AcDbEntity
  8
0
  6
BYBLOCK
 62
0
100
AcDbBlockEnd
  0
BLOCK
  5
248
100
AcDbEntity
  8
DIMENSIONS
100
AcDbBlockBegin
 62
2
  6
CONTINUOUS
  2
*D3
 70
65
 10
0.0
 20
0.0
  3
*D3
  1

  0
LINE
  5
249
100
AcDbEntity
  8
DIMENSIONS
100
AcDbLine
 62
2
  6
CONTINUOUS
 10
535.1258871512
 20
284.4954092297
 11
535.1258871512
 21
288.8622990609
  0
LINE
  5
24A
100
AcDbEntity
  8
DIMENSIONS
100
AcDbLine
 62
2
  6
CONTINUOUS
 10
532.7258871512
 20
261.4954092297
 11
532.7258871512
 21
288.8622990609
  0
LINE
  5
24B
100
AcDbEntity
  8
DIMENSIONS
100
AcDbLine
 62
2
  6
CONTINUOUS
 10
535.1258871512
 20
287.8622990609
 11
545.1707899826
 21
287.8622990609
  0
LINE
  5
24C
100
AcDbEntity
  8
DIMENSIONS
100
AcDbLine
 62
2
  6
CONTINUOUS
 10
545.1707899826
 20
287.8622990609
 11
533.9258871512
 21
287.8622990609
  0
LINE
  5
24D
100
AcDbEntity
  8
DIMENSIONS
100
AcDbLine
 62
2
  6
CONTINUOUS
 10
532.7258871512
 20
287.8622990609
 11
525.2258871512
 21
287.8622990609
  0
LINE
  5
24E
100
AcDbEntity
  8
DIMENSIONS
100
AcDbLine
 62
2
  6
CONTINUOUS
 10
525.2258871512
 20
287.8622990609
 11
533.9258871512
 21
287.8622990609
  0
INSERT
  5
24F
100
AcDbEntity
  8
DIMENSIONS
100
AcDbBlockReference
 62
2
  6
CONTINUOUS
  2
_FILLED
 10
535.1258871512
 20
287.8622990609
 41
2.5
 42
2.5
 43
2.5
 50
180.0
  0
INSERT
  5
250
100
AcDbEntity
  8
DIMENSIONS
100
AcDbBlockReference
 62
2
  6
CONTINUOUS
  2
_FILLED
 10
532.7258871512
 20
287.8622990609
 41
2.5
 42
2.5
 43
2.5
  0
ENDBLK
  5
251
100
AcDbEntity
  8
0
  6
BYBLOCK
 62
0
100
AcDbBlockEnd
  0
BLOCK
  5
252
100
AcDbEntity
  8
DIMENSIONS
100
AcDbBlockBegin
 62
2
  6
CONTINUOUS
  2
*D4
 70
65
 10
0.0
 20
0.0
  3
*D4
  1

  0
LINE
  5
253
100
AcDbEntity
  8
DIMENSIONS
100
AcDbLine
 62
2
  6
CONTINUOUS
 10
117.3520047696
 20
260.6454092297
 11
48.6020047696
 21
260.6454092297
  0
LINE
  5
254
100
AcDbEntity
  8
DIMENSIONS
100
AcDbLine
 62
2
  6
CONTINUOUS
 10
63.6020047696
 20
283.4954092297
 11
48.6020047696
 21
283.4954092297
  0
LINE
  5
255
100
AcDbEntity
  8
DIMENSIONS
100
AcDbLine
 62
2
  6
CONTINUOUS
 10
49.6020047696
 20
260.6454092297
 11
49.6020047696
 21
272.0704092297
  0
LINE
  5
256
100
AcDbEntity
  8
DIMENSIONS
100
AcDbLine
 62
2
  6
CONTINUOUS
 10
49.6020047696
 20
283.4954092297
 11
49.6020047696
 21
272.0704092297
  0
INSERT
  5
257
100
AcDbEntity
  8
DIMENSIONS
100
AcDbBlockReference
 62
2
  6
CONTINUOUS
  2
_FILLED
 10
49.6020047696
 20
260.6454092297
 41
2.5
 42
2.5
 43
2.5
 50
270.0
  0
INSERT
  5
258
100
AcDbEntity
  8
DIMENSIONS
100
AcDbBlockReference
 62
2
  6
CONTINUOUS
  2
_FILLED
 10
49.6020047696
 20
283.4954092297
 41
2.5
 42
2.5
 43
2.5
 50
90.0
  0
ENDBLK
  5
259
100
AcDbEntity
  8
0
  6
BYBLOCK
 62
0
100
AcDbBlockEnd
  0
BLOCK
  5
25A
100
AcDbEntity
  8
DIMENSIONS
100
AcDbBlockBegin
 62
2
  6
CONTINUOUS
  2
*D5
 70
65
 10
0.0
 20
0.0
  3
*D5
  1

  0
LINE
  5
25B
100
AcDbEntity
  8
DIMENSIONS
100
AcDbLine
 62
2
  6
CONTINUOUS
 10
117.3520047696
 20
260.6454092297
 11
48.6020047696
 21
260.6454092297
  0
LINE
  5
25C
100
AcDbEntity
  8
DIMENSIONS
100
AcDbLine
 62
2
  6
CONTINUOUS
 10
117.3520047696
 20
249.3454092297
 11
48.6020047696
 21
249.3454092297
  0
LINE
  5
25D
100
AcDbEntity
  8
DIMENSIONS
100
AcDbLine
 62
2
  6
CONTINUOUS
 10
49.6020047696
 20
260.6454092297
 11
49.6020047696
 21
254.9954092297
  0
LINE
  5
25E
100
AcDbEntity
  8
DIMENSIONS
100
AcDbLine
 62
2
  6
CONTINUOUS
 10
49.6020047696
 20
249.3454092297
 11
49.6020047696
 21
254.9954092297
  0
INSERT
  5
25F
100
AcDbEntity
  8
DIMENSIONS
100
AcDbBlockReference
 62
2
  6
CONTINUOUS
  2
_FILLED
 10
49.6020047696
 20
260.6454092297
 41
2.5
 42
2.5
 43
2.5
 50
90.0
  0
INSERT
  5
260
100
AcDbEntity
  8
DIMENSIONS
100
AcDbBlockReference
 62
2
  6
CONTINUOUS
  2
_FILLED
 10
49.6020047696
 20
249.3454092297
 41
2.5
 42
2.5
 43
2.5
 50
270.0
  0
ENDBLK
  5
261
100
AcDbEntity
  8
0
  6
BYBLOCK
 62
0
100
AcDbBlockEnd
  0
BLOCK
  5
262
100
AcDbEntity
  8
DIMENSIONS
100
AcDbBlockBegin
 62
2
  6
CONTINUOUS
  2
*D6
 70
65
 10
0.0
 20
0.0
  3
*D6
  1

  0
LINE
  5
263
100
AcDbEntity
  8
DIMENSIONS
100
AcDbLine
 62
2
  6
CONTINUOUS
 10
117.0884375377
 20
262.0454092297
 11
53.6020047696
 21
262.0454092297
  0
LINE
  5
264
100
AcDbEntity
  8
DIMENSIONS
100
AcDbLine
 62
2
  6
CONTINUOUS
 10
117.0990035686
 20
247.9454092297
 11
53.6020047696
 21
247.9454092297
  0
LINE
  5
265
100
AcDbEntity
  8
DIMENSIONS
100
AcDbLine
 62
2
  6
CONTINUOUS
 10
54.6020047696
 20
262.0454092297
 11
54.6020047696
 21
254.9954092297
  0
LINE
  5
266
100
AcDbEntity
  8
DIMENSIONS
100
AcDbLine
 62
2
  6
CONTINUOUS
 10
54.6020047696
 20
247.9454092297
 11
54.6020047696
 21
254.9954092297
  0
INSERT
  5
267
100
AcDbEntity
  8
DIMENSIONS
100
AcDbBlockReference
 62
2
  6
CONTINUOUS
  2
_FILLED
 10
54.6020047696
 20
262.0454092297
 41
2.5
 42
2.5
 43
2.5
 50
90.0
  0
INSERT
  5
268
100
AcDbEntity
  8
DIMENSIONS
100
AcDbBlockReference
 62
2
  6
CONTINUOUS
  2
_FILLED
 10
54.6020047696
 20
247.9454092297
 41
2.5
 42
2.5
 43
2.5
 50
270.0
  0
ENDBLK
  5
269
100
AcDbEntity
  8
0
  6
BYBLOCK
 62
0
100
AcDbBlockEnd
  0
BLOCK
  5
26A
100
AcDbEntity
  8
DIMENSIONS
100
AcDbBlockBegin
 62
2
  6
CONTINUOUS
  2
*D7
 70
65
 10
0.0
 20
0.0
  3
*D7
  1

  0
LINE
  5
26B
100
AcDbEntity
  8
DIMENSIONS
100
AcDbLine
 62
2
  6
CONTINUOUS
 10
463.6020047696
 20
105.0603445231
 11
463.6020047696
 21
122.6320521165
  0
LINE
  5
26C
100
AcDbEntity
  8
DIMENSIONS
100
AcDbLine
 62
2
  6
CONTINUOUS
 10
456.6020047696
 20
120.8360834714
 11
456.6020047696
 21
105.0603445231
  0
LINE
  5
26D
100
AcDbEntity
  8
DIMENSIONS
100
AcDbLine
 62
2
  6
CONTINUOUS
 10
463.6020047696
 20
106.0603445231
 11
471.1020047696
 21
106.0603445231
  0
LINE
  5
26E
100
AcDbEntity
  8
DIMENSIONS
100
AcDbLine
 62
2
  6
CONTINUOUS
 10
471.1020047696
 20
106.0603445231
 11
460.1020047696
 21
106.0603445231
  0
LINE
  5
26F
100
AcDbEntity
  8
DIMENSIONS
100
AcDbLine
 62
2
  6
CONTINUOUS
 10
456.6020047696
 20
106.0603445231
 11
449.1020047696
 21
106.0603445231
  0
LINE
  5
270
100
AcDbEntity
  8
DIMENSIONS
100
AcDbLine
 62
2
  6
CONTINUOUS
 10
449.1020047696
 20
106.0603445231
 11
460.1020047696
 21
106.0603445231
  0
INSERT
  5
271
100
AcDbEntity
  8
DIMENSIONS
100
AcDbBlockReference
 62
2
  6
CONTINUOUS
  2
_FILLED
 10
463.6020047696
 20
106.0603445231
 41
2.5
 42
2.5
 43
2.5
 50
180.0
  0
INSERT
  5
272
100
AcDbEntity
  8
DIMENSIONS
100
AcDbBlockReference
 62
2
  6
CONTINUOUS
  2
_FILLED
 10
456.6020047696
 20
106.0603445231
 41
2.5
 42
2.5
 43
2.5
  0
ENDBLK
  5
273
100
AcDbEntity
  8
0
  6
BYBLOCK
 62
0
100
AcDbBlockEnd
  0
BLOCK
  5
274
100
AcDbEntity
  8
DIMENSIONS
100
AcDbBlockBegin
 62
2
  6
CONTINUOUS
  2
*D8
 70
65
 10
0.0
 20
0.0
  3
*D8
  1

  0
LINE
  5
275
100
AcDbEntity
  8
DIMENSIONS
100
AcDbLine
 62
2
  6
CONTINUOUS
 10
116.922610563
 20
246.2807745281
 11
126.1212791802
 21
235.314270397
  0
INSERT
  5
276
100
AcDbEntity
  8
DIMENSIONS
100
AcDbBlockReference
 62
2
  6
CONTINUOUS
  2
_FILLED
 10
116.922610563
 20
246.2807745281
 41
2.5
 42
2.5
 43
2.5
 50
129.9898166646
  0
ENDBLK
  5
277
100
AcDbEntity
  8
0
  6
BYBLOCK
 62
0
100
AcDbBlockEnd
  0
BLOCK
  5
278
100
AcDbEntity
  8
DIMENSIONS
100
AcDbBlockBegin
 62
2
  6
CONTINUOUS
  2
*D9
 70
65
 10
0.0
 20
0.0
  3
*D9
  1

  0
LINE
  5
279
100
AcDbEntity
  8
DIMENSIONS
100
AcDbLine
 62
2
  6
CONTINUOUS
 10
464.6020047696
 20
349.9517868639
 11
479.6102408646
 21
349.9517868639
  0
LINE
  5
27A
100
AcDbEntity
  8
DIMENSIONS
100
AcDbLine
 62
2
  6
CONTINUOUS
 10
457.6020047696
 20
340.4517868639
 11
479.6102408646
 21
340.4517868639
  0
LINE
  5
27B
100
AcDbEntity
  8
DIMENSIONS
100
AcDbLine
 62
2
  6
CONTINUOUS
 10
478.6102408646
 20
349.9517868639
 11
478.6102408646
 21
345.2017868639
  0
LINE
  5
27C
100
AcDbEntity
  8
DIMENSIONS
100
AcDbLine
 62
2
  6
CONTINUOUS
 10
478.6102408646
 20
340.4517868639
 11
478.6102408646
 21
345.2017868639
  0
INSERT
  5
27D
100
AcDbEntity
  8
DIMENSIONS
100
AcDbBlockReference
 62
2
  6
CONTINUOUS
  2
_FILLED
 10
478.6102408646
 20
349.9517868639
 41
2.5
 42
2.5
 43
2.5
 50
90.0
  0
INSERT
  5
27E
100
AcDbEntity
  8
DIMENSIONS
100
AcDbBlockReference
 62
2
  6
CONTINUOUS
  2
_FILLED
 10
478.6102408646
 20
340.4517868639
 41
2.5
 42
2.5
 43
2.5
 50
270.0
  0
ENDBLK
  5
27F
100
AcDbEntity
  8
0
  6
BYBLOCK
 62
0
100
AcDbBlockEnd
  0
BLOCK
  5
280
100
AcDbEntity
  8
DIMENSIONS
100
AcDbBlockBegin
 62
2
  6
CONTINUOUS
  2
*D10
 70
65
 10
0.0
 20
0.0
  3
*D10
  1

  0
LINE
  5
281
100
AcDbEntity
  8
DIMENSIONS
100
AcDbLine
 62
2
  6
CONTINUOUS
 10
464.6020047696
 20
349.9517868639
 11
473.7652691282
 21
349.9517868639
  0
LINE
  5
282
100
AcDbEntity
  8
DIMENSIONS
100
AcDbLine
 62
2
  6
CONTINUOUS
 10
459.0020047696
 20
347.5517868639
 11
473.7652691282
 21
347.5517868639
  0
LINE
  5
283
100
AcDbEntity
  8
DIMENSIONS
100
AcDbLine
 62
2
  6
CONTINUOUS
 10
472.7652691282
 20
349.9517868639
 11
472.7652691282
 21
359.1257441375
  0
LINE
  5
284
100
AcDbEntity
  8
DIMENSIONS
100
AcDbLine
 62
2
  6
CONTINUOUS
 10
472.7652691282
 20
359.1257441375
 11
472.7652691282
 21
348.7517868639
  0
LINE
  5
285
100
AcDbEntity
  8
DIMENSIONS
100
AcDbLine
 62
2
  6
CONTINUOUS
 10
472.7652691282
 20
347.5517868639
 11
472.7652691282
 21
340.0517868639
  0
LINE
  5
286
100
AcDbEntity
  8
DIMENSIONS
100
AcDbLine
 62
2
  6
CONTINUOUS
 10
472.7652691282
 20
340.0517868639
 11
472.7652691282
 21
348.7517868639
  0
INSERT
  5
287
100
AcDbEntity
  8
DIMENSIONS
100
AcDbBlockReference
 62
2
  6
CONTINUOUS
  2
_FILLED
 10
472.7652691282
 20
349.9517868639
 41
2.5
 42
2.5
 43
2.5
 50
270.0
  0
INSERT
  5
288
100
AcDbEntity
  8
DIMENSIONS
100
AcDbBlockReference
 62
2
  6
CONTINUOUS
  2
_FILLED
 10
472.7652691282
 20
347.5517868639
 41
2.5
 42
2.5
 43
2.5
 50
90.0
  0
ENDBLK
  5
289
100
AcDbEntity
  8
0
  6
BYBLOCK
 62
0
100
AcDbBlockEnd
  0
BLOCK
  5
28A
100
AcDbEntity
  8
DIMENSIONS
100
AcDbBlockBegin
 62
2
  6
CONTINUOUS
  2
*D11
 70
65
 10
0.0
 20
0.0
  3
*D11
  1

  0
LINE
  5
28B
100
AcDbEntity
  8
DIMENSIONS
100
AcDbLine
 62
2
  6
CONTINUOUS
 10
72.6020047696
 20
337.9517868639
 11
72.6020047696
 21
323.2083970608
  0
LINE
  5
28C
100
AcDbEntity
  8
DIMENSIONS
100
AcDbLine
 62
2
  6
CONTINUOUS
 10
64.6020047696
 20
337.9517868639
 11
64.6020047696
 21
323.2083970608
  0
LINE
  5
28D
100
AcDbEntity
  8
DIMENSIONS
100
AcDbLine
 62
2
  6
CONTINUOUS
 10
72.6020047696
 20
324.2083970608
 11
80.1020047696
 21
324.2083970608
  0
LINE
  5
28E
100
AcDbEntity
  8
DIMENSIONS
100
AcDbLine
 62
2
  6
CONTINUOUS
 10
80.1020047696
 20
324.2083970608
 11
68.6020047696
 21
324.2083970608
  0
LINE
  5
28F
100
AcDbEntity
  8
DIMENSIONS
100
AcDbLine
 62
2
  6
CONTINUOUS
 10
64.6020047696
 20
324.2083970608
 11
57.1020047696
 21
324.2083970608
  0
LINE
  5
290
100
AcDbEntity
  8
DIMENSIONS
100
AcDbLine
 62
2
  6
CONTINUOUS
 10
57.1020047696
 20
324.2083970608
 11
68.6020047696
 21
324.2083970608
  0
INSERT
  5
291
100
AcDbEntity
  8
DIMENSIONS
100
AcDbBlockReference
 62
2
  6
CONTINUOUS
  2
_FILLED
 10
72.6020047696
 20
324.2083970608
 41
2.5
 42
2.5
 43
2.5
 50
180.0
  0
INSERT
  5
292
100
AcDbEntity
  8
DIMENSIONS
100
AcDbBlockReference
 62
2
  6
CONTINUOUS
  2
_FILLED
 10
64.6020047696
 20
324.2083970608
 41
2.5
 42
2.5
 43
2.5
  0
ENDBLK
  5
293
100
AcDbEntity
  8
0
  6
BYBLOCK
 62
0
100
AcDbBlockEnd
  0
BLOCK
  5
294
100
AcDbEntity
  8
0
100
AcDbBlockBegin
  2
_FILLED
 70
64
 10
0.0
 20
0.0
  3
_FILLED
  1

  0
SOLID
  5
295
100
AcDbEntity
  8
0
  6
BYBLOCK
 62
0
100
AcDbTrace
 10
0.0
 20
0.0
 11
-1.0
 21
0.15
 12
-1.0
 22
-0.15
 13
-1.0
 23
-0.15
  0
ENDBLK
  5
296
100
AcDbEntity
  8
0
  6
BYBLOCK
 62
0
100
AcDbBlockEnd
  0
ENDSEC
  0
SECTION
  2
ENTITIES
  0
DIMENSION
  5
297
100
AcDbEntity
  8
DIMENSIONS
100
AcDbDimension
 62
2
  6
CONTINUOUS
  2
*D0
 10
519.1258871512
 20
94.098927062
 11
520.7330300083
 21
94.723927062
 70
160
 42
5.0
  3
DIMSTYLE_1
100
AcDbAlignedDimension
 13
524.1258871512
 23
102.8057705409
 14
519.1258871512
 24
105.4818678758
 50
180.0
100
AcDbRotatedDimension
  0
DIMENSION
  5
298
100
AcDbEntity
  8
DIMENSIONS
100
AcDbDimension
 62
2
  6
CONTINUOUS
  2
*D1
 10
528.1258871512
 20
89.2942262256
 11
530.303100485
 21
89.9192262256
 70
160
 42
4.0
  3
DIMSTYLE_1
100
AcDbAlignedDimension
 13
524.1258871512
 23
99.5349849094
 14
528.1258871512
 24
101.9137380959
100
AcDbRotatedDimension
  0
DIMENSION
  5
299
100
AcDbEntity
  8
DIMENSIONS
100
AcDbDimension
 62
2
  6
CONTINUOUS
  2
*D2
 10
535.1258871512
 20
293.5199219231
 11
527.7866014369
 21
294.1449219231
 70
160
 42
9.5
  3
DIMSTYLE_2
100
AcDbAlignedDimension
 13
525.6258871512
 23
265.4954092297
 14
535.1258871512
 24
284.4954092297
100
AcDbRotatedDimension
  0
DIMENSION
  5
29A
100
AcDbEntity
  8
DIMENSIONS
100
AcDbDimension
 62
2
  6
CONTINUOUS
  2
*D3
 10
532.7258871512
 20
287.8622990609
 11
539.8136471255
 21
288.4872990609
 70
160
 42
2.4
  3
DIMSTYLE_1
100
AcDbAlignedDimension
 13
535.1258871512
 23
284.4954092297
 14
532.7258871512
 24
261.4954092297
 50
180.0
100
AcDbRotatedDimension
  0
DIMENSION
  5
29B
100
AcDbEntity
  8
DIMENSIONS
100
AcDbDimension
 62
2
  6
CONTINUOUS
  2
*D4
 10
49.6020047696
 20
283.4954092297
 11
48.9770047696
 21
267.5168378012
 70
160
 42
22.85
  3
DIMSTYLE_2
100
AcDbAlignedDimension
 13
117.3520047696
 23
260.6454092297
 14
63.6020047696
 24
283.4954092297
 50
90.0
100
AcDbRotatedDimension
  0
DIMENSION
  5
29C
100
AcDbEntity
  8
DIMENSIONS
100
AcDbDimension
 62
2
  6
CONTINUOUS
  2
*D5
 10
49.6020047696
 20
249.3454092297
 11
48.9770047696
 21
251.959694944
 70
160
 42
11.3
  3
DIMSTYLE_2
100
AcDbAlignedDimension
 13
117.3520047696
 23
260.6454092297
 14
117.3520047696
 24
249.3454092297
 50
270.0
100
AcDbRotatedDimension
  0
DIMENSION
  5
29D
100
AcDbEntity
  8
DIMENSIONS
100
AcDbDimension
 62
2
  6
CONTINUOUS
  2
*D6
 10
54.6020047696
 20
247.9454092297
 11
53.9770047696
 21
251.8704092297
 70
160
 42
14.1
  3
DIMSTYLE_2
100
AcDbAlignedDimension
 13
117.0884375377
 23
262.0454092297
 14
117.0990035686
 24
247.9454092297
 50
270.0
100
AcDbRotatedDimension
  0
DIMENSION
  5
29E
100
AcDbEntity
  8
DIMENSIONS
100
AcDbDimension
 62
2
  6
CONTINUOUS
  2
*D7
 10
456.6020047696
 20
106.0603445231
 11
459.1198619124
 21
106.6853445231
 70
160
 42
7.0
  3
DIMSTYLE_2
100
AcDbAlignedDimension
 13
463.6020047696
 23
122.6320521165
 14
456.6020047696
 24
120.8360834714
 50
180.0
100
AcDbRotatedDimension
  0
DIMENSION
  5
29F
100
AcDbEntity
  8
DIMENSIONS
100
AcDbDimension
 62
2
  6
CONTINUOUS
  2
*D8
 10
114.3520047696
 20
249.3454092297
 11
124.0754262338
 21
238.7258366342
 70
164
 42
4.0
  1
<>
  3
DIMSTYLE_3
100
AcDbRadialDimension
 15
116.922610563
 25
246.2807745281
  0
DIMENSION
  5
2A0
100
AcDbEntity
  8
DIMENSIONS
100
AcDbDimension
 62
2
  6
CONTINUOUS
  2
*D9
 10
478.6102408646
 20
340.4517868639
 11
477.9852408646
 21
342.6125011496
 70
160
 42
9.5
  3
DIMSTYLE_2
100
AcDbAlignedDimension
 13
464.6020047696
 23
349.9517868639
 14
457.6020047696
 24
340.4517868639
 50
270.0
100
AcDbRotatedDimension
  0
DIMENSION
  5
2A1
100
AcDbEntity
  8
DIMENSIONS
100
AcDbDimension
 62
2
  6
CONTINUOUS
  2
*D10
 10
472.7652691282
 20
347.5517868639
 11
472.1402691282
 21
353.7686012804
 70
160
 42
2.4
  3
DIMSTYLE_1
100
AcDbAlignedDimension
 13
464.6020047696
 23
349.9517868639
 14
459.0020047696
 24
347.5517868639
 50
270.0
100
AcDbRotatedDimension
  0
DIMENSION
  5
2A2
100
AcDbEntity
  8
DIMENSIONS
100
AcDbDimension
 62
2
  6
CONTINUOUS
  2
*D11
 10
64.6020047696
 20
324.2083970608
 11
67.6198619124
 21
324.8333970608
 70
160
 42
8.0
  3
DIMSTYLE_2
100
AcDbAlignedDimension
 13
72.6020047696
 23
337.9517868639
 14
64.6020047696
 24
337.9517868639
 50
180.0
100
AcDbRotatedDimension
  0
LWPOLYLINE
  5
2A3
100
AcDbEntity
  8
DIMENSIONS
100
AcDbPolyline
 62
5
  6
CONTINUOUS
 90
3
 70
0
 10
531.5531033936
 20
90.4549440308
 10
530.3031075439
 20
90.4549440308
 10
530.8388096924
 20
92.4192245178
  0
LWPOLYLINE
  5
2A4
100
AcDbEntity
  8
DIMENSIONS
100
AcDbPolyline
 62
5
  6
CONTINUOUS
 90
8
 70
0
 10
520.7330148926
 20
94.7239292908
 10
521.4473085938
 20
94.7239292908
 10
521.8044554443
 20
95.0810670776
 10
521.8044554443
 20
95.7953517151
 10
521.4473085938
 20
96.1524985657
 10
520.7330148926
 20
96.1524985657
 10
520.7330148926
 20
97.2239300537
 10
521.8044554443
 20
97.2239300537
  0
LINE
  5
2A5
100
AcDbEntity
  8
0
100
AcDbLine
 62
2
  6
CONTINUOUS
 10
531.2934376044
 20
101.5313721052
 11
535.1258871512
 21
101.4905791111
  0
LINE
  5
2A6
100
AcDbEntity
  8
0
100
AcDbLine
 62
2
  6
CONTINUOUS
 10
519.1258871512
 20
106.7537486417
 11
531.2934376044
 21
101.5313721052
  0
LWPOLYLINE
  5
2A7
100
AcDbEntity
  8
DIMENSIONS
100
AcDbPolyline
 62
5
  6
CONTINUOUS
 90
10
 70
0
 10
528.1437304688
 20
294.1449364014
 10
528.8580241699
 20
294.8591938477
 10
529.0366157227
 20
295.5734875488
 10
529.0366157227
 20
296.28778125
 10
528.6794688721
 20
296.6449281006
 10
528.1437304688
 20
296.6449281006
 10
527.7865836182
 20
296.28778125
 10
527.7865836182
 20
295.5734875488
 10
528.1437304688
 20
295.2163406982
 10
528.9175546875
 20
295.2163406982
  0
LINE
  5
2A8
100
AcDbEntity
  8
0
100
AcDbLine
 62
7
  6
CONTINUOUS
 10
519.1258871512
 20
283.4954092297
 11
519.1258871512
 21
106.7537486417
  0
LINE
  5
2A9
100
AcDbEntity
  8
0
100
AcDbLine
 62
7
  6
CONTINUOUS
 10
524.1258871512
 20
104.6077223907
 11
524.1258871512
 21
283.4954092297
  0
LINE
  5
2AA
100
AcDbEntity
  8
ACHSEN
100
AcDbLine
 62
7
  6
CONTINUOUS
 10
525.6258871512
 20
227.3281627221
 11
525.6258871512
 21
264.4954092297
  0
LINE
  5
2AB
100
AcDbEntity
  8
ACHSEN
100
AcDbLine
 62
7
  6
CONTINUOUS
 10
528.1258871512
 20
227.3281627221
 11
528.1258871512
 21
211.910069196
  0
LINE
  5
2AC
100
AcDbEntity
  8
0
100
AcDbLine
 62
7
  6
CONTINUOUS
 10
528.1258871512
 20
102.89090139
 11
528.1258871512
 21
211.910069196
  0
LINE
  5
2AD
100
AcDbEntity
  8
ACHSEN
100
AcDbLine
 62
7
  6
CONTINUOUS
 10
528.1258871512
 20
264.4954092297
 11
528.1258871512
 21
283.4954092297
  0
LINE
  5
2AE
100
AcDbEntity
  8
DIMENSIONS
100
AcDbLine
 62
5
  6
CONTINUOUS
 10
531.1364260254
 20
89.9192237549
 11
531.1364260254
 21
91.1692286682
  0
LINE
  5
2AF
100
AcDbEntity
  8
ROUNDS
100
AcDbLine
 62
7
  6
CONTINUOUS
 10
532.7258871512
 20
262.0454092297
 11
532.7258871512
 21
247.9454092297
  0
LINE
  5
2B0
100
AcDbEntity
  8
ROUNDS
100
AcDbLine
 62
7
  6
CONTINUOUS
 10
535.1258871512
 20
264.4954092297
 11
535.1258871512
 21
260.4954092297
  0
LINE
  5
2B1
100
AcDbEntity
  8
ROUNDS
100
AcDbLine
 62
7
  6
CONTINUOUS
 10
535.1258871512
 20
247.9454092297
 11
535.1258871512
 21
245.3454092297
  0
LINE
  5
2B2
100
AcDbEntity
  8
ACHSEN
100
AcDbLine
 62
7
  6
CONTINUOUS
 10
535.1258871512
 20
245.3454092297
 11
535.1258871512
 21
211.910069196
  0
LINE
  5
2B3
100
AcDbEntity
  8
0
100
AcDbLine
 62
7
  6
CONTINUOUS
 10
535.1258871512
 20
101.4905791111
 11
535.1258871512
 21
211.910069196
  0
LINE
  5
2B4
100
AcDbEntity
  8
0
100
AcDbLine
 62
7
  6
CONTINUOUS
 10
535.1258871512
 20
247.9454092297
 11
535.1258871512
 21
260.4954092297
  0
LINE
  5
2B5
100
AcDbEntity
  8
0
100
AcDbLine
 62
7
  6
CONTINUOUS
 10
535.1258871512
 20
264.4954092297
 11
535.1258871512
 21
283.4954092297
  0
LINE
  5
2B6
100
AcDbEntity
  8
DIMENSIONS
100
AcDbLine
 62
5
  6
CONTINUOUS
 10
544.0398288574
 20
288.4872894287
 11
544.0398288574
 21
289.7372852783
  0
LINE
  5
2B7
100
AcDbEntity
  8
ACHSEN
100
AcDbLine
 62
7
  6
CONTINUOUS
 10
528.1258871512
 20
211.910069196
 11
535.1258871512
 21
211.910069196
  0
LINE
  5
2B8
100
AcDbEntity
  8
ACHSEN
100
AcDbLine
 62
7
  6
CONTINUOUS
 10
525.6258871512
 20
227.3281627221
 11
528.1258871512
 21
227.3281627221
  0
LWPOLYLINE
  5
2B9
100
AcDbEntity
  8
DIMENSIONS
100
AcDbPolyline
 62
5
  6
CONTINUOUS
 90
9
 70
0
 10
530.2866115723
 20
294.5615775146
 10
530.3461420898
 20
294.4425527344
 10
530.3461420898
 20
294.3830222168
 10
530.2866115723
 20
294.2639611816
 10
530.1675505371
 20
294.2639611816
 10
530.1080200195
 20
294.3830222168
 10
530.1080200195
 20
294.4425527344
 10
530.1675505371
 20
294.5615775146
 10
530.2866115723
 20
294.5615775146
  0
LINE
  5
2BA
100
AcDbEntity
  8
ACHSEN
100
AcDbLine
 62
7
  6
CONTINUOUS
 10
535.1258871512
 20
245.3454092297
 11
525.6258871512
 21
245.3454092297
  0
LINE
  5
2BB
100
AcDbEntity
  8
ROUNDS
100
AcDbLine
 62
7
  6
CONTINUOUS
 10
532.7258871512
 20
247.9454092297
 11
535.1258871512
 21
247.9454092297
  0
LINE
  5
2BC
100
AcDbEntity
  8
ROUNDS
100
AcDbLine
 62
7
  6
CONTINUOUS
 10
532.7258871512
 20
249.3454092297
 11
525.6258871512
 21
249.3454092297
  0
LWPOLYLINE
  5
2BD
100
AcDbEntity
  8
DIMENSIONS
100
AcDbPolyline
 62
5
  6
CONTINUOUS
 90
9
 70
0
 10
542.313661377
 20
288.9039667969
 10
542.3731556396
 20
288.7849057617
 10
542.3731556396
 20
288.725411499
 10
542.313661377
 20
288.6063504639
 10
542.1946003418
 20
288.6063504639
 10
542.1350698242
 20
288.725411499
 10
542.1350698242
 20
288.7849057617
 10
542.1946003418
 20
288.9039667969
 10
542.313661377
 20
288.9039667969
  0
LINE
  5
2BE
100
AcDbEntity
  8
ROUNDS
100
AcDbLine
 62
7
  6
CONTINUOUS
 10
532.7258871512
 20
260.6454092297
 11
525.6258871512
 21
260.6454092297
  0
LINE
  5
2BF
100
AcDbEntity
  8
ROUNDS
100
AcDbLine
 62
7
  6
CONTINUOUS
 10
535.1258871512
 20
262.0454092297
 11
532.7258871512
 21
262.0454092297
  0
LINE
  5
2C0
100
AcDbEntity
  8
ACHSEN
100
AcDbLine
 62
7
  6
CONTINUOUS
 10
525.6258871512
 20
264.4954092297
 11
535.1258871512
 21
264.4954092297
  0
LINE
  5
2C1
100
AcDbEntity
  8
0
100
AcDbLine
 62
7
  6
CONTINUOUS
 10
535.1258871512
 20
283.4954092297
 11
519.1258871512
 21
283.4954092297
  0
LWPOLYLINE
  5
2C2
100
AcDbEntity
  8
DIMENSIONS
100
AcDbPolyline
 62
5
  6
CONTINUOUS
 90
7
 70
0
 10
541.0636292725
 20
288.4872894287
 10
539.8136334229
 20
288.4872894287
 10
541.0636292725
 20
290.2730236816
 10
541.0636292725
 20
290.6301705322
 10
540.7065186768
 20
290.9872811279
 10
540.1707802734
 20
290.9872811279
 10
539.8136334229
 20
290.4515789795
  0
LWPOLYLINE
  5
2C3
100
AcDbEntity
  8
DIMENSIONS
100
AcDbPolyline
 62
5
  6
CONTINUOUS
 90
3
 70
0
 10
544.4565062256
 20
289.023027832
 10
543.206510376
 20
289.023027832
 10
543.7422125244
 20
290.9872811279
  0
LWPOLYLINE
  5
2C4
100
AcDbEntity
  8
DIMENSIONS
100
AcDbPolyline
 62
5
  6
CONTINUOUS
 90
8
 70
0
 10
531.1794605713
 20
294.1449364014
 10
531.8937542725
 20
294.1449364014
 10
532.250901123
 20
294.5020469971
 10
532.250901123
 20
295.2163406982
 10
531.8937542725
 20
295.5734875488
 10
531.1794605713
 20
295.5734875488
 10
531.1794605713
 20
296.6449281006
 10
532.250901123
 20
296.6449281006
  0
LWPOLYLINE
  5
2C5
100
AcDbEntity
  8
DIMENSIONS
100
AcDbPolyline
 62
5
  6
CONTINUOUS
 90
13
 70
0
 10
47.5484328918
 20
273.2311259766
 10
47.3698639984
 20
272.9930401611
 10
46.8341482544
 20
272.9930401611
 10
46.4770059357
 20
273.2311259766
 10
46.4770059357
 20
273.766828125
 10
46.8341482544
 20
274.0049501953
 10
47.3698639984
 20
274.0049501953
 10
47.5484328918
 20
273.766828125
 10
47.9055752106
 20
274.1239749756
 10
48.619859848
 20
274.1239749756
 10
48.9770066986
 20
273.766828125
 10
48.9770066986
 20
273.2311259766
 10
48.619859848
 20
272.873979126
  0
LWPOLYLINE
  5
2C6
100
AcDbEntity
  8
DIMENSIONS
100
AcDbPolyline
 62
5
  6
CONTINUOUS
 90
7
 70
0
 10
48.9770066986
 20
270.7311342773
 10
48.9770066986
 20
269.4811384277
 10
47.1912905731
 20
270.7311342773
 10
46.8341482544
 20
270.7311342773
 10
46.4770059357
 20
270.3739874268
 10
46.4770059357
 20
269.8382490234
 10
47.0127171478
 20
269.4811384277
  0
LWPOLYLINE
  5
2C7
100
AcDbEntity
  8
DIMENSIONS
100
AcDbPolyline
 62
5
  6
CONTINUOUS
 90
7
 70
0
 10
48.9770066986
 20
268.7668447266
 10
48.9770066986
 20
267.516848877
 10
47.1912905731
 20
268.7668447266
 10
46.8341482544
 20
268.7668447266
 10
46.4770059357
 20
268.409697876
 10
46.4770059357
 20
267.8739957275
 10
47.0127171478
 20
267.516848877
  0
LWPOLYLINE
  5
2C8
100
AcDbEntity
  8
DIMENSIONS
100
AcDbPolyline
 62
5
  6
CONTINUOUS
 90
6
 70
0
 10
48.9770066986
 20
256.2454052124
 10
48.9770066986
 20
257.1382723389
 10
48.7984332733
 20
257.3168457642
 10
47.9055752106
 20
257.3168457642
 10
47.5484328918
 20
256.9596989136
 10
47.5484328918
 20
256.602552063
  0
LWPOLYLINE
  5
2C9
100
AcDbEntity
  8
DIMENSIONS
100
AcDbPolyline
 62
5
  6
CONTINUOUS
 90
8
 70
0
 10
48.9770066986
 20
274.8382686768
 10
48.9770066986
 20
275.5525623779
 10
48.619859848
 20
275.9097092285
 10
47.9055752106
 20
275.9097092285
 10
47.5484328918
 20
275.5525623779
 10
47.5484328918
 20
274.8382686768
 10
46.4770059357
 20
274.8382686768
 10
46.4770059357
 20
275.9097092285
  0
LWPOLYLINE
  5
2CA
100
AcDbEntity
  8
DIMENSIONS
100
AcDbPolyline
 62
5
  6
CONTINUOUS
 90
3
 70
0
 10
53.4412924805
 20
254.5489848633
 10
53.4412924805
 20
253.2989890137
 10
51.4770029297
 20
253.8346911621
  0
LINE
  5
2CB
100
AcDbEntity
  8
0
100
AcDbLine
 62
7
  6
CONTINUOUS
 10
64.6020047696
 20
142.3587200409
 11
64.6020047696
 21
283.4954092297
  0
LINE
  5
2CC
100
AcDbEntity
  8
ACHSEN
100
AcDbLine
 62
8
  6
HIDDEN
 10
72.6020047696
 20
283.4954092297
 11
72.6020047696
 21
264.4954092297
  0
LINE
  5
2CD
100
AcDbEntity
  8
DEFAULT_2
100
AcDbLine
 62
8
  6
HIDDEN
 10
72.6020047696
 20
227.3281627221
 11
72.6020047696
 21
136.856435496
  0
LINE
  5
2CE
100
AcDbEntity
  8
ACHSEN
100
AcDbLine
 62
7
  6
CONTINUOUS
 10
72.6020047696
 20
227.3281627221
 11
72.6020047696
 21
264.4954092297
  0
LINE
  5
2CF
100
AcDbEntity
  8
0
100
AcDbLine
 62
2
  6
CONTINUOUS
 10
64.6020047696
 20
142.3587200409
 11
69.1819718598
 21
138.4228680269
  0
LWPOLYLINE
  5
2D0
100
AcDbEntity
  8
DIMENSIONS
100
AcDbPolyline
 62
5
  6
CONTINUOUS
 90
9
 70
0
 10
48.5603383942
 20
271.981130127
 10
48.6793858337
 20
272.0406606445
 10
48.7389072876
 20
272.0406606445
 10
48.857959259
 20
271.981130127
 10
48.857959259
 20
271.8620690918
 10
48.7389072876
 20
271.8025385742
 10
48.6793858337
 20
271.8025385742
 10
48.5603383942
 20
271.8620690918
 10
48.5603383942
 20
271.981130127
  0
LINE
  5
2D1
100
AcDbEntity
  8
DIMENSIONS
100
AcDbLine
 62
5
  6
CONTINUOUS
 10
125.2405892944
 20
239.0039425049
 11
124.8787383728
 21
237.7681404419
  0
LWPOLYLINE
  5
2D2
100
AcDbEntity
  8
DIMENSIONS
100
AcDbPolyline
 62
5
  6
CONTINUOUS
 90
9
 70
0
 10
53.56033992
 20
255.7989807129
 10
53.6793873596
 20
255.8585112305
 10
53.7389088135
 20
255.8585112305
 10
53.8579562531
 20
255.7989807129
 10
53.8579562531
 20
255.6799378052
 10
53.7389088135
 20
255.6204072876
 10
53.6793873596
 20
255.6204072876
 10
53.56033992
 20
255.6799378052
 10
53.56033992
 20
255.7989807129
  0
LWPOLYLINE
  5
2D3
100
AcDbEntity
  8
DIMENSIONS
100
AcDbPolyline
 62
5
  6
CONTINUOUS
 90
9
 70
0
 10
48.5603383942
 20
255.3525562134
 10
48.6793858337
 20
255.4120686035
 10
48.7389072876
 20
255.4120686035
 10
48.857959259
 20
255.3525562134
 10
48.857959259
 20
255.2335133057
 10
48.7389072876
 20
255.1739827881
 10
48.6793858337
 20
255.1739827881
 10
48.5603383942
 20
255.2335133057
 10
48.5603383942
 20
255.3525562134
  0
LWPOLYLINE
  5
2D4
100
AcDbEntity
  8
DIMENSIONS
100
AcDbPolyline
 62
5
  6
CONTINUOUS
 90
5
 70
0
 10
47.5484328918
 20
256.9596989136
 10
47.3698639984
 20
257.2573152466
 10
46.8341482544
 20
257.2573152466
 10
46.4770059357
 20
256.9596989136
 10
46.4770059357
 20
256.2454052124
  0
LINE
  5
2D5
100
AcDbEntity
  8
0
100
AcDbLine
 62
2
  6
CONTINUOUS
 10
69.1819718598
 20
138.4228680269
 11
106.1417617543
 21
121.4946633132
  0
LWPOLYLINE
  5
2D6
100
AcDbEntity
  8
DIMENSIONS
100
AcDbPolyline
 62
5
  6
CONTINUOUS
 90
7
 70
0
 10
124.0754298706
 20
238.7258312988
 10
125.9908206482
 20
240.3324664307
 10
126.5646176147
 20
239.6483911743
 10
126.5205135498
 20
239.1452459106
 10
125.9732551575
 20
238.6862047119
 10
125.4701098938
 20
238.7303269043
 10
124.8963129272
 20
239.4143840332
  0
LINE
  5
2D7
100
AcDbEntity
  8
DIMENSIONS
100
AcDbLine
 62
5
  6
CONTINUOUS
 10
125.873318573
 20
236.5824244995
 11
126.8310184937
 21
237.385723938
  0
LWPOLYLINE
  5
2D8
100
AcDbEntity
  8
DIMENSIONS
100
AcDbPolyline
 62
5
  6
CONTINUOUS
 90
3
 70
0
 10
47.1912905731
 20
251.9596973877
 10
46.4770059357
 20
252.6739729614
 10
48.9770066986
 20
252.6739729614
  0
LWPOLYLINE
  5
2D9
100
AcDbEntity
  8
DIMENSIONS
100
AcDbPolyline
 62
5
  6
CONTINUOUS
 90
3
 70
0
 10
47.1912905731
 20
253.3882666626
 10
46.4770059357
 20
254.1025603638
 10
48.9770066986
 20
254.1025603638
  0
LINE
  5
2DA
100
AcDbEntity
  8
0
100
AcDbLine
 62
2
  6
CONTINUOUS
 10
106.1417617543
 20
121.4946633132
 11
135.1769950958
 21
115.6606091293
  0
LWPOLYLINE
  5
2DB
100
AcDbEntity
  8
DIMENSIONS
100
AcDbPolyline
 62
5
  6
CONTINUOUS
 90
3
 70
0
 10
52.191292099
 20
251.8704016113
 10
51.4770029297
 20
252.5846953125
 10
53.9770036926
 20
252.5846953125
  0
LWPOLYLINE
  5
2DC
100
AcDbEntity
  8
DIMENSIONS
100
AcDbPolyline
 62
5
  6
CONTINUOUS
 90
3
 70
0
 10
52.191292099
 20
256.6918297119
 10
51.4770029297
 20
257.4061234131
 10
53.9770036926
 20
257.4061234131
  0
LINE
  5
2DD
100
AcDbEntity
  8
0
100
AcDbLine
 62
2
  6
CONTINUOUS
 10
402.8737574854
 20
112.2848472171
 11
437.333492887
 21
114.2580929556
  0
LINE
  5
2DE
100
AcDbEntity
  8
0
100
AcDbLine
 62
5
  6
CONTINUOUS
 10
264.3400969849
 20
107.5291357727
 11
265.2924765015
 21
107.5291357727
  0
LINE
  5
2DF
100
AcDbEntity
  8
0
100
AcDbLine
 62
5
  6
CONTINUOUS
 10
268.2686760864
 20
107.5291357727
 11
269.221055603
 21
107.5291357727
  0
LINE
  5
2E0
100
AcDbEntity
  8
0
100
AcDbLine
 62
5
  6
CONTINUOUS
 10
266.2448560181
 20
107.7077001343
 11
267.3162965698
 21
107.7077001343
  0
LINE
  5
2E1
100
AcDbEntity
  8
0
100
AcDbLine
 62
2
  6
CONTINUOUS
 10
135.1769950958
 20
115.6606091293
 11
163.9236800415
 21
114.3322734364
  0
LINE
  5
2E2
100
AcDbEntity
  8
0
100
AcDbLine
 62
2
  6
CONTINUOUS
 10
163.9236800415
 20
114.3322734364
 11
248.9283066451
 21
116.7544933569
  0
LINE
  5
2E3
100
AcDbEntity
  8
0
100
AcDbLine
 62
2
  6
CONTINUOUS
 10
248.9283066451
 20
116.7544933569
 11
306.265899731
 21
116.6988273214
  0
LINE
  5
2E4
100
AcDbEntity
  8
0
100
AcDbLine
 62
2
  6
CONTINUOUS
 10
306.265899731
 20
116.6988273214
 11
366.5719697858
 21
114.2352846921
  0
LINE
  5
2E5
100
AcDbEntity
  8
0
100
AcDbLine
 62
2
  6
CONTINUOUS
 10
366.5719697858
 20
114.2352846921
 11
402.8737574854
 21
112.2848472171
  0
LWPOLYLINE
  5
2E6
100
AcDbEntity
  8
DIMENSIONS
100
AcDbPolyline
 62
5
  6
CONTINUOUS
 90
3
 70
0
 10
126.5515296021
 20
236.6074584961
 10
125.7482210999
 20
237.5651674805
 10
127.59745578
 20
238.4170665894
  0
LWPOLYLINE
  5
2E7
100
AcDbEntity
  8
0
100
AcDbPolyline
 62
5
  6
CONTINUOUS
 90
3
 70
0
 10
264.1020111694
 20
106.8148511353
 10
264.8162867432
 20
109.3148428345
 10
265.5305804443
 20
106.8148511353
  0
LWPOLYLINE
  5
2E8
100
AcDbEntity
  8
0
100
AcDbPolyline
 62
5
  6
CONTINUOUS
 90
3
 70
0
 10
268.0305721436
 20
106.8148511353
 10
268.7448658447
 20
109.3148428345
 10
269.4591414185
 20
106.8148511353
  0
LINE
  5
2E9
100
AcDbEntity
  8
ROUNDS
100
AcDbLine
 62
7
  6
CONTINUOUS
 10
394.6020047696
 20
245.3454092297
 11
389.7520047696
 21
245.3454092297
  0
LINE
  5
2EA
100
AcDbEntity
  8
ROUNDS
100
AcDbLine
 62
7
  6
CONTINUOUS
 10
109.6020047696
 20
245.3454092297
 11
114.3520047696
 21
245.3454092297
  0
LINE
  5
2EB
100
AcDbEntity
  8
ROUNDS
100
AcDbLine
 62
7
  6
CONTINUOUS
 10
386.0050059705
 20
247.9454092297
 11
118.0990035686
 21
247.9454092297
  0
LINE
  5
2EC
100
AcDbEntity
  8
ROUNDS
100
AcDbLine
 62
7
  6
CONTINUOUS
 10
118.3520047696
 20
249.3454092297
 11
385.7520047696
 21
249.3454092297
  0
LINE
  5
2ED
100
AcDbEntity
  8
DIMENSIONS
100
AcDbLine
 62
5
  6
CONTINUOUS
 10
53.9770036926
 20
254.1323074951
 11
52.7270033112
 21
254.1323074951
  0
LINE
  5
2EE
100
AcDbEntity
  8
ROUNDS
100
AcDbLine
 62
7
  6
CONTINUOUS
 10
385.7520047696
 20
260.6454092297
 11
118.3520047696
 21
260.6454092297
  0
LINE
  5
2EF
100
AcDbEntity
  8
ROUNDS
100
AcDbLine
 62
7
  6
CONTINUOUS
 10
118.0884375377
 20
262.0454092297
 11
386.0155720015
 21
262.0454092297
  0
LINE
  5
2F0
100
AcDbEntity
  8
0
100
AcDbLine
 62
7
  6
CONTINUOUS
 10
454.0020047696
 20
264.4954092297
 11
389.6020047696
 21
264.4954092297
  0
LINE
  5
2F1
100
AcDbEntity
  8
ROUNDS
100
AcDbLine
 62
7
  6
CONTINUOUS
 10
64.6020047696
 20
264.4954092297
 11
114.5020047696
 21
264.4954092297
  0
LWPOLYLINE
  5
2F2
100
AcDbEntity
  8
DIMENSIONS
100
AcDbPolyline
 62
5
  6
CONTINUOUS
 90
4
 70
0
 10
48.619859848
 20
272.873979126
 10
47.9055752106
 20
272.873979126
 10
47.5484328918
 20
273.2311259766
 10
47.5484328918
 20
273.766828125
  0
LINE
  5
2F3
100
AcDbEntity
  8
0
100
AcDbLine
 62
7
  6
CONTINUOUS
 10
463.6020047696
 20
283.4954092297
 11
64.6020047696
 21
283.4954092297
  0
LINE
  5
2F4
100
AcDbEntity
  8
0
100
AcDbLine
 62
2
  6
CONTINUOUS
 10
437.333492887
 20
114.2580929556
 11
463.6020047696
 21
124.0822585048
  0
LINE
  5
2F5
100
AcDbEntity
  8
ROUNDS
100
AcDbLine
 62
7
  6
CONTINUOUS
 10
441.6020047696
 20
192.4841433648
 11
441.6020047696
 21
198.3454092297
  0
LINE
  5
2F6
100
AcDbEntity
  8
0
100
AcDbLine
 62
7
  6
CONTINUOUS
 10
443.9020047696
 20
116.7146519124
 11
443.9020047696
 21
188.8633699667
  0
LINE
  5
2F7
100
AcDbEntity
  8
0
100
AcDbLine
 62
7
  6
CONTINUOUS
 10
445.3020047696
 20
188.4954092297
 11
445.3020047696
 21
117.2382381677
  0
LINE
  5
2F8
100
AcDbEntity
  8
0
100
AcDbLine
 62
7
  6
CONTINUOUS
 10
456.6020047696
 20
121.4643272283
 11
456.6020047696
 21
188.4954092297
  0
LINE
  5
2F9
100
AcDbEntity
  8
ROUNDS
100
AcDbLine
 62
7
  6
CONTINUOUS
 10
456.7520047696
 20
260.4954092297
 11
456.7520047696
 21
189.5805359504
  0
LINE
  5
2FA
100
AcDbEntity
  8
0
100
AcDbLine
 62
7
  6
CONTINUOUS
 10
458.0020047696
 20
121.9879134836
 11
458.0020047696
 21
260.4954092297
  0
LWPOLYLINE
  5
2FB
100
AcDbEntity
  8
DIMENSIONS
100
AcDbPolyline
 62
5
  6
CONTINUOUS
 90
4
 70
0
 10
459.1198718262
 20
108.6496291809
 10
459.1198718262
 20
109.1853403931
 10
460.3698676758
 20
109.1853403931
 10
459.6555739746
 20
106.6853486938
  0
LINE
  5
2FC
100
AcDbEntity
  8
0
100
AcDbLine
 62
7
  6
CONTINUOUS
 10
463.6020047696
 20
283.4954092297
 11
463.6020047696
 21
124.0822585048
  0
LINE
  5
2FD
100
AcDbEntity
  8
0
100
AcDbLine
 62
7
  6
CONTINUOUS
 10
64.6020047696
 20
333.9517868639
 11
64.6020047696
 21
338.9517868639
  0
LINE
  5
2FE
100
AcDbEntity
  8
0
100
AcDbLine
 62
7
  6
CONTINUOUS
 10
64.6020047696
 20
342.9517868639
 11
64.6020047696
 21
349.9517868639
  0
LWPOLYLINE
  5
2FF
100
AcDbEntity
  8
DIMENSIONS
100
AcDbPolyline
 62
5
  6
CONTINUOUS
 90
4
 70
0
 10
67.6198611145
 20
325.190536377
 10
67.6198611145
 20
325.9048300781
 10
67.9770034332
 20
326.2619769287
 10
68.5127191772
 20
326.2619769287
  0
LINE
  5
300
100
AcDbEntity
  8
0
100
AcDbLine
 62
7
  6
CONTINUOUS
 10
72.6020047696
 20
342.9517868639
 11
72.6020047696
 21
338.9517868639
  0
LWPOLYLINE
  5
301
100
AcDbEntity
  8
DIMENSIONS
100
AcDbPolyline
 62
5
  6
CONTINUOUS
 90
13
 70
0
 10
67.9770034332
 20
326.2619769287
 10
67.7389085541
 20
326.4405322266
 10
67.7389085541
 20
326.9762706299
 10
67.9770034332
 20
327.3333812256
 10
68.5127191772
 20
327.3333812256
 10
68.7508140564
 20
326.9762706299
 10
68.7508140564
 20
326.4405322266
 10
68.5127191772
 20
326.2619769287
 10
68.869861496
 20
325.9048300781
 10
68.869861496
 20
325.190536377
 10
68.5127191772
 20
324.8333895264
 10
67.9770034332
 20
324.8333895264
 10
67.6198611145
 20
325.190536377
  0
LINE
  5
302
100
AcDbEntity
  8
0
100
AcDbLine
 62
7
  6
CONTINUOUS
 10
463.6020047696
 20
333.9517868639
 11
64.6020047696
 21
333.9517868639
  0
LINE
  5
303
100
AcDbEntity
  8
0
100
AcDbLine
 62
7
  6
CONTINUOUS
 10
72.6020047696
 20
338.9517868639
 11
64.6020047696
 21
338.9517868639
  0
LINE
  5
304
100
AcDbEntity
  8
0
100
AcDbLine
 62
7
  6
CONTINUOUS
 10
445.3020047696
 20
340.4517868639
 11
456.6020047696
 21
340.4517868639
  0
LINE
  5
305
100
AcDbEntity
  8
0
100
AcDbLine
 62
7
  6
CONTINUOUS
 10
64.6020047696
 20
342.9517868639
 11
72.6020047696
 21
342.9517868639
  0
LINE
  5
306
100
AcDbEntity
  8
0
100
AcDbLine
 62
7
  6
CONTINUOUS
 10
443.9020047696
 20
347.5517868639
 11
445.3020047696
 21
347.5517868639
  0
LINE
  5
307
100
AcDbEntity
  8
ROUNDS
100
AcDbLine
 62
7
  6
CONTINUOUS
 10
452.7520047696
 20
347.5517868639
 11
456.6020047696
 21
347.5517868639
  0
LINE
  5
308
100
AcDbEntity
  8
0
100
AcDbLine
 62
7
  6
CONTINUOUS
 10
456.6020047696
 20
347.5517868639
 11
458.0020047696
 21
347.5517868639
  0
LINE
  5
309
100
AcDbEntity
  8
0
100
AcDbLine
 62
7
  6
CONTINUOUS
 10
463.6020047696
 20
349.9517868639
 11
458.0020047696
 21
349.9517868639
  0
LINE
  5
30A
100
AcDbEntity
  8
0
100
AcDbLine
 62
7
  6
CONTINUOUS
 10
454.0020047696
 20
349.9517868639
 11
64.6020047696
 21
349.9517868639
  0
LINE
  5
30B
100
AcDbEntity
  8
ROUNDS
100
AcDbLine
 62
7
  6
CONTINUOUS
 10
454.0020047696
 20
349.9517868639
 11
458.0020047696
 21
349.9517868639
  0
LINE
  5
30C
100
AcDbEntity
  8
DIMENSIONS
100
AcDbLine
 62
5
  6
CONTINUOUS
 10
472.140269165
 20
357.994788208
 11
470.8902733154
 21
357.994788208
  0
LWPOLYLINE
  5
30D
100
AcDbEntity
  8
DIMENSIONS
100
AcDbPolyline
 62
5
  6
CONTINUOUS
 90
9
 70
0
 10
471.7235917969
 20
356.2685844727
 10
471.842652832
 20
356.3281149902
 10
471.9021833496
 20
356.3281149902
 10
472.0212081299
 20
356.2685844727
 10
472.0212081299
 20
356.1495596924
 10
471.9021833496
 20
356.0900291748
 10
471.842652832
 20
356.0900291748
 10
471.7235917969
 20
356.1495596924
 10
471.7235917969
 20
356.2685844727
  0
LWPOLYLINE
  5
30E
100
AcDbEntity
  8
DIMENSIONS
100
AcDbPolyline
 62
5
  6
CONTINUOUS
 90
9
 70
0
 10
477.568567749
 20
345.1124857178
 10
477.6876287842
 20
345.1720162354
 10
477.7471593018
 20
345.1720162354
 10
477.866184082
 20
345.1124857178
 10
477.866184082
 20
344.9934609375
 10
477.7471593018
 20
344.9339304199
 10
477.6876287842
 20
344.9339304199
 10
477.568567749
 20
344.9934609375
 10
477.568567749
 20
345.1124857178
  0
LWPOLYLINE
  5
30F
100
AcDbEntity
  8
DIMENSIONS
100
AcDbPolyline
 62
5
  6
CONTINUOUS
 90
10
 70
0
 10
477.9852451172
 20
342.9696408691
 10
477.270951416
 20
343.6839345703
 10
476.5566577148
 20
343.8624898682
 10
475.8424002686
 20
343.8624898682
 10
475.485253418
 20
343.5053430176
 10
475.485253418
 20
342.9696408691
 10
475.8424002686
 20
342.6124940186
 10
476.5566577148
 20
342.6124940186
 10
476.9138045654
 20
342.9696408691
 10
476.9138045654
 20
343.7434650879
  0
LINE
  5
310
100
AcDbEntity
  8
0
100
AcDbLine
 62
7
  6
CONTINUOUS
 10
443.9020047696
 20
347.5517868639
 11
443.9020047696
 21
349.9517868639
  0
LINE
  5
311
100
AcDbEntity
  8
0
100
AcDbLine
 62
7
  6
CONTINUOUS
 10
445.3020047696
 20
340.4517868639
 11
445.3020047696
 21
347.5517868639
  0
LINE
  5
312
100
AcDbEntity
  8
ROUNDS
100
AcDbLine
 62
9
  6
CONTINUOUS
 10
452.7520047696
 20
340.4517868639
 11
452.7520047696
 21
347.5517868639
  0
LINE
  5
313
100
AcDbEntity
  8
ROUNDS
100
AcDbLine
 62
9
  6
CONTINUOUS
 10
454.0020047696
 20
349.9517868639
 11
454.0020047696
 21
347.5517868639
  0
LINE
  5
314
100
AcDbEntity
  8
0
100
AcDbLine
 62
7
  6
CONTINUOUS
 10
456.6020047696
 20
340.4517868639
 11
456.6020047696
 21
347.5517868639
  0
LINE
  5
315
100
AcDbEntity
  8
0
100
AcDbLine
 62
7
  6
CONTINUOUS
 10
458.0020047696
 20
347.5517868639
 11
458.0020047696
 21
349.9517868639
  0
LINE
  5
316
100
AcDbEntity
  8
0
100
AcDbLine
 62
7
  6
CONTINUOUS
 10
463.6020047696
 20
333.9517868639
 11
463.6020047696
 21
349.9517868639
  0
LWPOLYLINE
  5
317
100
AcDbEntity
  8
DIMENSIONS
100
AcDbPolyline
 62
5
  6
CONTINUOUS
 90
3
 70
0
 10
471.6045670166
 20
358.4114655762
 10
471.6045670166
 20
357.1614697266
 10
469.6402774658
 20
357.697171875
  0
LWPOLYLINE
  5
318
100
AcDbEntity
  8
DIMENSIONS
100
AcDbPolyline
 62
5
  6
CONTINUOUS
 90
7
 70
0
 10
472.140269165
 20
355.018588623
 10
472.140269165
 20
353.7685927734
 10
470.354571167
 20
355.018588623
 10
469.9974243164
 20
355.018588623
 10
469.6402774658
 20
354.6614417725
 10
469.6402774658
 20
354.125739624
 10
470.1759796143
 20
353.7685927734
  0
LWPOLYLINE
  5
319
100
AcDbEntity
  8
DIMENSIONS
100
AcDbPolyline
 62
5
  6
CONTINUOUS
 90
8
 70
0
 10
477.9852451172
 20
346.0053709717
 10
477.9852451172
 20
346.719628418
 10
477.6280982666
 20
347.0767752686
 10
476.9138045654
 20
347.0767752686
 10
476.5566577148
 20
346.719628418
 10
476.5566577148
 20
346.0053709717
 10
475.485253418
 20
346.0053709717
 10
475.485253418
 20
347.0767752686
  0
ARC
  5
31A
100
AcDbEntity
  8
ACHSEN
100
AcDbCircle
 62
7
  6
CONTINUOUS
 10
109.6020047696
 20
198.3454092297
 40
47.0
100
AcDbArc
 50
90.0
 51
163.2252557359
  0
ARC
  5
31B
100
AcDbEntity
  8
ACHSEN
100
AcDbCircle
 62
7
  6
CONTINUOUS
 10
394.6020047696
 20
198.3454092297
 40
47.0
100
AcDbArc
 50
0.0
 51
90.0
  0
ARC
  5
31C
100
AcDbEntity
  8
ROUNDS
100
AcDbCircle
 62
7
  6
CONTINUOUS
 10
114.3520047696
 20
249.3454092297
 40
4.0
100
AcDbArc
 50
270.0
 51
360.0
  0
ARC
  5
31D
100
AcDbEntity
  8
ROUNDS
100
AcDbCircle
 62
7
  6
CONTINUOUS
 10
389.7520047696
 20
249.3454092297
 40
4.0
100
AcDbArc
 50
180.0
 51
270.0
  0
ARC
  5
31E
100
AcDbEntity
  8
ROUNDS
100
AcDbCircle
 62
7
  6
CONTINUOUS
 10
452.7520047696
 20
189.5805359504
 40
4.0
100
AcDbArc
 50
344.2594514748
 51
360.0
  0
ARC
  5
31F
100
AcDbEntity
  8
ROUNDS
100
AcDbCircle
 62
7
  6
CONTINUOUS
 10
454.0020047696
 20
260.4954092297
 40
4.0
100
AcDbArc
 50
0.0
 51
90.0
  0
ARC
  5
320
100
AcDbEntity
  8
ROUNDS
100
AcDbCircle
 62
7
  6
CONTINUOUS
 10
452.7520047696
 20
260.4954092297
 40
4.0
100
AcDbArc
 50
0.0
 51
90.0
  0
ARC
  5
321
100
AcDbEntity
  8
ROUNDS
100
AcDbCircle
 62
7
  6
CONTINUOUS
 10
445.6020047696
 20
192.4841433648
 40
4.0
100
AcDbArc
 50
180.0
 51
265.6987776953
  0
ARC
  5
322
100
AcDbEntity
  8
ROUNDS
100
AcDbCircle
 62
7
  6
CONTINUOUS
 10
114.5020047696
 20
260.6454092297
 40
3.85
100
AcDbArc
 50
0.0
 51
90.0
  0
ARC
  5
323
100
AcDbEntity
  8
ROUNDS
100
AcDbCircle
 62
7
  6
CONTINUOUS
 10
389.6020047696
 20
260.6454092297
 40
3.85
100
AcDbArc
 50
90.0
 51
180.0
  0
ENDSEC
  0
SECTION
  2
OBJECTS
  0
DICTIONARY
  5
C
100
AcDbDictionary
280
0
281
1
  3
ACAD_GROUP
350
D
  3
ACAD_MLINESTYLE
350
17
  3
ACAD_LAYOUT
350
1A
  3
ACAD_PLOTSETTINGS
350
19
  3
ACAD_PLOTSTYLENAME
350
E
  0
DICTIONARY
  5
D
102
{ACAD_REACTORS
330
C
102
}
100
AcDbDictionary
280
0
281
1
  0
ACDBDICTIONARYWDFLT
  5
E
102
{ACAD_REACTORS
330
C
102
}
100
AcDbDictionary
281
1
  3
Normal
350
F
100
AcDbDictionaryWithDefault
340
F
  0
DICTIONARY
  5
17
102
{ACAD_REACTORS
330
C
102
}
100
AcDbDictionary
280
0
281
1
  3
Standard
350
18
  0
DICTIONARY
  5
19
102
{ACAD_REACTORS
330
C
102
}
100
AcDbDictionary
281
1
  0
DICTIONARY
  5
1A
102
{ACAD_REACTORS
330
C
102
}
100
AcDbDictionary
281
1
  3
Layout1
350
1E
  3
Model
350
22
  0
ACDBPLACEHOLDER
  5
F
102
{ACAD_REACTORS
330
E
102
}
  0
MLINESTYLE
  5
18
102
{ACAD_REACTORS
330
17
102
}
100
AcDbMlineStyle
  2
STANDARD
 70
0
  3

 62
256
 51
90.0
 52
90.0
 71
2
 49
0.5
 62
256
  6
BYLAYER
 49
-0.5
 62
256
  6
BYLAYER
  0
LAYOUT
  5
1E
102
{ACAD_REACTORS
330
1A
102
}
100
AcDbPlotSettings
  1

  2

  4

  6

 40
0.0
 41
0.0
 42
0.0
 43
0.0
 44
0.0
 45
0.0
 46
0.0
 47
0.0
 48
0.0
 49
0.0
140
0.0
141
0.0
142
1.0
143
1.0
 70
0
 72
0
 73
0
 74
0
  7

 75
0
147
1.0
148
0.0
149
0.0
100
AcDbLayout
  1
Layout1
 70
0
 71
0
 10
0.0
 20
0.0
 11
0.0
 21
0.0
 12
0.0
 22
0.0
 32
0.0
 14
0.0
 24
0.0
 34
0.0
 15
0.0
 25
0.0
 35
0.0
146
0.0
 13
0.0
 23
0.0
 33
0.0
 16
0.0
 26
0.0
 36
0.0
 17
0.0
 27
0.0
 37
0.0
 76
0
330
1B
331
0
345
0
346
0
  0
LAYOUT
  5
22
102
{ACAD_REACTORS
330
1A
102
}
100
AcDbPlotSettings
  1

  2

  4

  6

 40
0.0
 41
0.0
 42
0.0
 43
0.0
 44
0.0
 45
0.0
 46
0.0
 47
0.0
 48
0.0
 49
0.0
140
0.0
141
0.0
142
1.0
143
1.0
 70
1024
 72
0
 73
0
 74
0
  7

 75
0
147
1.0
148
0.0
149
0.0
100
AcDbLayout
  1
Model
 70
0
 71
0
 10
0.0
 20
0.0
 11
0.0
 21
0.0
 12
0.0
 22
0.0
 32
0.0
 14
0.0
 24
0.0
 34
0.0
 15
0.0
 25
0.0
 35
0.0
146
0.0
 13
0.0
 23
0.0
 33
0.0
 16
0.0
 26
0.0
 36
0.0
 17
0.0
 27
0.0
 37
0.0
 76
0
330
1F
331
0
345
0
346
0
  0
ENDSEC
  0
EOF
