999
DXF file: korpus_classic_3.dxf
999
Pro/ENGINEER 2009400 by Parametric Technology Corporation
  0
SECTION
  2
HEADER
  9
$ACADVER
  1
AC1015
  9
$DWGCODEPAGE
  3
ANSI_1252
  9
$EXTMAX
 10
594.0
 20
420.0
 30
0.0
  9
$EXTMIN
 10
0.0
 20
0.0
 30
0.0
  9
$LIMMIN
 10
0.0
 20
0.0
  9
$LIMMAX
 10
594.0
 20
420.0
  9
$VIEWCTR
 10
297.0
 20
210.0
  9
$VIEWSIZE
 40
420.0
  9
$CLAYER
  8
0
  9
$LTSCALE
 40
32.67
  9
$CELTYPE
  6
BYLAYER
  9
$DIMSCALE
 40
1.0
  9
$DIMASZ
 40
2.5
  9
$DIMEXO
 40
3.7125
  9
$DIMDLI
 40
22.572
  9
$DIMEXE
 40
10.692
  9
$DIMCEN
 40
5.346
  9
$DIMLFAC
 40
1.0
  9
$DIMBLK
  1
_FILLED
  9
$DIMTXT
 40
2.5
  9
$DIMTOL
 70
1
  9
$DIMLIM
 70
0
  9
$DIMTFAC
 40
1.0
  9
$DIMTP
 40
0.01
  9
$DIMTM
 40
0.01
  9
$PDMODE
 70
3
  9
$PDSIZE
 40
0.5
  9
$HANDSEED
  5
49D
  9
$MEASUREMENT
 70
1
  9
$INSUNITS
 70
4
  0
ENDSEC
  0
SECTION
  2
CLASSES
  0
CLASS
  1
ACDBDICTIONARYWDFLT
  2
AcDbDictionaryWithDefault
  3
AutoCAD 2000
 90
0
280
0
281
0
  0
CLASS
  1
ACDBPLACEHOLDER
  2
AcDbPlaceHolder
  3
AutoCAD 2000
 90
0
280
0
281
0
  0
CLASS
  1
LAYOUT
  2
AcDbLayout
  3
AutoCAD 2000
 90
0
280
0
281
0
  0
ENDSEC
  0
SECTION
  2
TABLES
  0
TABLE
  2
VPORT
  5
8
100
AcDbSymbolTable
 70
2
  0
VPORT
  5
1F4
100
AcDbSymbolTableRecord
100
AcDbViewportTableRecord
  2
*ACTIVE
 70
0
 10
0.0
 20
0.0
 11
1.0
 21
1.0
 12
297.0
 22
210.0
 13
0.0
 23
0.0
 14
1.0
 24
1.0
 15
0.0
 25
0.0
 16
0.0
 26
0.0
 36
1.0
 17
0.0
 27
0.0
 37
0.0
 40
420.0
 41
1.4142857143
 42
50.0
 43
0.0
 44
0.0
 50
0.0
 51
0.0
 71
0
 72
100
 73
1
 74
1
 75
0
 76
0
 77
0
 78
0
  0
ENDTAB
  0
TABLE
  2
LTYPE
  5
5
100
AcDbSymbolTable
 70
6
  0
LTYPE
  5
14
100
AcDbSymbolTableRecord
100
AcDbLinetypeTableRecord
  2
BYBLOCK
 70
0
  3

 72
65
 73
0
 40
0.0
  0
LTYPE
  5
15
100
AcDbSymbolTableRecord
100
AcDbLinetypeTableRecord
  2
BYLAYER
 70
0
  3

 72
65
 73
0
 40
0.0
  0
LTYPE
  5
16
100
AcDbSymbolTableRecord
100
AcDbLinetypeTableRecord
  2
CONTINUOUS
 70
64
  3
Solid line
 72
65
 73
0
 40
0.0
  0
LTYPE
  5
1F5
100
AcDbSymbolTableRecord
100
AcDbLinetypeTableRecord
  2
CENTER
 70
64
  3
____ _ ____ _ ____ _ ____ _ ____ _ ____ _ ____
 72
65
 73
4
 40
0.6
 49
0.375
 74
0
 49
-0.075
 74
0
 49
0.075
 74
0
 49
-0.075
 74
0
  0
LTYPE
  5
1F6
100
AcDbSymbolTableRecord
100
AcDbLinetypeTableRecord
  2
HIDDEN
 70
64
  3
- - - - - - - - - - - - - - - - - - - -
 72
65
 73
2
 40
0.2
 49
0.1
 74
0
 49
-0.1
 74
0
  0
LTYPE
  5
1F7
100
AcDbSymbolTableRecord
100
AcDbLinetypeTableRecord
  2
PHANTOM
 70
64
  3
_____ _ _ _____ _ _ _____ _ _ _____
 72
65
 73
6
 40
0.8
 49
0.45
 74
0
 49
-0.05
 74
0
 49
0.1
 74
0
 49
-0.05
 74
0
 49
0.1
 74
0
 49
-0.05
 74
0
  0
LTYPE
  5
1F8
100
AcDbSymbolTableRecord
100
AcDbLinetypeTableRecord
  2
DOT
 70
64
  3
. . . . . . . . . . . . . . . . . . . .
 72
65
 73
2
 40
0.2
 49
0.1
 74
0
 49
-0.1
 74
0
  0
LTYPE
  5
1F9
100
AcDbSymbolTableRecord
100
AcDbLinetypeTableRecord
  2
DASHED
 70
64
  3
- - - - - - - - - - - - - - - - - - - -
 72
65
 73
2
 40
0.2
 49
0.1
 74
0
 49
-0.1
 74
0
  0
ENDTAB
  0
TABLE
  2
LAYER
  5
2
100
AcDbSymbolTable
 70
36
  0
LAYER
  5
10
100
AcDbSymbolTableRecord
100
AcDbLayerTableRecord
  2
0
 70
0
 62
7
  6
CONTINUOUS
370
-3
390
F
  0
LAYER
  5
1FA
100
AcDbSymbolTableRecord
100
AcDbLayerTableRecord
  2
DEFAULT_1
 70
0
 62
7
  6
CENTER
370
-3
390
F
  0
LAYER
  5
1FB
100
AcDbSymbolTableRecord
100
AcDbLayerTableRecord
  2
DEFAULT_2
 70
0
 62
8
  6
HIDDEN
370
-3
390
F
  0
LAYER
  5
1FC
100
AcDbSymbolTableRecord
100
AcDbLayerTableRecord
  2
DEFAULT_3
 70
0
 62
7
  6
PHANTOM
370
-3
390
F
  0
LAYER
  5
1FD
100
AcDbSymbolTableRecord
100
AcDbLayerTableRecord
  2
_2D_DELETED_OBJS
 70
0
 62
7
  6
CONTINUOUS
370
-3
390
F
  0
LAYER
  5
1FE
100
AcDbSymbolTableRecord
100
AcDbLayerTableRecord
  2
_BLACK_HOLE
 70
0
 62
7
  6
CONTINUOUS
370
-3
390
F
  0
LAYER
  5
1FF
100
AcDbSymbolTableRecord
100
AcDbLayerTableRecord
  2
ACHSEN
 70
0
 62
7
  6
CONTINUOUS
370
-3
390
F
  0
LAYER
  5
200
100
AcDbSymbolTableRecord
100
AcDbLayerTableRecord
  2
AXIS
 70
0
 62
7
  6
CONTINUOUS
370
-3
390
F
  0
LAYER
  5
201
100
AcDbSymbolTableRecord
100
AcDbLayerTableRecord
  2
DIMENSIONS
 70
0
 62
7
  6
CONTINUOUS
370
-3
390
F
  0
LAYER
  5
202
100
AcDbSymbolTableRecord
100
AcDbLayerTableRecord
  2
EBENEN
 70
0
 62
7
  6
CONTINUOUS
370
-3
390
F
  0
LAYER
  5
203
100
AcDbSymbolTableRecord
100
AcDbLayerTableRecord
  2
FASEN
 70
0
 62
7
  6
CONTINUOUS
370
-3
390
F
  0
LAYER
  5
204
100
AcDbSymbolTableRecord
100
AcDbLayerTableRecord
  2
FLAECHEN
 70
0
 62
7
  6
CONTINUOUS
370
-3
390
F
  0
LAYER
  5
205
100
AcDbSymbolTableRecord
100
AcDbLayerTableRecord
  2
HOLES
 70
0
 62
7
  6
CONTINUOUS
370
-3
390
F
  0
LAYER
  5
206
100
AcDbSymbolTableRecord
100
AcDbLayerTableRecord
  2
KOERPER
 70
0
 62
7
  6
CONTINUOUS
370
-3
390
F
  0
LAYER
  5
207
100
AcDbSymbolTableRecord
100
AcDbLayerTableRecord
  2
KURVEN
 70
0
 62
7
  6
CONTINUOUS
370
-3
390
F
  0
LAYER
  5
208
100
AcDbSymbolTableRecord
100
AcDbLayerTableRecord
  2
ORI_FL
 70
0
 62
7
  6
CONTINUOUS
370
-3
390
F
  0
LAYER
  5
209
100
AcDbSymbolTableRecord
100
AcDbLayerTableRecord
  2
PUNKTE
 70
0
 62
7
  6
CONTINUOUS
370
-3
390
F
  0
LAYER
  5
20A
100
AcDbSymbolTableRecord
100
AcDbLayerTableRecord
  2
QUILTS
 70
0
 62
7
  6
CONTINUOUS
370
-3
390
F
  0
LAYER
  5
20B
100
AcDbSymbolTableRecord
100
AcDbLayerTableRecord
  2
ROUNDS
 70
0
 62
7
  6
CONTINUOUS
370
-3
390
F
  0
LAYER
  5
20C
100
AcDbSymbolTableRecord
100
AcDbLayerTableRecord
  2
SAMMELFLAECHEN
 70
0
 62
7
  6
CONTINUOUS
370
-3
390
F
  0
LAYER
  5
20D
100
AcDbSymbolTableRecord
100
AcDbLayerTableRecord
  2
SKETCH
 70
0
 62
7
  6
CONTINUOUS
370
-3
390
F
  0
LAYER
  5
20E
100
AcDbSymbolTableRecord
100
AcDbLayerTableRecord
  2
SOLIDS
 70
0
 62
7
  6
CONTINUOUS
370
-3
390
F
  0
ENDTAB
  0
TABLE
  2
STYLE
  5
3
100
AcDbSymbolTable
 70
1
  0
STYLE
  5
11
100
AcDbSymbolTableRecord
100
AcDbTextStyleTableRecord
  2
STANDARD
 70
0
 40
0.0
 41
0.8
 50
0.0
 71
0
 42
0.2
  3
txt
  4

  0
ENDTAB
  0
TABLE
  2
VIEW
  5
6
100
AcDbSymbolTable
 70
0
  0
ENDTAB
  0
TABLE
  2
UCS
  5
7
100
AcDbSymbolTable
 70
0
  0
ENDTAB
  0
TABLE
  2
APPID
  5
9
100
AcDbSymbolTable
 70
1
  0
APPID
  5
20F
100
AcDbSymbolTableRecord
100
AcDbRegAppTableRecord
  2
ACAD
 70
0
  0
ENDTAB
  0
TABLE
  2
BLOCK_RECORD
  5
1
100
AcDbSymbolTable
 70
0
  0
BLOCK_RECORD
  5
1F
100
AcDbSymbolTableRecord
100
AcDbBlockTableRecord
  2
*MODEL_SPACE
  0
BLOCK_RECORD
  5
1B
100
AcDbSymbolTableRecord
100
AcDbBlockTableRecord
  2
*PAPER_SPACE
  0
BLOCK_RECORD
  5
210
100
AcDbSymbolTableRecord
100
AcDbBlockTableRecord
  2
_FILLED
  0
BLOCK_RECORD
  5
211
100
AcDbSymbolTableRecord
100
AcDbBlockTableRecord
  2
*D0
  0
BLOCK_RECORD
  5
212
100
AcDbSymbolTableRecord
100
AcDbBlockTableRecord
  2
*D1
  0
BLOCK_RECORD
  5
213
100
AcDbSymbolTableRecord
100
AcDbBlockTableRecord
  2
*D2
  0
BLOCK_RECORD
  5
214
100
AcDbSymbolTableRecord
100
AcDbBlockTableRecord
  2
*D3
  0
ENDTAB
  0
TABLE
  2
DIMSTYLE
  5
A
100
AcDbSymbolTable
 70
1
100
AcDbDimStyleTable
 71
0
  0
DIMSTYLE
105
215
100
AcDbSymbolTableRecord
100
AcDbDimStyleTableRecord
  2
STANDARD
 70
0
  3

  4

 40
1.0
 41
2.5
 42
0.0625
 43
0.38
 44
0.18
 45
0.0
 46
0.0
 47
0.01
 48
0.01
140
2.5
141
0.09
142
0.0
143
25.4
144
1.0
145
0.0
146
1.0
147
0.09
 71
1.0
 72
0.0
 73
0
 74
0
 75
0
 76
0
 77
1
 78
8
170
0
171
2
172
0
173
0
174
0
175
0
176
0
177
0
178
5
270
2
271
2
272
2
273
2
274
2
275
0
280
0
281
0
282
0
283
1
284
8
285
0
286
0
287
3
288
0
340
11
341
210
342
210
343
210
344
210
  0
DIMSTYLE
105
216
100
AcDbSymbolTableRecord
100
AcDbDimStyleTableRecord
  2
DIMSTYLE_1
 70
0
  3

  4

 40
1.0
 41
2.5
 42
0.0625
 43
0.38
 44
0.18
 45
0.0
 46
0.0
 47
0.5
 48
0.5
140
2.5
141
0.09
142
0.0
143
25.4
144
1.0
145
0.0
146
1.0
147
0.09
 71
0.0
 72
0.0
 73
0
 74
0
 75
0
 76
0
 77
1
 78
8
170
0
171
2
172
0
173
0
174
0
175
0
176
0
177
0
178
5
270
2
271
2
272
2
273
2
274
2
275
0
280
0
281
0
282
0
283
1
284
8
285
0
286
0
287
3
288
0
340
11
341
210
342
210
343
210
344
210
  0
DIMSTYLE
105
217
100
AcDbSymbolTableRecord
100
AcDbDimStyleTableRecord
  2
DIMSTYLE_2
 70
0
  3

  4

 40
1.0
 41
2.5
 42
0.0625
 43
0.38
 44
0.18
 45
0.0
 46
0.0
 47
0.2
 48
0.2
140
2.5
141
0.09
142
0.0
143
25.4
144
1.0
145
0.0
146
1.0
147
0.09
 71
0.0
 72
0.0
 73
0
 74
0
 75
0
 76
0
 77
1
 78
8
170
0
171
2
172
0
173
0
174
0
175
0
176
0
177
0
178
5
270
2
271
2
272
2
273
2
274
2
275
0
280
0
281
0
282
0
283
1
284
8
285
0
286
0
287
3
288
0
340
11
341
210
342
210
343
210
344
210
  0
ENDTAB
  0
ENDSEC
  0
SECTION
  2
BLOCKS
  0
BLOCK
  5
20
100
AcDbEntity
  8
0
100
AcDbBlockBegin
  2
*MODEL_SPACE
 70
0
 10
0.0
 20
0.0
 30
0.0
  3
*MODEL_SPACE
  1

  0
ENDBLK
  5
21
100
AcDbEntity
  8
0
100
AcDbBlockEnd
  0
BLOCK
  5
1C
100
AcDbEntity
  8
0
100
AcDbBlockBegin
  2
*PAPER_SPACE
 70
0
 10
0.0
 20
0.0
 30
0.0
  3
*PAPER_SPACE
  1

  0
ENDBLK
  5
1D
100
AcDbEntity
  8
0
100
AcDbBlockEnd
  0
BLOCK
  5
218
100
AcDbEntity
  8
DIMENSIONS
100
AcDbBlockBegin
 62
2
  6
CONTINUOUS
  2
*D0
 70
65
 10
0.0
 20
0.0
  3
*D0
  1

  0
LINE
  5
219
100
AcDbEntity
  8
DIMENSIONS
100
AcDbLine
 62
2
  6
CONTINUOUS
 10
540.7623967665
 20
342.8240306551
 11
554.8488157877
 21
342.8240306551
  0
LINE
  5
21A
100
AcDbEntity
  8
DIMENSIONS
100
AcDbLine
 62
2
  6
CONTINUOUS
 10
540.7623967665
 20
208.8240306551
 11
554.8488157877
 21
208.8240306551
  0
LINE
  5
21B
100
AcDbEntity
  8
DIMENSIONS
100
AcDbLine
 62
2
  6
CONTINUOUS
 10
553.8488157877
 20
342.8240306551
 11
553.8488157877
 21
275.8240306551
  0
LINE
  5
21C
100
AcDbEntity
  8
DIMENSIONS
100
AcDbLine
 62
2
  6
CONTINUOUS
 10
553.8488157877
 20
208.8240306551
 11
553.8488157877
 21
275.8240306551
  0
INSERT
  5
21D
100
AcDbEntity
  8
DIMENSIONS
100
AcDbBlockReference
 62
2
  6
CONTINUOUS
  2
_FILLED
 10
553.8488157877
 20
342.8240306551
 41
2.5
 42
2.5
 43
2.5
 50
90.0
  0
INSERT
  5
21E
100
AcDbEntity
  8
DIMENSIONS
100
AcDbBlockReference
 62
2
  6
CONTINUOUS
  2
_FILLED
 10
553.8488157877
 20
208.8240306551
 41
2.5
 42
2.5
 43
2.5
 50
270.0
  0
ENDBLK
  5
21F
100
AcDbEntity
  8
0
  6
BYBLOCK
 62
0
100
AcDbBlockEnd
  0
BLOCK
  5
220
100
AcDbEntity
  8
DIMENSIONS
100
AcDbBlockBegin
 62
2
  6
CONTINUOUS
  2
*D1
 70
65
 10
0.0
 20
0.0
  3
*D1
  1

  0
LINE
  5
221
100
AcDbEntity
  8
DIMENSIONS
100
AcDbLine
 62
2
  6
CONTINUOUS
 10
140.7623967665
 20
60.8240306551
 11
140.7623967665
 21
49.4007861436
  0
LINE
  5
222
100
AcDbEntity
  8
DIMENSIONS
100
AcDbLine
 62
2
  6
CONTINUOUS
 10
129.7623967665
 20
60.8240306551
 11
129.7623967665
 21
49.4007861436
  0
LINE
  5
223
100
AcDbEntity
  8
DIMENSIONS
100
AcDbLine
 62
2
  6
CONTINUOUS
 10
140.7623967665
 20
50.4007861436
 11
148.2623967665
 21
50.4007861436
  0
LINE
  5
224
100
AcDbEntity
  8
DIMENSIONS
100
AcDbLine
 62
2
  6
CONTINUOUS
 10
148.2623967665
 20
50.4007861436
 11
135.2623967665
 21
50.4007861436
  0
LINE
  5
225
100
AcDbEntity
  8
DIMENSIONS
100
AcDbLine
 62
2
  6
CONTINUOUS
 10
129.7623967665
 20
50.4007861436
 11
122.2623967665
 21
50.4007861436
  0
LINE
  5
226
100
AcDbEntity
  8
DIMENSIONS
100
AcDbLine
 62
2
  6
CONTINUOUS
 10
122.2623967665
 20
50.4007861436
 11
135.2623967665
 21
50.4007861436
  0
INSERT
  5
227
100
AcDbEntity
  8
DIMENSIONS
100
AcDbBlockReference
 62
2
  6
CONTINUOUS
  2
_FILLED
 10
140.7623967665
 20
50.4007861436
 41
2.5
 42
2.5
 43
2.5
 50
180.0
  0
INSERT
  5
228
100
AcDbEntity
  8
DIMENSIONS
100
AcDbBlockReference
 62
2
  6
CONTINUOUS
  2
_FILLED
 10
129.7623967665
 20
50.4007861436
 41
2.5
 42
2.5
 43
2.5
  0
ENDBLK
  5
229
100
AcDbEntity
  8
0
  6
BYBLOCK
 62
0
100
AcDbBlockEnd
  0
BLOCK
  5
22A
100
AcDbEntity
  8
DIMENSIONS
100
AcDbBlockBegin
 62
2
  6
CONTINUOUS
  2
*D2
 70
65
 10
0.0
 20
0.0
  3
*D2
  1

  0
LINE
  5
22B
100
AcDbEntity
  8
DIMENSIONS
100
AcDbLine
 62
2
  6
CONTINUOUS
 10
66.9326007839
 20
362.8240306551
 11
66.9326007839
 21
373.579612598
  0
LINE
  5
22C
100
AcDbEntity
  8
DIMENSIONS
100
AcDbLine
 62
2
  6
CONTINUOUS
 10
75.9326007839
 20
349.3240306551
 11
75.9326007839
 21
373.579612598
  0
LINE
  5
22D
100
AcDbEntity
  8
DIMENSIONS
100
AcDbLine
 62
2
  6
CONTINUOUS
 10
66.9326007839
 20
372.579612598
 11
59.4326007839
 21
372.579612598
  0
LINE
  5
22E
100
AcDbEntity
  8
DIMENSIONS
100
AcDbLine
 62
2
  6
CONTINUOUS
 10
59.4326007839
 20
372.579612598
 11
71.4326007839
 21
372.579612598
  0
LINE
  5
22F
100
AcDbEntity
  8
DIMENSIONS
100
AcDbLine
 62
2
  6
CONTINUOUS
 10
75.9326007839
 20
372.579612598
 11
83.4326007839
 21
372.579612598
  0
LINE
  5
230
100
AcDbEntity
  8
DIMENSIONS
100
AcDbLine
 62
2
  6
CONTINUOUS
 10
83.4326007839
 20
372.579612598
 11
71.4326007839
 21
372.579612598
  0
INSERT
  5
231
100
AcDbEntity
  8
DIMENSIONS
100
AcDbBlockReference
 62
2
  6
CONTINUOUS
  2
_FILLED
 10
66.9326007839
 20
372.579612598
 41
2.5
 42
2.5
 43
2.5
  0
INSERT
  5
232
100
AcDbEntity
  8
DIMENSIONS
100
AcDbBlockReference
 62
2
  6
CONTINUOUS
  2
_FILLED
 10
75.9326007839
 20
372.579612598
 41
2.5
 42
2.5
 43
2.5
 50
180.0
  0
ENDBLK
  5
233
100
AcDbEntity
  8
0
  6
BYBLOCK
 62
0
100
AcDbBlockEnd
  0
BLOCK
  5
234
100
AcDbEntity
  8
DIMENSIONS
100
AcDbBlockBegin
 62
2
  6
CONTINUOUS
  2
*D3
 70
65
 10
0.0
 20
0.0
  3
*D3
  1

  0
LINE
  5
235
100
AcDbEntity
  8
DIMENSIONS
100
AcDbLine
 62
2
  6
CONTINUOUS
 10
120.7623967665
 20
342.8240306551
 11
554.8488157877
 21
342.8240306551
  0
LINE
  5
236
100
AcDbEntity
  8
DIMENSIONS
100
AcDbLine
 62
2
  6
CONTINUOUS
 10
120.7623967665
 20
361.8240306551
 11
554.8488157877
 21
361.8240306551
  0
LINE
  5
237
100
AcDbEntity
  8
DIMENSIONS
100
AcDbLine
 62
2
  6
CONTINUOUS
 10
553.8488157877
 20
342.8240306551
 11
553.8488157877
 21
352.3240306551
  0
LINE
  5
238
100
AcDbEntity
  8
DIMENSIONS
100
AcDbLine
 62
2
  6
CONTINUOUS
 10
553.8488157877
 20
361.8240306551
 11
553.8488157877
 21
352.3240306551
  0
INSERT
  5
239
100
AcDbEntity
  8
DIMENSIONS
100
AcDbBlockReference
 62
2
  6
CONTINUOUS
  2
_FILLED
 10
553.8488157877
 20
342.8240306551
 41
2.5
 42
2.5
 43
2.5
 50
270.0
  0
INSERT
  5
23A
100
AcDbEntity
  8
DIMENSIONS
100
AcDbBlockReference
 62
2
  6
CONTINUOUS
  2
_FILLED
 10
553.8488157877
 20
361.8240306551
 41
2.5
 42
2.5
 43
2.5
 50
90.0
  0
ENDBLK
  5
23B
100
AcDbEntity
  8
0
  6
BYBLOCK
 62
0
100
AcDbBlockEnd
  0
BLOCK
  5
23C
100
AcDbEntity
  8
0
100
AcDbBlockBegin
  2
_FILLED
 70
64
 10
0.0
 20
0.0
  3
_FILLED
  1

  0
SOLID
  5
23D
100
AcDbEntity
  8
0
  6
BYBLOCK
 62
0
100
AcDbTrace
 10
0.0
 20
0.0
 11
-1.0
 21
0.15
 12
-1.0
 22
-0.15
 13
-1.0
 23
-0.15
  0
ENDBLK
  5
23E
100
AcDbEntity
  8
0
  6
BYBLOCK
 62
0
100
AcDbBlockEnd
  0
ENDSEC
  0
SECTION
  2
ENTITIES
  0
DIMENSION
  5
23F
100
AcDbEntity
  8
DIMENSIONS
100
AcDbDimension
 62
2
  6
CONTINUOUS
  2
*D0
 10
553.8488157877
 20
208.8240306551
 11
553.2238157877
 21
273.2347449408
 70
160
 42
134.0
  3
DIMSTYLE_1
100
AcDbAlignedDimension
 13
540.7623967665
 23
342.8240306551
 14
540.7623967665
 24
208.8240306551
 50
270.0
100
AcDbRotatedDimension
  0
DIMENSION
  5
240
100
AcDbEntity
  8
DIMENSIONS
100
AcDbDimension
 62
2
  6
CONTINUOUS
  2
*D1
 10
129.7623967665
 20
50.4007861436
 11
133.8338253379
 21
51.0257861436
 70
160
 42
11.0
  3
DIMSTYLE_2
100
AcDbAlignedDimension
 13
140.7623967665
 23
60.8240306551
 14
129.7623967665
 24
60.8240306551
 50
180.0
100
AcDbRotatedDimension
  0
DIMENSION
  5
241
100
AcDbEntity
  8
DIMENSIONS
100
AcDbDimension
 62
2
  6
CONTINUOUS
  2
*D2
 10
75.9326007839
 20
372.579612598
 11
70.4504579267
 21
373.204612598
 70
160
 42
9.0
  3
DIMSTYLE_2
100
AcDbAlignedDimension
 13
66.9326007839
 23
362.8240306551
 14
75.9326007839
 24
349.3240306551
100
AcDbRotatedDimension
  0
DIMENSION
  5
242
100
AcDbEntity
  8
DIMENSIONS
100
AcDbDimension
 62
2
  6
CONTINUOUS
  2
*D3
 10
553.8488157877
 20
361.8240306551
 11
553.2238157877
 21
345.8954592265
 70
160
 42
19.0
  1
 Boden-\Pstaerke
  3
DIMSTYLE_2
100
AcDbAlignedDimension
 13
120.7623967665
 23
342.8240306551
 14
120.7623967665
 24
361.8240306551
 50
90.0
100
AcDbRotatedDimension
  0
SOLID
  5
243
100
AcDbEntity
  8
0
100
AcDbTrace
 62
5
  6
CONTINUOUS
 10
302.0732289898
 20
277.2623772025
 11
301.0361919527
 21
276.8920068322
 12
301.258414175
 22
277.2623772025
 13
301.258414175
 23
277.2623772025
  0
SOLID
  5
244
100
AcDbEntity
  8
0
100
AcDbTrace
 62
5
  6
CONTINUOUS
 10
300.8139697305
 20
275.0401549803
 11
298.8139697305
 21
274.9660809063
 12
299.332488249
 22
275.2623772025
 13
299.332488249
 23
275.2623772025
  0
SOLID
  5
245
100
AcDbEntity
  8
0
100
AcDbTrace
 62
5
  6
CONTINUOUS
 10
298.3695252861
 20
274.743858684
 11
298.8139697305
 21
274.9660809063
 12
300.8139697305
 22
275.0401549803
 13
300.8139697305
 23
275.0401549803
  0
SOLID
  5
246
100
AcDbEntity
  8
0
100
AcDbTrace
 62
5
  6
CONTINUOUS
 10
298.3695252861
 20
274.743858684
 11
300.8139697305
 21
275.0401549803
 12
300.295451212
 22
274.5957105359
 13
300.295451212
 23
274.5957105359
  0
SOLID
  5
247
100
AcDbEntity
  8
0
100
AcDbTrace
 62
5
  6
CONTINUOUS
 10
299.6287845453
 20
274.1512660914
 11
298.9621178787
 21
273.7808957211
 12
298.3695252861
 22
273.5586734988
 13
298.3695252861
 23
273.5586734988
  0
SOLID
  5
248
100
AcDbEntity
  8
0
100
AcDbTrace
 62
5
  6
CONTINUOUS
 10
300.295451212
 20
274.5957105359
 11
299.6287845453
 21
274.1512660914
 12
298.3695252861
 22
273.5586734988
 13
298.3695252861
 23
273.5586734988
  0
SOLID
  5
249
100
AcDbEntity
  8
0
100
AcDbTrace
 62
5
  6
CONTINUOUS
 10
300.295451212
 20
274.5957105359
 11
298.3695252861
 21
273.5586734988
 12
298.3695252861
 22
274.743858684
 13
298.3695252861
 23
274.743858684
  0
SOLID
  5
24A
100
AcDbEntity
  8
0
100
AcDbTrace
 62
5
  6
CONTINUOUS
 10
300.8139697305
 20
276.5957105359
 11
301.0361919527
 21
276.8920068322
 12
302.0732289898
 22
277.2623772025
 13
302.0732289898
 23
277.2623772025
  0
SOLID
  5
24B
100
AcDbEntity
  8
0
100
AcDbTrace
 62
5
  6
CONTINUOUS
 10
300.5176734342
 20
276.2253401655
 11
300.8139697305
 21
276.5957105359
 12
302.0732289898
 22
277.2623772025
 13
302.0732289898
 23
277.2623772025
  0
SOLID
  5
24C
100
AcDbEntity
  8
0
100
AcDbTrace
 62
5
  6
CONTINUOUS
 10
300.1473030639
 20
275.9290438692
 11
300.5176734342
 21
276.2253401655
 12
302.0732289898
 22
277.2623772025
 13
302.0732289898
 23
277.2623772025
  0
SOLID
  5
24D
100
AcDbEntity
  8
0
100
AcDbTrace
 62
5
  6
CONTINUOUS
 10
299.7028586194
 20
275.5586734988
 11
300.1473030639
 21
275.9290438692
 12
302.0732289898
 22
277.2623772025
 13
302.0732289898
 23
277.2623772025
  0
SOLID
  5
24E
100
AcDbEntity
  8
0
100
AcDbTrace
 62
5
  6
CONTINUOUS
 10
299.332488249
 20
275.2623772025
 11
299.7028586194
 21
275.5586734988
 12
302.0732289898
 22
277.2623772025
 13
302.0732289898
 23
277.2623772025
  0
SOLID
  5
24F
100
AcDbEntity
  8
0
100
AcDbTrace
 62
5
  6
CONTINUOUS
 10
300.8139697305
 20
275.0401549803
 11
299.332488249
 21
275.2623772025
 12
302.0732289898
 22
277.2623772025
 13
302.0732289898
 23
277.2623772025
  0
SOLID
  5
250
100
AcDbEntity
  8
0
100
AcDbTrace
 62
5
  6
CONTINUOUS
 10
300.8139697305
 20
267.2623772025
 11
300.8139697305
 21
275.0401549803
 12
302.0732289898
 22
277.2623772025
 13
302.0732289898
 23
277.2623772025
  0
SOLID
  5
251
100
AcDbEntity
  8
0
100
AcDbTrace
 62
5
  6
CONTINUOUS
 10
300.8139697305
 20
267.2623772025
 11
302.0732289898
 21
277.2623772025
 12
302.0732289898
 22
267.2623772025
 13
302.0732289898
 23
267.2623772025
  0
SOLID
  5
252
100
AcDbEntity
  8
0
100
AcDbTrace
 62
5
  6
CONTINUOUS
 10
307.7028586194
 20
277.1883076496
 11
308.3695252861
 21
277.2623772025
 12
309.0361919527
 22
277.1883076496
 13
309.0361919527
 23
277.1883076496
  0
SOLID
  5
253
100
AcDbEntity
  8
0
100
AcDbTrace
 62
5
  6
CONTINUOUS
 10
309.0361919527
 20
277.1883076496
 11
307.1102660268
 21
277.0401572409
 12
307.7028586194
 22
277.1883076496
 13
307.7028586194
 23
277.1883076496
  0
SOLID
  5
254
100
AcDbEntity
  8
0
100
AcDbTrace
 62
5
  6
CONTINUOUS
 10
307.1102660268
 20
277.0401572409
 11
309.0361919527
 21
277.1883076496
 12
309.6287845453
 22
277.0401572409
 13
309.6287845453
 23
277.0401572409
  0
SOLID
  5
255
100
AcDbEntity
  8
0
100
AcDbTrace
 62
5
  6
CONTINUOUS
 10
309.6287845453
 20
277.0401572409
 11
306.5917475083
 21
276.8179372792
 12
307.1102660268
 22
277.0401572409
 13
307.1102660268
 23
277.0401572409
  0
SOLID
  5
256
100
AcDbEntity
  8
0
100
AcDbTrace
 62
5
  6
CONTINUOUS
 10
306.5917475083
 20
276.8179372792
 11
309.6287845453
 21
277.0401572409
 12
310.1473030639
 22
276.8179372792
 13
310.1473030639
 23
276.8179372792
  0
SOLID
  5
257
100
AcDbEntity
  8
0
100
AcDbTrace
 62
5
  6
CONTINUOUS
 10
310.1473030639
 20
276.8179372792
 11
306.1473030639
 21
276.5216364618
 12
306.5917475083
 22
276.8179372792
 13
306.5917475083
 23
276.8179372792
  0
SOLID
  5
258
100
AcDbEntity
  8
0
100
AcDbTrace
 62
5
  6
CONTINUOUS
 10
306.1473030639
 20
276.5216364618
 11
310.1473030639
 21
276.8179372792
 12
310.5917475083
 22
276.4475623877
 13
310.5917475083
 23
276.4475623877
  0
SOLID
  5
259
100
AcDbEntity
  8
0
100
AcDbTrace
 62
5
  6
CONTINUOUS
 10
308.3695252861
 20
276.2253401655
 11
307.9250808416
 21
276.1512672217
 12
305.7769326935
 22
276.0771869311
 13
305.7769326935
 23
276.0771869311
  0
SOLID
  5
25A
100
AcDbEntity
  8
0
100
AcDbTrace
 62
5
  6
CONTINUOUS
 10
310.5917475083
 20
276.4475623877
 11
308.3695252861
 21
276.2253401655
 12
305.7769326935
 22
276.0771869311
 13
305.7769326935
 23
276.0771869311
  0
SOLID
  5
25B
100
AcDbEntity
  8
0
100
AcDbTrace
 62
5
  6
CONTINUOUS
 10
310.5917475083
 20
276.4475623877
 11
305.7769326935
 21
276.0771869311
 12
306.1473030639
 22
276.5216364618
 13
306.1473030639
 23
276.5216364618
  0
SOLID
  5
25C
100
AcDbEntity
  8
0
100
AcDbTrace
 62
5
  6
CONTINUOUS
 10
305.7769326935
 20
276.0771869311
 11
307.9250808416
 21
276.1512672217
 12
307.5547104713
 22
276.0771869311
 13
307.5547104713
 23
276.0771869311
  0
SOLID
  5
25D
100
AcDbEntity
  8
0
100
AcDbTrace
 62
5
  6
CONTINUOUS
 10
308.7398956564
 20
276.1512672217
 11
308.3695252861
 21
276.2253401655
 12
310.5917475083
 22
276.4475623877
 13
310.5917475083
 23
276.4475623877
  0
SOLID
  5
25E
100
AcDbEntity
  8
0
100
AcDbTrace
 62
5
  6
CONTINUOUS
 10
309.1102660268
 20
276.0771869311
 11
308.7398956564
 21
276.1512672217
 12
310.5917475083
 22
276.4475623877
 13
310.5917475083
 23
276.4475623877
  0
SOLID
  5
25F
100
AcDbEntity
  8
0
100
AcDbTrace
 62
5
  6
CONTINUOUS
 10
309.1102660268
 20
276.0771869311
 11
310.5917475083
 21
276.4475623877
 12
310.9621178787
 22
276.0031179433
 13
310.9621178787
 23
276.0031179433
  0
SOLID
  5
260
100
AcDbEntity
  8
0
100
AcDbTrace
 62
5
  6
CONTINUOUS
 10
310.9621178787
 20
276.0031179433
 11
309.4065623231
 21
275.9290438692
 12
309.1102660268
 22
276.0771869311
 13
309.1102660268
 23
276.0771869311
  0
SOLID
  5
261
100
AcDbEntity
  8
0
100
AcDbTrace
 62
5
  6
CONTINUOUS
 10
307.1843401009
 20
275.8549697951
 11
306.9621178787
 21
275.6327475729
 12
305.4806363972
 22
275.5586774548
 13
305.4806363972
 23
275.5586774548
  0
SOLID
  5
262
100
AcDbEntity
  8
0
100
AcDbTrace
 62
5
  6
CONTINUOUS
 10
307.5547104713
 20
276.0771869311
 11
307.1843401009
 21
275.8549697951
 12
305.4806363972
 22
275.5586774548
 13
305.4806363972
 23
275.5586774548
  0
SOLID
  5
263
100
AcDbEntity
  8
0
100
AcDbTrace
 62
5
  6
CONTINUOUS
 10
307.5547104713
 20
276.0771869311
 11
305.4806363972
 21
275.5586774548
 12
305.7769326935
 22
276.0771869311
 13
305.7769326935
 23
276.0771869311
  0
SOLID
  5
264
100
AcDbEntity
  8
0
100
AcDbTrace
 62
5
  6
CONTINUOUS
 10
309.7028586194
 20
275.706821647
 11
309.4065623231
 21
275.9290438692
 12
310.9621178787
 22
276.0031179433
 13
310.9621178787
 23
276.0031179433
  0
SOLID
  5
265
100
AcDbEntity
  8
0
100
AcDbTrace
 62
5
  6
CONTINUOUS
 10
309.7028586194
 20
275.706821647
 11
310.9621178787
 21
276.0031179433
 12
311.258414175
 22
275.5586774548
 13
311.258414175
 23
275.5586774548
  0
SOLID
  5
266
100
AcDbEntity
  8
0
100
AcDbTrace
 62
5
  6
CONTINUOUS
 10
311.258414175
 20
275.5586774548
 11
309.9250808416
 21
275.4845994248
 12
309.7028586194
 22
275.706821647
 13
309.7028586194
 23
275.706821647
  0
SOLID
  5
267
100
AcDbEntity
  8
0
100
AcDbTrace
 62
5
  6
CONTINUOUS
 10
305.4806363972
 20
275.5586774548
 11
306.9621178787
 21
275.6327475729
 12
306.7398956564
 22
275.3364512766
 13
306.7398956564
 23
275.3364512766
  0
SOLID
  5
268
100
AcDbEntity
  8
0
100
AcDbTrace
 62
5
  6
CONTINUOUS
 10
310.0732289898
 20
275.1883031285
 11
309.9250808416
 21
275.4845994248
 12
311.258414175
 22
275.5586774548
 13
311.258414175
 23
275.5586774548
  0
SOLID
  5
269
100
AcDbEntity
  8
0
100
AcDbTrace
 62
5
  6
CONTINUOUS
 10
310.0732289898
 20
275.1883031285
 11
311.258414175
 21
275.5586774548
 12
311.4065623231
 22
275.0401572409
 13
311.4065623231
 23
275.0401572409
  0
SOLID
  5
26A
100
AcDbEntity
  8
0
100
AcDbTrace
 62
5
  6
CONTINUOUS
 10
306.7398956564
 20
275.3364512766
 11
306.5176734342
 21
275.0401572409
 12
305.258414175
 22
274.9660809063
 13
305.258414175
 23
274.9660809063
  0
SOLID
  5
26B
100
AcDbEntity
  8
0
100
AcDbTrace
 62
5
  6
CONTINUOUS
 10
306.7398956564
 20
275.3364512766
 11
305.258414175
 21
274.9660809063
 12
305.4806363972
 22
275.5586774548
 13
305.4806363972
 23
275.5586774548
  0
SOLID
  5
26C
100
AcDbEntity
  8
0
100
AcDbTrace
 62
5
  6
CONTINUOUS
 10
311.4065623231
 20
275.0401572409
 11
310.1473030639
 21
274.8920068322
 12
310.0732289898
 22
275.1883031285
 13
310.0732289898
 23
275.1883031285
  0
SOLID
  5
26D
100
AcDbEntity
  8
0
100
AcDbTrace
 62
5
  6
CONTINUOUS
 10
305.258414175
 20
274.9660809063
 11
306.5176734342
 21
275.0401572409
 12
306.4435993601
 22
274.66978461
 13
306.4435993601
 23
274.66978461
  0
SOLID
  5
26E
100
AcDbEntity
  8
0
100
AcDbTrace
 62
5
  6
CONTINUOUS
 10
310.2213771379
 20
274.5216364618
 11
310.1473030639
 21
274.8920068322
 12
311.4065623231
 22
275.0401572409
 13
311.4065623231
 23
275.0401572409
  0
SOLID
  5
26F
100
AcDbEntity
  8
0
100
AcDbTrace
 62
5
  6
CONTINUOUS
 10
310.2213771379
 20
274.5216364618
 11
311.4065623231
 21
275.0401572409
 12
311.4806363972
 22
274.4475623877
 13
311.4806363972
 23
274.4475623877
  0
SOLID
  5
270
100
AcDbEntity
  8
0
100
AcDbTrace
 62
5
  6
CONTINUOUS
 10
306.4435993601
 20
274.66978461
 11
305.1843401009
 21
274.3734883137
 12
305.258414175
 22
274.9660809063
 13
305.258414175
 23
274.9660809063
  0
SOLID
  5
271
100
AcDbEntity
  8
0
100
AcDbTrace
 62
5
  6
CONTINUOUS
 10
305.1843401009
 20
274.3734883137
 11
306.4435993601
 21
274.66978461
 12
306.4435993601
 22
274.2253401655
 13
306.4435993601
 23
274.2253401655
  0
SOLID
  5
272
100
AcDbEntity
  8
0
100
AcDbTrace
 62
5
  6
CONTINUOUS
 10
311.4806363972
 20
274.4475623877
 11
310.1473030639
 21
274.1512660914
 12
310.2213771379
 22
274.5216364618
 13
310.2213771379
 23
274.5216364618
  0
SOLID
  5
273
100
AcDbEntity
  8
0
100
AcDbTrace
 62
5
  6
CONTINUOUS
 10
310.1473030639
 20
274.1512660914
 11
311.4806363972
 21
274.4475623877
 12
311.4065623231
 22
273.9290438692
 13
311.4065623231
 23
273.9290438692
  0
SOLID
  5
274
100
AcDbEntity
  8
0
100
AcDbTrace
 62
5
  6
CONTINUOUS
 10
311.4065623231
 20
273.9290438692
 11
310.0732289898
 21
273.8549697951
 12
310.1473030639
 22
274.1512660914
 13
310.1473030639
 23
274.1512660914
  0
SOLID
  5
275
100
AcDbEntity
  8
0
100
AcDbTrace
 62
5
  6
CONTINUOUS
 10
309.8510067676
 20
273.4845994248
 11
310.0732289898
 21
273.8549697951
 12
311.4065623231
 22
273.9290438692
 13
311.4065623231
 23
273.9290438692
  0
SOLID
  5
276
100
AcDbEntity
  8
0
100
AcDbTrace
 62
5
  6
CONTINUOUS
 10
309.8510067676
 20
273.4845994248
 11
311.4065623231
 21
273.9290438692
 12
311.1843401009
 22
273.3364512766
 13
311.1843401009
 23
273.3364512766
  0
SOLID
  5
277
100
AcDbEntity
  8
0
100
AcDbTrace
 62
5
  6
CONTINUOUS
 10
311.1843401009
 20
273.3364512766
 11
309.6287845453
 21
273.1142290544
 12
309.8510067676
 22
273.4845994248
 13
309.8510067676
 23
273.4845994248
  0
SOLID
  5
278
100
AcDbEntity
  8
0
100
AcDbTrace
 62
5
  6
CONTINUOUS
 10
309.6287845453
 20
273.1142290544
 11
311.1843401009
 21
273.3364512766
 12
311.1102660268
 22
273.0401549803
 13
311.1102660268
 23
273.0401549803
  0
SOLID
  5
279
100
AcDbEntity
  8
0
100
AcDbTrace
 62
5
  6
CONTINUOUS
 10
311.1102660268
 20
273.0401549803
 11
309.4806363972
 21
272.8920068322
 12
309.6287845453
 22
273.1142290544
 13
309.6287845453
 23
273.1142290544
  0
SOLID
  5
27A
100
AcDbEntity
  8
0
100
AcDbTrace
 62
5
  6
CONTINUOUS
 10
309.4806363972
 20
272.8920068322
 11
311.1102660268
 21
273.0401549803
 12
310.8880438046
 22
272.743858684
 13
310.8880438046
 23
272.743858684
  0
SOLID
  5
27B
100
AcDbEntity
  8
0
100
AcDbTrace
 62
5
  6
CONTINUOUS
 10
310.8880438046
 20
272.743858684
 11
309.258414175
 21
272.66978461
 12
309.4806363972
 22
272.8920068322
 13
309.4806363972
 23
272.8920068322
  0
SOLID
  5
27C
100
AcDbEntity
  8
0
100
AcDbTrace
 62
5
  6
CONTINUOUS
 10
309.0361919527
 20
272.447567474
 11
309.258414175
 21
272.66978461
 12
310.8880438046
 22
272.743858684
 13
310.8880438046
 23
272.743858684
  0
SOLID
  5
27D
100
AcDbEntity
  8
0
100
AcDbTrace
 62
5
  6
CONTINUOUS
 10
309.0361919527
 20
272.447567474
 11
310.8880438046
 21
272.743858684
 12
310.6658215824
 22
272.447567474
 13
310.6658215824
 23
272.447567474
  0
SOLID
  5
27E
100
AcDbEntity
  8
0
100
AcDbTrace
 62
5
  6
CONTINUOUS
 10
310.6658215824
 20
272.447567474
 11
308.8139697305
 21
272.2253401655
 12
309.0361919527
 22
272.447567474
 13
309.0361919527
 23
272.447567474
  0
SOLID
  5
27F
100
AcDbEntity
  8
0
100
AcDbTrace
 62
5
  6
CONTINUOUS
 10
308.8139697305
 20
272.2253401655
 11
310.6658215824
 21
272.447567474
 12
310.4435993601
 22
272.0771920174
 13
310.4435993601
 23
272.0771920174
  0
SOLID
  5
280
100
AcDbEntity
  8
0
100
AcDbTrace
 62
5
  6
CONTINUOUS
 10
310.4435993601
 20
272.0771920174
 11
308.5176734342
 21
271.9290438692
 12
308.8139697305
 22
272.2253401655
 13
308.8139697305
 23
272.2253401655
  0
SOLID
  5
281
100
AcDbEntity
  8
0
100
AcDbTrace
 62
5
  6
CONTINUOUS
 10
308.5176734342
 20
271.9290438692
 11
310.4435993601
 21
272.0771920174
 12
310.1473030639
 22
271.7808957211
 13
310.1473030639
 23
271.7808957211
  0
SOLID
  5
282
100
AcDbEntity
  8
0
100
AcDbTrace
 62
5
  6
CONTINUOUS
 10
310.1473030639
 20
271.7808957211
 11
308.1473030639
 21
271.6327475729
 12
308.5176734342
 22
271.9290438692
 13
308.5176734342
 23
271.9290438692
  0
SOLID
  5
283
100
AcDbEntity
  8
0
100
AcDbTrace
 62
5
  6
CONTINUOUS
 10
307.8510067676
 20
271.3364473206
 11
308.1473030639
 21
271.6327475729
 12
310.1473030639
 22
271.7808957211
 13
310.1473030639
 23
271.7808957211
  0
SOLID
  5
284
100
AcDbEntity
  8
0
100
AcDbTrace
 62
5
  6
CONTINUOUS
 10
307.8510067676
 20
271.3364473206
 11
310.1473030639
 21
271.7808957211
 12
309.7028586194
 22
271.3364473206
 13
309.7028586194
 23
271.3364473206
  0
SOLID
  5
285
100
AcDbEntity
  8
0
100
AcDbTrace
 62
5
  6
CONTINUOUS
 10
309.7028586194
 20
271.3364473206
 11
307.4065623231
 21
270.9660809063
 12
307.8510067676
 22
271.3364473206
 13
307.8510067676
 23
271.3364473206
  0
SOLID
  5
286
100
AcDbEntity
  8
0
100
AcDbTrace
 62
5
  6
CONTINUOUS
 10
307.4065623231
 20
270.9660809063
 11
309.7028586194
 21
271.3364473206
 12
309.1843401009
 22
270.8920068322
 13
309.1843401009
 23
270.8920068322
  0
SOLID
  5
287
100
AcDbEntity
  8
0
100
AcDbTrace
 62
5
  6
CONTINUOUS
 10
309.1843401009
 20
270.8920068322
 11
306.9621178787
 21
270.5957105359
 12
307.4065623231
 22
270.9660809063
 13
307.4065623231
 23
270.9660809063
  0
SOLID
  5
288
100
AcDbEntity
  8
0
100
AcDbTrace
 62
5
  6
CONTINUOUS
 10
306.9621178787
 20
270.5957105359
 11
309.1843401009
 21
270.8920068322
 12
308.5917475083
 22
270.3734883137
 13
308.5917475083
 23
270.3734883137
  0
SOLID
  5
289
100
AcDbEntity
  8
0
100
AcDbTrace
 62
5
  6
CONTINUOUS
 10
308.5917475083
 20
270.3734883137
 11
306.5176734342
 21
270.1512660914
 12
306.9621178787
 22
270.5957105359
 13
306.9621178787
 23
270.5957105359
  0
SOLID
  5
28A
100
AcDbEntity
  8
0
100
AcDbTrace
 62
5
  6
CONTINUOUS
 10
306.5176734342
 20
270.1512660914
 11
308.5917475083
 21
270.3734883137
 12
308.1473030639
 22
269.9290438692
 13
308.1473030639
 23
269.9290438692
  0
SOLID
  5
28B
100
AcDbEntity
  8
0
100
AcDbTrace
 62
5
  6
CONTINUOUS
 10
308.1473030639
 20
269.9290438692
 11
306.1473030639
 21
269.7808957211
 12
306.5176734342
 22
270.1512660914
 13
306.5176734342
 23
270.1512660914
  0
SOLID
  5
28C
100
AcDbEntity
  8
0
100
AcDbTrace
 62
5
  6
CONTINUOUS
 10
306.1473030639
 20
269.7808957211
 11
308.1473030639
 21
269.9290438692
 12
307.7028586194
 22
269.6327475729
 13
307.7028586194
 23
269.6327475729
  0
SOLID
  5
28D
100
AcDbEntity
  8
0
100
AcDbTrace
 62
5
  6
CONTINUOUS
 10
307.7028586194
 20
269.6327475729
 11
305.8510067676
 21
269.4845994248
 12
306.1473030639
 22
269.7808957211
 13
306.1473030639
 23
269.7808957211
  0
SOLID
  5
28E
100
AcDbEntity
  8
0
100
AcDbTrace
 62
5
  6
CONTINUOUS
 10
305.8510067676
 20
269.4845994248
 11
307.7028586194
 21
269.6327475729
 12
307.4065623231
 22
269.3364512766
 13
307.4065623231
 23
269.3364512766
  0
SOLID
  5
28F
100
AcDbEntity
  8
0
100
AcDbTrace
 62
5
  6
CONTINUOUS
 10
307.4065623231
 20
269.3364512766
 11
307.1843401009
 21
269.1142290544
 12
305.4065623231
 22
268.8179371379
 13
305.4065623231
 23
268.8179371379
  0
SOLID
  5
290
100
AcDbEntity
  8
0
100
AcDbTrace
 62
5
  6
CONTINUOUS
 10
307.4065623231
 20
269.3364512766
 11
305.4065623231
 21
268.8179371379
 12
305.8510067676
 22
269.4845994248
 13
305.8510067676
 23
269.4845994248
  0
SOLID
  5
291
100
AcDbEntity
  8
0
100
AcDbTrace
 62
5
  6
CONTINUOUS
 10
305.4065623231
 20
268.8179371379
 11
307.1843401009
 21
269.1142290544
 12
306.8880438046
 22
268.8179371379
 13
306.8880438046
 23
268.8179371379
  0
SOLID
  5
292
100
AcDbEntity
  8
0
100
AcDbTrace
 62
5
  6
CONTINUOUS
 10
306.6658215824
 20
268.5216371682
 11
311.5547104713
 21
268.5216371682
 12
305.1102660268
 22
268.0771920174
 13
305.1102660268
 23
268.0771920174
  0
SOLID
  5
293
100
AcDbEntity
  8
0
100
AcDbTrace
 62
5
  6
CONTINUOUS
 10
306.8880438046
 20
268.8179371379
 11
306.6658215824
 21
268.5216371682
 12
305.1102660268
 22
268.0771920174
 13
305.1102660268
 23
268.0771920174
  0
SOLID
  5
294
100
AcDbEntity
  8
0
100
AcDbTrace
 62
5
  6
CONTINUOUS
 10
306.8880438046
 20
268.8179371379
 11
305.1102660268
 21
268.0771920174
 12
305.4065623231
 22
268.8179371379
 13
305.4065623231
 23
268.8179371379
  0
SOLID
  5
295
100
AcDbEntity
  8
0
100
AcDbTrace
 62
5
  6
CONTINUOUS
 10
305.0361919527
 20
267.706821647
 11
305.1102660268
 21
268.0771920174
 12
311.5547104713
 22
268.5216371682
 13
311.5547104713
 23
268.5216371682
  0
SOLID
  5
296
100
AcDbEntity
  8
0
100
AcDbTrace
 62
5
  6
CONTINUOUS
 10
305.0361919527
 20
267.2623772025
 11
305.0361919527
 21
267.706821647
 12
311.5547104713
 22
268.5216371682
 13
311.5547104713
 23
268.5216371682
  0
SOLID
  5
297
100
AcDbEntity
  8
0
100
AcDbTrace
 62
5
  6
CONTINUOUS
 10
305.0361919527
 20
267.2623772025
 11
311.5547104713
 21
268.5216371682
 12
311.5547104713
 22
267.2623772025
 13
311.5547104713
 23
267.2623772025
  0
SOLID
  5
298
100
AcDbEntity
  8
0
100
AcDbTrace
 62
5
  6
CONTINUOUS
 10
315.6287845453
 20
277.1883008679
 11
316.1473030639
 21
277.2623772025
 12
316.5176734342
 22
277.1883008679
 13
316.5176734342
 23
277.1883008679
  0
SOLID
  5
299
100
AcDbEntity
  8
0
100
AcDbTrace
 62
5
  6
CONTINUOUS
 10
316.5176734342
 20
277.1883008679
 11
315.1843401009
 21
277.1142301847
 12
315.6287845453
 22
277.1883008679
 13
315.6287845453
 23
277.1883008679
  0
SOLID
  5
29A
100
AcDbEntity
  8
0
100
AcDbTrace
 62
5
  6
CONTINUOUS
 10
315.1843401009
 20
277.1142301847
 11
316.5176734342
 21
277.1883008679
 12
316.8880438046
 22
277.1142301847
 13
316.8880438046
 23
277.1142301847
  0
SOLID
  5
29B
100
AcDbEntity
  8
0
100
AcDbTrace
 62
5
  6
CONTINUOUS
 10
316.8880438046
 20
277.1142301847
 11
317.258414175
 21
277.0401549803
 12
314.7398956564
 22
276.8920057019
 13
314.7398956564
 23
276.8920057019
  0
SOLID
  5
29C
100
AcDbEntity
  8
0
100
AcDbTrace
 62
5
  6
CONTINUOUS
 10
316.8880438046
 20
277.1142301847
 11
314.7398956564
 21
276.8920057019
 12
315.1843401009
 22
277.1142301847
 13
315.1843401009
 23
277.1142301847
  0
SOLID
  5
29D
100
AcDbEntity
  8
0
100
AcDbTrace
 62
5
  6
CONTINUOUS
 10
314.7398956564
 20
276.8920057019
 11
317.258414175
 21
277.0401549803
 12
317.5547104713
 22
276.8920057019
 13
317.5547104713
 23
276.8920057019
  0
SOLID
  5
29E
100
AcDbEntity
  8
0
100
AcDbTrace
 62
5
  6
CONTINUOUS
 10
317.5547104713
 20
276.8920057019
 11
317.8510067676
 21
276.743858684
 12
314.3695252861
 22
276.66978461
 13
314.3695252861
 23
276.66978461
  0
SOLID
  5
29F
100
AcDbEntity
  8
0
100
AcDbTrace
 62
5
  6
CONTINUOUS
 10
317.5547104713
 20
276.8920057019
 11
314.3695252861
 21
276.66978461
 12
314.7398956564
 22
276.8920057019
 13
314.7398956564
 23
276.8920057019
  0
SOLID
  5
2A0
100
AcDbEntity
  8
0
100
AcDbTrace
 62
5
  6
CONTINUOUS
 10
314.3695252861
 20
276.66978461
 11
317.8510067676
 21
276.743858684
 12
318.1473030639
 22
276.5216364618
 13
318.1473030639
 23
276.5216364618
  0
SOLID
  5
2A1
100
AcDbEntity
  8
0
100
AcDbTrace
 62
5
  6
CONTINUOUS
 10
318.1473030639
 20
276.5216364618
 11
313.9991549157
 21
276.3734883137
 12
314.3695252861
 22
276.66978461
 13
314.3695252861
 23
276.66978461
  0
SOLID
  5
2A2
100
AcDbEntity
  8
0
100
AcDbTrace
 62
5
  6
CONTINUOUS
 10
316.1473030639
 20
276.2253435564
 11
313.9991549157
 21
276.3734883137
 12
318.1473030639
 22
276.5216364618
 13
318.1473030639
 23
276.5216364618
  0
SOLID
  5
2A3
100
AcDbEntity
  8
0
100
AcDbTrace
 62
5
  6
CONTINUOUS
 10
316.1473030639
 20
276.2253435564
 11
318.1473030639
 21
276.5216364618
 12
318.3695252861
 22
276.2253435564
 13
318.3695252861
 23
276.2253435564
  0
SOLID
  5
2A4
100
AcDbEntity
  8
0
100
AcDbTrace
 62
5
  6
CONTINUOUS
 10
318.3695252861
 20
276.2253435564
 11
316.5176734342
 21
276.1512621355
 12
316.1473030639
 22
276.2253435564
 13
316.1473030639
 23
276.2253435564
  0
SOLID
  5
2A5
100
AcDbEntity
  8
0
100
AcDbTrace
 62
5
  6
CONTINUOUS
 10
316.8880438046
 20
276.0031190736
 11
316.5176734342
 21
276.1512621355
 12
318.3695252861
 22
276.2253435564
 13
318.3695252861
 23
276.2253435564
  0
SOLID
  5
2A6
100
AcDbEntity
  8
0
100
AcDbTrace
 62
5
  6
CONTINUOUS
 10
316.8880438046
 20
276.0031190736
 11
318.3695252861
 21
276.2253435564
 12
318.5176734342
 22
276.0031190736
 13
318.5176734342
 23
276.0031190736
  0
SOLID
  5
2A7
100
AcDbEntity
  8
0
100
AcDbTrace
 62
5
  6
CONTINUOUS
 10
315.7028586194
 20
276.1512621355
 11
315.4065623231
 21
276.0031190736
 12
313.7028586194
 22
275.9290438692
 13
313.7028586194
 23
275.9290438692
  0
SOLID
  5
2A8
100
AcDbEntity
  8
0
100
AcDbTrace
 62
5
  6
CONTINUOUS
 10
316.1473030639
 20
276.2253435564
 11
315.7028586194
 21
276.1512621355
 12
313.7028586194
 22
275.9290438692
 13
313.7028586194
 23
275.9290438692
  0
SOLID
  5
2A9
100
AcDbEntity
  8
0
100
AcDbTrace
 62
5
  6
CONTINUOUS
 10
316.1473030639
 20
276.2253435564
 11
313.7028586194
 21
275.9290438692
 12
313.9991549157
 22
276.3734883137
 13
313.9991549157
 23
276.3734883137
  0
SOLID
  5
2AA
100
AcDbEntity
  8
0
100
AcDbTrace
 62
5
  6
CONTINUOUS
 10
313.7028586194
 20
275.9290438692
 11
315.4065623231
 21
276.0031190736
 12
315.0361919527
 22
275.7808957211
 13
315.0361919527
 23
275.7808957211
  0
SOLID
  5
2AB
100
AcDbEntity
  8
0
100
AcDbTrace
 62
5
  6
CONTINUOUS
 10
318.5176734342
 20
276.0031190736
 11
317.258414175
 21
275.706821647
 12
316.8880438046
 22
276.0031190736
 13
316.8880438046
 23
276.0031190736
  0
SOLID
  5
2AC
100
AcDbEntity
  8
0
100
AcDbTrace
 62
5
  6
CONTINUOUS
 10
317.258414175
 20
275.706821647
 11
318.5176734342
 21
276.0031190736
 12
318.7398956564
 22
275.6327475729
 13
318.7398956564
 23
275.6327475729
  0
SOLID
  5
2AD
100
AcDbEntity
  8
0
100
AcDbTrace
 62
5
  6
CONTINUOUS
 10
315.0361919527
 20
275.7808957211
 11
313.4806363972
 21
275.4845994248
 12
313.7028586194
 22
275.9290438692
 13
313.7028586194
 23
275.9290438692
  0
SOLID
  5
2AE
100
AcDbEntity
  8
0
100
AcDbTrace
 62
5
  6
CONTINUOUS
 10
313.4806363972
 20
275.4845994248
 11
315.0361919527
 21
275.7808957211
 12
314.8139697305
 22
275.4845994248
 13
314.8139697305
 23
275.4845994248
  0
SOLID
  5
2AF
100
AcDbEntity
  8
0
100
AcDbTrace
 62
5
  6
CONTINUOUS
 10
318.7398956564
 20
275.6327475729
 11
317.5547104713
 21
275.4105253507
 12
317.258414175
 22
275.706821647
 13
317.258414175
 23
275.706821647
  0
SOLID
  5
2B0
100
AcDbEntity
  8
0
100
AcDbTrace
 62
5
  6
CONTINUOUS
 10
317.5547104713
 20
275.4105253507
 11
318.7398956564
 21
275.6327475729
 12
318.8880438046
 22
275.3364512766
 13
318.8880438046
 23
275.3364512766
  0
SOLID
  5
2B1
100
AcDbEntity
  8
0
100
AcDbTrace
 62
5
  6
CONTINUOUS
 10
318.8880438046
 20
275.3364512766
 11
317.7028586194
 21
275.1883031285
 12
317.5547104713
 22
275.4105253507
 13
317.5547104713
 23
275.4105253507
  0
SOLID
  5
2B2
100
AcDbEntity
  8
0
100
AcDbTrace
 62
5
  6
CONTINUOUS
 10
314.8139697305
 20
275.4845994248
 11
314.6658215824
 21
275.2623772025
 12
313.258414175
 22
275.0401549803
 13
313.258414175
 23
275.0401549803
  0
SOLID
  5
2B3
100
AcDbEntity
  8
0
100
AcDbTrace
 62
5
  6
CONTINUOUS
 10
314.8139697305
 20
275.4845994248
 11
313.258414175
 21
275.0401549803
 12
313.4806363972
 22
275.4845994248
 13
313.4806363972
 23
275.4845994248
  0
SOLID
  5
2B4
100
AcDbEntity
  8
0
100
AcDbTrace
 62
5
  6
CONTINUOUS
 10
313.258414175
 20
275.0401549803
 11
314.6658215824
 21
275.2623772025
 12
314.5176734342
 22
274.9660809063
 13
314.5176734342
 23
274.9660809063
  0
SOLID
  5
2B5
100
AcDbEntity
  8
0
100
AcDbTrace
 62
5
  6
CONTINUOUS
 10
317.7769326935
 20
274.8920085276
 11
317.7028586194
 21
275.1883031285
 12
318.8880438046
 22
275.3364512766
 13
318.8880438046
 23
275.3364512766
  0
SOLID
  5
2B6
100
AcDbEntity
  8
0
100
AcDbTrace
 62
5
  6
CONTINUOUS
 10
317.7769326935
 20
274.8920085276
 11
318.8880438046
 21
275.3364512766
 12
319.0361919527
 22
274.8920085276
 13
319.0361919527
 23
274.8920085276
  0
SOLID
  5
2B7
100
AcDbEntity
  8
0
100
AcDbTrace
 62
5
  6
CONTINUOUS
 10
319.0361919527
 20
274.8920085276
 11
317.9250808416
 21
274.5216319407
 12
317.7769326935
 22
274.8920085276
 13
317.7769326935
 23
274.8920085276
  0
SOLID
  5
2B8
100
AcDbEntity
  8
0
100
AcDbTrace
 62
5
  6
CONTINUOUS
 10
317.9250808416
 20
274.5216319407
 11
319.0361919527
 21
274.8920085276
 12
319.1843401009
 22
274.5216319407
 13
319.1843401009
 23
274.5216319407
  0
SOLID
  5
2B9
100
AcDbEntity
  8
0
100
AcDbTrace
 62
5
  6
CONTINUOUS
 10
314.5176734342
 20
274.9660809063
 11
314.4435993601
 21
274.5957105359
 12
313.1102660268
 22
274.4475623877
 13
313.1102660268
 23
274.4475623877
  0
SOLID
  5
2BA
100
AcDbEntity
  8
0
100
AcDbTrace
 62
5
  6
CONTINUOUS
 10
314.5176734342
 20
274.9660809063
 11
313.1102660268
 21
274.4475623877
 12
313.258414175
 22
275.0401549803
 13
313.258414175
 23
275.0401549803
  0
SOLID
  5
2BB
100
AcDbEntity
  8
0
100
AcDbTrace
 62
5
  6
CONTINUOUS
 10
313.1102660268
 20
274.4475623877
 11
314.4435993601
 21
274.5957105359
 12
314.3695252861
 22
274.2253401655
 13
314.3695252861
 23
274.2253401655
  0
SOLID
  5
2BC
100
AcDbEntity
  8
0
100
AcDbTrace
 62
5
  6
CONTINUOUS
 10
319.1843401009
 20
274.5216319407
 11
317.9991549157
 21
274.1512660914
 12
317.9250808416
 22
274.5216319407
 13
317.9250808416
 23
274.5216319407
  0
SOLID
  5
2BD
100
AcDbEntity
  8
0
100
AcDbTrace
 62
5
  6
CONTINUOUS
 10
317.9991549157
 20
274.1512660914
 11
319.1843401009
 21
274.5216319407
 12
319.258414175
 22
274.0031179433
 13
319.258414175
 23
274.0031179433
  0
SOLID
  5
2BE
100
AcDbEntity
  8
0
100
AcDbTrace
 62
5
  6
CONTINUOUS
 10
314.3695252861
 20
274.2253401655
 11
313.0361919527
 21
273.7808979816
 12
313.1102660268
 22
274.4475623877
 13
313.1102660268
 23
274.4475623877
  0
SOLID
  5
2BF
100
AcDbEntity
  8
0
100
AcDbTrace
 62
5
  6
CONTINUOUS
 10
313.0361919527
 20
273.7808979816
 11
314.3695252861
 21
274.2253401655
 12
314.295451212
 22
273.7808979816
 13
314.295451212
 23
273.7808979816
  0
SOLID
  5
2C0
100
AcDbEntity
  8
0
100
AcDbTrace
 62
5
  6
CONTINUOUS
 10
319.258414175
 20
274.0031179433
 11
317.9991549157
 21
273.7808979816
 12
317.9991549157
 22
274.1512660914
 13
317.9991549157
 23
274.1512660914
  0
SOLID
  5
2C1
100
AcDbEntity
  8
0
100
AcDbTrace
 62
5
  6
CONTINUOUS
 10
317.9991549157
 20
273.7808979816
 11
319.258414175
 21
274.0031179433
 12
319.332488249
 22
273.4845994248
 13
319.332488249
 23
273.4845994248
  0
SOLID
  5
2C2
100
AcDbEntity
  8
0
100
AcDbTrace
 62
5
  6
CONTINUOUS
 10
319.332488249
 20
273.4845994248
 11
318.0732289898
 21
273.2623783328
 12
317.9991549157
 22
273.7808979816
 13
317.9991549157
 23
273.7808979816
  0
SOLID
  5
2C3
100
AcDbEntity
  8
0
100
AcDbTrace
 62
5
  6
CONTINUOUS
 10
314.295451212
 20
273.7808979816
 11
314.2213771379
 21
273.2623783328
 12
312.9621178787
 22
272.9660809063
 13
312.9621178787
 23
272.9660809063
  0
SOLID
  5
2C4
100
AcDbEntity
  8
0
100
AcDbTrace
 62
5
  6
CONTINUOUS
 10
314.295451212
 20
273.7808979816
 11
312.9621178787
 21
272.9660809063
 12
313.0361919527
 22
273.7808979816
 13
313.0361919527
 23
273.7808979816
  0
SOLID
  5
2C5
100
AcDbEntity
  8
0
100
AcDbTrace
 62
5
  6
CONTINUOUS
 10
318.0732289898
 20
273.2623783328
 11
319.332488249
 21
273.4845994248
 12
319.332488249
 22
272.8179327581
 13
319.332488249
 23
272.8179327581
  0
SOLID
  5
2C6
100
AcDbEntity
  8
0
100
AcDbTrace
 62
5
  6
CONTINUOUS
 10
312.9621178787
 20
272.9660809063
 11
314.2213771379
 21
273.2623783328
 12
314.2213771379
 22
272.743858684
 13
314.2213771379
 23
272.743858684
  0
SOLID
  5
2C7
100
AcDbEntity
  8
0
100
AcDbTrace
 62
5
  6
CONTINUOUS
 10
319.332488249
 20
272.8179327581
 11
318.0732289898
 21
272.743858684
 12
318.0732289898
 22
273.2623783328
 13
318.0732289898
 23
273.2623783328
  0
SOLID
  5
2C8
100
AcDbEntity
  8
0
100
AcDbTrace
 62
5
  6
CONTINUOUS
 10
314.2213771379
 20
272.743858684
 11
312.9621178787
 21
272.1512677869
 12
312.9621178787
 22
272.9660809063
 13
312.9621178787
 23
272.9660809063
  0
SOLID
  5
2C9
100
AcDbEntity
  8
0
100
AcDbTrace
 62
5
  6
CONTINUOUS
 10
312.9621178787
 20
272.1512677869
 11
314.2213771379
 21
272.743858684
 12
314.2213771379
 22
272.1512677869
 13
314.2213771379
 23
272.1512677869
  0
SOLID
  5
2CA
100
AcDbEntity
  8
0
100
AcDbTrace
 62
5
  6
CONTINUOUS
 10
318.1473030639
 20
272.1512677869
 11
318.0732289898
 21
272.743858684
 12
319.332488249
 22
272.8179327581
 13
319.332488249
 23
272.8179327581
  0
SOLID
  5
2CB
100
AcDbEntity
  8
0
100
AcDbTrace
 62
5
  6
CONTINUOUS
 10
318.1473030639
 20
272.1512677869
 11
319.332488249
 21
272.8179327581
 12
319.4065623231
 22
272.1512677869
 13
319.4065623231
 23
272.1512677869
  0
SOLID
  5
2CC
100
AcDbEntity
  8
0
100
AcDbTrace
 62
5
  6
CONTINUOUS
 10
319.4065623231
 20
272.1512677869
 11
318.0732289898
 21
271.5586768897
 12
318.1473030639
 22
272.1512677869
 13
318.1473030639
 23
272.1512677869
  0
SOLID
  5
2CD
100
AcDbEntity
  8
0
100
AcDbTrace
 62
5
  6
CONTINUOUS
 10
314.2213771379
 20
272.1512677869
 11
314.2213771379
 21
271.5586768897
 12
312.9621178787
 22
271.4845994248
 13
312.9621178787
 23
271.4845994248
  0
SOLID
  5
2CE
100
AcDbEntity
  8
0
100
AcDbTrace
 62
5
  6
CONTINUOUS
 10
314.2213771379
 20
272.1512677869
 11
312.9621178787
 21
271.4845994248
 12
312.9621178787
 22
272.1512677869
 13
312.9621178787
 23
272.1512677869
  0
SOLID
  5
2CF
100
AcDbEntity
  8
0
100
AcDbTrace
 62
5
  6
CONTINUOUS
 10
318.0732289898
 20
271.5586768897
 11
319.4065623231
 21
272.1512677869
 12
319.332488249
 22
271.3364512766
 13
319.332488249
 23
271.3364512766
  0
SOLID
  5
2D0
100
AcDbEntity
  8
0
100
AcDbTrace
 62
5
  6
CONTINUOUS
 10
312.9621178787
 20
271.4845994248
 11
314.2213771379
 21
271.5586768897
 12
314.2213771379
 22
271.0401572409
 13
314.2213771379
 23
271.0401572409
  0
SOLID
  5
2D1
100
AcDbEntity
  8
0
100
AcDbTrace
 62
5
  6
CONTINUOUS
 10
319.332488249
 20
271.3364512766
 11
318.0732289898
 21
271.0401572409
 12
318.0732289898
 22
271.5586768897
 13
318.0732289898
 23
271.5586768897
  0
SOLID
  5
2D2
100
AcDbEntity
  8
0
100
AcDbTrace
 62
5
  6
CONTINUOUS
 10
314.2213771379
 20
271.0401572409
 11
312.9621178787
 21
270.8179327581
 12
312.9621178787
 22
271.4845994248
 13
312.9621178787
 23
271.4845994248
  0
SOLID
  5
2D3
100
AcDbEntity
  8
0
100
AcDbTrace
 62
5
  6
CONTINUOUS
 10
318.0732289898
 20
271.0401572409
 11
319.332488249
 21
271.3364512766
 12
319.258414175
 22
270.5957105359
 13
319.258414175
 23
270.5957105359
  0
SOLID
  5
2D4
100
AcDbEntity
  8
0
100
AcDbTrace
 62
5
  6
CONTINUOUS
 10
312.9621178787
 20
270.8179327581
 11
314.2213771379
 21
271.0401572409
 12
314.295451212
 22
270.5216375921
 13
314.295451212
 23
270.5216375921
  0
SOLID
  5
2D5
100
AcDbEntity
  8
0
100
AcDbTrace
 62
5
  6
CONTINUOUS
 10
319.258414175
 20
270.5957105359
 11
317.9991549157
 21
270.5216375921
 12
318.0732289898
 22
271.0401572409
 13
318.0732289898
 23
271.0401572409
  0
SOLID
  5
2D6
100
AcDbEntity
  8
0
100
AcDbTrace
 62
5
  6
CONTINUOUS
 10
314.295451212
 20
270.5216375921
 11
313.0361919527
 21
270.2994142396
 12
312.9621178787
 22
270.8179327581
 13
312.9621178787
 23
270.8179327581
  0
SOLID
  5
2D7
100
AcDbEntity
  8
0
100
AcDbTrace
 62
5
  6
CONTINUOUS
 10
313.0361919527
 20
270.2994142396
 11
314.295451212
 21
270.5216375921
 12
314.295451212
 22
270.0771894742
 13
314.295451212
 23
270.0771894742
  0
SOLID
  5
2D8
100
AcDbEntity
  8
0
100
AcDbTrace
 62
5
  6
CONTINUOUS
 10
317.9991549157
 20
270.0771894742
 11
317.9991549157
 21
270.5216375921
 12
319.258414175
 22
270.5957105359
 13
319.258414175
 23
270.5957105359
  0
SOLID
  5
2D9
100
AcDbEntity
  8
0
100
AcDbTrace
 62
5
  6
CONTINUOUS
 10
317.9991549157
 20
270.0771894742
 11
319.258414175
 21
270.5957105359
 12
319.1843401009
 22
269.9290438692
 13
319.1843401009
 23
269.9290438692
  0
SOLID
  5
2DA
100
AcDbEntity
  8
0
100
AcDbTrace
 62
5
  6
CONTINUOUS
 10
314.295451212
 20
270.0771894742
 11
313.1843401009
 21
269.7068224947
 12
313.0361919527
 22
270.2994142396
 13
313.0361919527
 23
270.2994142396
  0
SOLID
  5
2DB
100
AcDbEntity
  8
0
100
AcDbTrace
 62
5
  6
CONTINUOUS
 10
313.1843401009
 20
269.7068224947
 11
314.295451212
 21
270.0771894742
 12
314.4435993601
 22
269.7068224947
 13
314.4435993601
 23
269.7068224947
  0
SOLID
  5
2DC
100
AcDbEntity
  8
0
100
AcDbTrace
 62
5
  6
CONTINUOUS
 10
319.1843401009
 20
269.9290438692
 11
317.9250808416
 21
269.7068224947
 12
317.9991549157
 22
270.0771894742
 13
317.9991549157
 23
270.0771894742
  0
SOLID
  5
2DD
100
AcDbEntity
  8
0
100
AcDbTrace
 62
5
  6
CONTINUOUS
 10
317.7769326935
 20
269.4105270461
 11
317.9250808416
 21
269.7068224947
 12
319.1843401009
 22
269.9290438692
 13
319.1843401009
 23
269.9290438692
  0
SOLID
  5
2DE
100
AcDbEntity
  8
0
100
AcDbTrace
 62
5
  6
CONTINUOUS
 10
317.7769326935
 20
269.4105270461
 11
319.1843401009
 21
269.9290438692
 12
319.0361919527
 22
269.3364512766
 13
319.0361919527
 23
269.3364512766
  0
SOLID
  5
2DF
100
AcDbEntity
  8
0
100
AcDbTrace
 62
5
  6
CONTINUOUS
 10
314.4435993601
 20
269.7068224947
 11
314.5176734342
 21
269.4105270461
 12
313.332488249
 22
269.2623772025
 13
313.332488249
 23
269.2623772025
  0
SOLID
  5
2E0
100
AcDbEntity
  8
0
100
AcDbTrace
 62
5
  6
CONTINUOUS
 10
314.4435993601
 20
269.7068224947
 11
313.332488249
 21
269.2623772025
 12
313.1843401009
 22
269.7068224947
 13
313.1843401009
 23
269.7068224947
  0
SOLID
  5
2E1
100
AcDbEntity
  8
0
100
AcDbTrace
 62
5
  6
CONTINUOUS
 10
313.332488249
 20
269.2623772025
 11
314.5176734342
 21
269.4105270461
 12
314.5917475083
 22
269.1142315975
 13
314.5917475083
 23
269.1142315975
  0
SOLID
  5
2E2
100
AcDbEntity
  8
0
100
AcDbTrace
 62
5
  6
CONTINUOUS
 10
319.0361919527
 20
269.3364512766
 11
317.7028586194
 21
269.1142315975
 12
317.7769326935
 22
269.4105270461
 13
317.7769326935
 23
269.4105270461
  0
SOLID
  5
2E3
100
AcDbEntity
  8
0
100
AcDbTrace
 62
5
  6
CONTINUOUS
 10
314.5917475083
 20
269.1142315975
 11
314.7398956564
 21
268.8920073973
 12
313.4806363972
 22
268.8179361489
 13
313.4806363972
 23
268.8179361489
  0
SOLID
  5
2E4
100
AcDbEntity
  8
0
100
AcDbTrace
 62
5
  6
CONTINUOUS
 10
314.5917475083
 20
269.1142315975
 11
313.4806363972
 21
268.8179361489
 12
313.332488249
 22
269.2623772025
 13
313.332488249
 23
269.2623772025
  0
SOLID
  5
2E5
100
AcDbEntity
  8
0
100
AcDbTrace
 62
5
  6
CONTINUOUS
 10
317.5547104713
 20
268.8920073973
 11
317.7028586194
 21
269.1142315975
 12
319.0361919527
 22
269.3364512766
 13
319.0361919527
 23
269.3364512766
  0
SOLID
  5
2E6
100
AcDbEntity
  8
0
100
AcDbTrace
 62
5
  6
CONTINUOUS
 10
317.5547104713
 20
268.8920073973
 11
319.0361919527
 21
269.3364512766
 12
318.8139697305
 22
268.8179361489
 13
318.8139697305
 23
268.8179361489
  0
SOLID
  5
2E7
100
AcDbEntity
  8
0
100
AcDbTrace
 62
5
  6
CONTINUOUS
 10
318.8139697305
 20
268.8179361489
 11
317.258414175
 21
268.5957105359
 12
317.5547104713
 22
268.8920073973
 13
317.5547104713
 23
268.8920073973
  0
SOLID
  5
2E8
100
AcDbEntity
  8
0
100
AcDbTrace
 62
5
  6
CONTINUOUS
 10
313.4806363972
 20
268.8179361489
 11
314.7398956564
 21
268.8920073973
 12
315.0361919527
 22
268.5216364618
 13
315.0361919527
 23
268.5216364618
  0
SOLID
  5
2E9
100
AcDbEntity
  8
0
100
AcDbTrace
 62
5
  6
CONTINUOUS
 10
315.0361919527
 20
268.5216364618
 11
313.7028586194
 21
268.4475623877
 12
313.4806363972
 22
268.8179361489
 13
313.4806363972
 23
268.8179361489
  0
SOLID
  5
2EA
100
AcDbEntity
  8
0
100
AcDbTrace
 62
5
  6
CONTINUOUS
 10
317.258414175
 20
268.5957105359
 11
318.8139697305
 21
268.8179361489
 12
318.5917475083
 22
268.3734883137
 13
318.5917475083
 23
268.3734883137
  0
SOLID
  5
2EB
100
AcDbEntity
  8
0
100
AcDbTrace
 62
5
  6
CONTINUOUS
 10
313.7028586194
 20
268.4475623877
 11
315.0361919527
 21
268.5216364618
 12
315.4065623231
 22
268.2994164295
 13
315.4065623231
 23
268.2994164295
  0
SOLID
  5
2EC
100
AcDbEntity
  8
0
100
AcDbTrace
 62
5
  6
CONTINUOUS
 10
318.5917475083
 20
268.3734883137
 11
316.8880438046
 21
268.2994164295
 12
317.258414175
 22
268.5957105359
 13
317.258414175
 23
268.5957105359
  0
SOLID
  5
2ED
100
AcDbEntity
  8
0
100
AcDbTrace
 62
5
  6
CONTINUOUS
 10
316.1473030639
 20
268.1512636189
 11
316.5176734342
 21
268.1512636189
 12
313.9250808416
 22
268.0771920174
 13
313.9250808416
 23
268.0771920174
  0
SOLID
  5
2EE
100
AcDbEntity
  8
0
100
AcDbTrace
 62
5
  6
CONTINUOUS
 10
315.7769326935
 20
268.1512636189
 11
316.1473030639
 21
268.1512636189
 12
313.9250808416
 22
268.0771920174
 13
313.9250808416
 23
268.0771920174
  0
SOLID
  5
2EF
100
AcDbEntity
  8
0
100
AcDbTrace
 62
5
  6
CONTINUOUS
 10
315.4065623231
 20
268.2994164295
 11
315.7769326935
 21
268.1512636189
 12
313.9250808416
 22
268.0771920174
 13
313.9250808416
 23
268.0771920174
  0
SOLID
  5
2F0
100
AcDbEntity
  8
0
100
AcDbTrace
 62
5
  6
CONTINUOUS
 10
315.4065623231
 20
268.2994164295
 11
313.9250808416
 21
268.0771920174
 12
313.7028586194
 22
268.4475623877
 13
313.7028586194
 23
268.4475623877
  0
SOLID
  5
2F1
100
AcDbEntity
  8
0
100
AcDbTrace
 62
5
  6
CONTINUOUS
 10
316.5176734342
 20
268.1512636189
 11
316.8880438046
 21
268.2994164295
 12
318.5917475083
 22
268.3734883137
 13
318.5917475083
 23
268.3734883137
  0
SOLID
  5
2F2
100
AcDbEntity
  8
0
100
AcDbTrace
 62
5
  6
CONTINUOUS
 10
318.295451212
 20
267.9290438692
 11
313.9250808416
 21
268.0771920174
 12
316.5176734342
 22
268.1512636189
 13
316.5176734342
 23
268.1512636189
  0
SOLID
  5
2F3
100
AcDbEntity
  8
0
100
AcDbTrace
 62
5
  6
CONTINUOUS
 10
316.5176734342
 20
268.1512636189
 11
318.5917475083
 21
268.3734883137
 12
318.295451212
 22
267.9290438692
 13
318.295451212
 23
267.9290438692
  0
SOLID
  5
2F4
100
AcDbEntity
  8
0
100
AcDbTrace
 62
5
  6
CONTINUOUS
 10
318.295451212
 20
267.9290438692
 11
314.1473030639
 21
267.8549697951
 12
313.9250808416
 22
268.0771920174
 13
313.9250808416
 23
268.0771920174
  0
SOLID
  5
2F5
100
AcDbEntity
  8
0
100
AcDbTrace
 62
5
  6
CONTINUOUS
 10
314.3695252861
 20
267.6327440055
 11
314.1473030639
 21
267.8549697951
 12
318.295451212
 22
267.9290438692
 13
318.295451212
 23
267.9290438692
  0
SOLID
  5
2F6
100
AcDbEntity
  8
0
100
AcDbTrace
 62
5
  6
CONTINUOUS
 10
314.3695252861
 20
267.6327440055
 11
318.295451212
 21
267.9290438692
 12
317.9250808416
 22
267.6327440055
 13
317.9250808416
 23
267.6327440055
  0
SOLID
  5
2F7
100
AcDbEntity
  8
0
100
AcDbTrace
 62
5
  6
CONTINUOUS
 10
317.9250808416
 20
267.6327440055
 11
314.5917475083
 21
267.4845994248
 12
314.3695252861
 22
267.6327440055
 13
314.3695252861
 23
267.6327440055
  0
SOLID
  5
2F8
100
AcDbEntity
  8
0
100
AcDbTrace
 62
5
  6
CONTINUOUS
 10
314.5917475083
 20
267.4845994248
 11
317.9250808416
 21
267.6327440055
 12
317.5547104713
 22
267.4105253507
 13
317.5547104713
 23
267.4105253507
  0
SOLID
  5
2F9
100
AcDbEntity
  8
0
100
AcDbTrace
 62
5
  6
CONTINUOUS
 10
317.5547104713
 20
267.4105253507
 11
314.8880438046
 21
267.3364512766
 12
314.5917475083
 22
267.4845994248
 13
314.5917475083
 23
267.4845994248
  0
SOLID
  5
2FA
100
AcDbEntity
  8
0
100
AcDbTrace
 62
5
  6
CONTINUOUS
 10
315.1843401009
 20
267.2623772025
 11
314.8880438046
 21
267.3364512766
 12
317.5547104713
 22
267.4105253507
 13
317.5547104713
 23
267.4105253507
  0
SOLID
  5
2FB
100
AcDbEntity
  8
0
100
AcDbTrace
 62
5
  6
CONTINUOUS
 10
315.1843401009
 20
267.2623772025
 11
317.5547104713
 21
267.4105253507
 12
317.1102660268
 22
267.2623772025
 13
317.1102660268
 23
267.2623772025
  0
SOLID
  5
2FC
100
AcDbEntity
  8
0
100
AcDbTrace
 62
5
  6
CONTINUOUS
 10
317.1102660268
 20
267.2623772025
 11
315.4806363972
 21
267.1883058703
 12
315.1843401009
 22
267.2623772025
 13
315.1843401009
 23
267.2623772025
  0
SOLID
  5
2FD
100
AcDbEntity
  8
0
100
AcDbTrace
 62
5
  6
CONTINUOUS
 10
315.7769326935
 20
267.1883058703
 11
315.4806363972
 21
267.1883058703
 12
317.1102660268
 22
267.2623772025
 13
317.1102660268
 23
267.2623772025
  0
SOLID
  5
2FE
100
AcDbEntity
  8
0
100
AcDbTrace
 62
5
  6
CONTINUOUS
 10
315.7769326935
 20
267.1883058703
 11
317.1102660268
 21
267.2623772025
 12
316.6658215824
 22
267.1883058703
 13
316.6658215824
 23
267.1883058703
  0
SOLID
  5
2FF
100
AcDbEntity
  8
0
100
AcDbTrace
 62
5
  6
CONTINUOUS
 10
316.6658215824
 20
267.1883058703
 11
316.1473030639
 21
267.1142290544
 12
315.7769326935
 22
267.1883058703
 13
315.7769326935
 23
267.1883058703
  0
SOLID
  5
300
100
AcDbEntity
  8
0
100
AcDbTrace
 62
5
  6
CONTINUOUS
 10
325.1843401009
 20
277.2623772025
 11
324.1473030639
 21
276.8920068322
 12
324.3695252861
 22
277.2623772025
 13
324.3695252861
 23
277.2623772025
  0
SOLID
  5
301
100
AcDbEntity
  8
0
100
AcDbTrace
 62
5
  6
CONTINUOUS
 10
323.9250808416
 20
275.0401549803
 11
321.9250808416
 21
274.9660809063
 12
322.4435993601
 22
275.2623772025
 13
322.4435993601
 23
275.2623772025
  0
SOLID
  5
302
100
AcDbEntity
  8
0
100
AcDbTrace
 62
5
  6
CONTINUOUS
 10
321.4806363972
 20
274.743858684
 11
321.9250808416
 21
274.9660809063
 12
323.9250808416
 22
275.0401549803
 13
323.9250808416
 23
275.0401549803
  0
SOLID
  5
303
100
AcDbEntity
  8
0
100
AcDbTrace
 62
5
  6
CONTINUOUS
 10
321.4806363972
 20
274.743858684
 11
323.9250808416
 21
275.0401549803
 12
323.4065623231
 22
274.5957105359
 13
323.4065623231
 23
274.5957105359
  0
SOLID
  5
304
100
AcDbEntity
  8
0
100
AcDbTrace
 62
5
  6
CONTINUOUS
 10
322.7398956564
 20
274.1512660914
 11
322.0732289898
 21
273.7808957211
 12
321.4806363972
 22
273.5586734988
 13
321.4806363972
 23
273.5586734988
  0
SOLID
  5
305
100
AcDbEntity
  8
0
100
AcDbTrace
 62
5
  6
CONTINUOUS
 10
323.4065623231
 20
274.5957105359
 11
322.7398956564
 21
274.1512660914
 12
321.4806363972
 22
273.5586734988
 13
321.4806363972
 23
273.5586734988
  0
SOLID
  5
306
100
AcDbEntity
  8
0
100
AcDbTrace
 62
5
  6
CONTINUOUS
 10
323.4065623231
 20
274.5957105359
 11
321.4806363972
 21
273.5586734988
 12
321.4806363972
 22
274.743858684
 13
321.4806363972
 23
274.743858684
  0
SOLID
  5
307
100
AcDbEntity
  8
0
100
AcDbTrace
 62
5
  6
CONTINUOUS
 10
323.9250808416
 20
276.5957105359
 11
324.1473030639
 21
276.8920068322
 12
325.1843401009
 22
277.2623772025
 13
325.1843401009
 23
277.2623772025
  0
SOLID
  5
308
100
AcDbEntity
  8
0
100
AcDbTrace
 62
5
  6
CONTINUOUS
 10
323.6287845453
 20
276.2253401655
 11
323.9250808416
 21
276.5957105359
 12
325.1843401009
 22
277.2623772025
 13
325.1843401009
 23
277.2623772025
  0
SOLID
  5
309
100
AcDbEntity
  8
0
100
AcDbTrace
 62
5
  6
CONTINUOUS
 10
323.258414175
 20
275.9290438692
 11
323.6287845453
 21
276.2253401655
 12
325.1843401009
 22
277.2623772025
 13
325.1843401009
 23
277.2623772025
  0
SOLID
  5
30A
100
AcDbEntity
  8
0
100
AcDbTrace
 62
5
  6
CONTINUOUS
 10
322.8139697305
 20
275.5586734988
 11
323.258414175
 21
275.9290438692
 12
325.1843401009
 22
277.2623772025
 13
325.1843401009
 23
277.2623772025
  0
SOLID
  5
30B
100
AcDbEntity
  8
0
100
AcDbTrace
 62
5
  6
CONTINUOUS
 10
322.4435993601
 20
275.2623772025
 11
322.8139697305
 21
275.5586734988
 12
325.1843401009
 22
277.2623772025
 13
325.1843401009
 23
277.2623772025
  0
SOLID
  5
30C
100
AcDbEntity
  8
0
100
AcDbTrace
 62
5
  6
CONTINUOUS
 10
323.9250808416
 20
275.0401549803
 11
322.4435993601
 21
275.2623772025
 12
325.1843401009
 22
277.2623772025
 13
325.1843401009
 23
277.2623772025
  0
SOLID
  5
30D
100
AcDbEntity
  8
0
100
AcDbTrace
 62
5
  6
CONTINUOUS
 10
323.9250808416
 20
267.2623772025
 11
323.9250808416
 21
275.0401549803
 12
325.1843401009
 22
277.2623772025
 13
325.1843401009
 23
277.2623772025
  0
SOLID
  5
30E
100
AcDbEntity
  8
0
100
AcDbTrace
 62
5
  6
CONTINUOUS
 10
323.9250808416
 20
267.2623772025
 11
325.1843401009
 21
277.2623772025
 12
325.1843401009
 22
267.2623772025
 13
325.1843401009
 23
267.2623772025
  0
SOLID
  5
30F
100
AcDbEntity
  8
0
100
AcDbTrace
 62
5
  6
CONTINUOUS
 10
331.9250808416
 20
271.4105253507
 11
328.0732289898
 21
270.2253401655
 12
328.0732289898
 22
271.4105253507
 13
328.0732289898
 23
271.4105253507
  0
SOLID
  5
310
100
AcDbEntity
  8
0
100
AcDbTrace
 62
5
  6
CONTINUOUS
 10
328.0732289898
 20
270.2253401655
 11
331.9250808416
 21
271.4105253507
 12
331.9250808416
 22
270.2253401655
 13
331.9250808416
 23
270.2253401655
  0
SOLID
  5
311
100
AcDbEntity
  8
0
100
AcDbTrace
 62
5
  6
CONTINUOUS
 10
337.4806363972
 20
277.2623772025
 11
336.4435993601
 21
276.8920068322
 12
336.6658215824
 22
277.2623772025
 13
336.6658215824
 23
277.2623772025
  0
SOLID
  5
312
100
AcDbEntity
  8
0
100
AcDbTrace
 62
5
  6
CONTINUOUS
 10
336.2213771379
 20
275.0401549803
 11
334.2213771379
 21
274.9660809063
 12
334.7398956564
 22
275.2623772025
 13
334.7398956564
 23
275.2623772025
  0
SOLID
  5
313
100
AcDbEntity
  8
0
100
AcDbTrace
 62
5
  6
CONTINUOUS
 10
333.7769326935
 20
274.743858684
 11
334.2213771379
 21
274.9660809063
 12
336.2213771379
 22
275.0401549803
 13
336.2213771379
 23
275.0401549803
  0
SOLID
  5
314
100
AcDbEntity
  8
0
100
AcDbTrace
 62
5
  6
CONTINUOUS
 10
333.7769326935
 20
274.743858684
 11
336.2213771379
 21
275.0401549803
 12
335.7028586194
 22
274.5957105359
 13
335.7028586194
 23
274.5957105359
  0
SOLID
  5
315
100
AcDbEntity
  8
0
100
AcDbTrace
 62
5
  6
CONTINUOUS
 10
335.0361919527
 20
274.1512660914
 11
334.3695252861
 21
273.7808957211
 12
333.7769326935
 22
273.5586734988
 13
333.7769326935
 23
273.5586734988
  0
SOLID
  5
316
100
AcDbEntity
  8
0
100
AcDbTrace
 62
5
  6
CONTINUOUS
 10
335.7028586194
 20
274.5957105359
 11
335.0361919527
 21
274.1512660914
 12
333.7769326935
 22
273.5586734988
 13
333.7769326935
 23
273.5586734988
  0
SOLID
  5
317
100
AcDbEntity
  8
0
100
AcDbTrace
 62
5
  6
CONTINUOUS
 10
335.7028586194
 20
274.5957105359
 11
333.7769326935
 21
273.5586734988
 12
333.7769326935
 22
274.743858684
 13
333.7769326935
 23
274.743858684
  0
SOLID
  5
318
100
AcDbEntity
  8
0
100
AcDbTrace
 62
5
  6
CONTINUOUS
 10
336.2213771379
 20
276.5957105359
 11
336.4435993601
 21
276.8920068322
 12
337.4806363972
 22
277.2623772025
 13
337.4806363972
 23
277.2623772025
  0
SOLID
  5
319
100
AcDbEntity
  8
0
100
AcDbTrace
 62
5
  6
CONTINUOUS
 10
335.9250808416
 20
276.2253401655
 11
336.2213771379
 21
276.5957105359
 12
337.4806363972
 22
277.2623772025
 13
337.4806363972
 23
277.2623772025
  0
SOLID
  5
31A
100
AcDbEntity
  8
0
100
AcDbTrace
 62
5
  6
CONTINUOUS
 10
335.5547104713
 20
275.9290438692
 11
335.9250808416
 21
276.2253401655
 12
337.4806363972
 22
277.2623772025
 13
337.4806363972
 23
277.2623772025
  0
SOLID
  5
31B
100
AcDbEntity
  8
0
100
AcDbTrace
 62
5
  6
CONTINUOUS
 10
335.1102660268
 20
275.5586734988
 11
335.5547104713
 21
275.9290438692
 12
337.4806363972
 22
277.2623772025
 13
337.4806363972
 23
277.2623772025
  0
SOLID
  5
31C
100
AcDbEntity
  8
0
100
AcDbTrace
 62
5
  6
CONTINUOUS
 10
334.7398956564
 20
275.2623772025
 11
335.1102660268
 21
275.5586734988
 12
337.4806363972
 22
277.2623772025
 13
337.4806363972
 23
277.2623772025
  0
SOLID
  5
31D
100
AcDbEntity
  8
0
100
AcDbTrace
 62
5
  6
CONTINUOUS
 10
336.2213771379
 20
275.0401549803
 11
334.7398956564
 21
275.2623772025
 12
337.4806363972
 22
277.2623772025
 13
337.4806363972
 23
277.2623772025
  0
SOLID
  5
31E
100
AcDbEntity
  8
0
100
AcDbTrace
 62
5
  6
CONTINUOUS
 10
336.2213771379
 20
267.2623772025
 11
336.2213771379
 21
275.0401549803
 12
337.4806363972
 22
277.2623772025
 13
337.4806363972
 23
277.2623772025
  0
SOLID
  5
31F
100
AcDbEntity
  8
0
100
AcDbTrace
 62
5
  6
CONTINUOUS
 10
336.2213771379
 20
267.2623772025
 11
337.4806363972
 21
277.2623772025
 12
337.4806363972
 22
267.2623772025
 13
337.4806363972
 23
267.2623772025
  0
SOLID
  5
320
100
AcDbEntity
  8
0
100
AcDbTrace
 62
5
  6
CONTINUOUS
 10
343.7028586194
 20
277.1883008679
 11
344.0732289898
 21
277.2623772025
 12
344.6658215824
 22
277.1883008679
 13
344.6658215824
 23
277.1883008679
  0
SOLID
  5
321
100
AcDbEntity
  8
0
100
AcDbTrace
 62
5
  6
CONTINUOUS
 10
343.7028586194
 20
277.1883008679
 11
344.6658215824
 21
277.1883008679
 12
342.9621178787
 22
277.0401583712
 13
342.9621178787
 23
277.0401583712
  0
SOLID
  5
322
100
AcDbEntity
  8
0
100
AcDbTrace
 62
5
  6
CONTINUOUS
 10
343.7028586194
 20
277.1883008679
 11
342.9621178787
 21
277.0401583712
 12
343.332488249
 22
277.1883008679
 13
343.332488249
 23
277.1883008679
  0
SOLID
  5
323
100
AcDbEntity
  8
0
100
AcDbTrace
 62
5
  6
CONTINUOUS
 10
342.9621178787
 20
277.0401583712
 11
344.6658215824
 21
277.1883008679
 12
345.1843401009
 22
277.0401583712
 13
345.1843401009
 23
277.0401583712
  0
SOLID
  5
324
100
AcDbEntity
  8
0
100
AcDbTrace
 62
5
  6
CONTINUOUS
 10
345.1843401009
 20
277.0401583712
 11
342.6658215824
 21
276.9660809063
 12
342.9621178787
 22
277.0401583712
 13
342.9621178787
 23
277.0401583712
  0
SOLID
  5
325
100
AcDbEntity
  8
0
100
AcDbTrace
 62
5
  6
CONTINUOUS
 10
342.3695252861
 20
276.8179338884
 11
342.6658215824
 21
276.9660809063
 12
345.1843401009
 22
277.0401583712
 13
345.1843401009
 23
277.0401583712
  0
SOLID
  5
326
100
AcDbEntity
  8
0
100
AcDbTrace
 62
5
  6
CONTINUOUS
 10
342.3695252861
 20
276.8179338884
 11
345.1843401009
 21
277.0401583712
 12
345.6287845453
 22
276.8179338884
 13
345.6287845453
 23
276.8179338884
  0
SOLID
  5
327
100
AcDbEntity
  8
0
100
AcDbTrace
 62
5
  6
CONTINUOUS
 10
345.6287845453
 20
276.8179338884
 11
342.0732289898
 21
276.5957105359
 12
342.3695252861
 22
276.8179338884
 13
342.3695252861
 23
276.8179338884
  0
SOLID
  5
328
100
AcDbEntity
  8
0
100
AcDbTrace
 62
5
  6
CONTINUOUS
 10
342.0732289898
 20
276.5957105359
 11
345.6287845453
 21
276.8179338884
 12
345.9991549157
 22
276.5216364618
 13
345.9991549157
 23
276.5216364618
  0
SOLID
  5
329
100
AcDbEntity
  8
0
100
AcDbTrace
 62
5
  6
CONTINUOUS
 10
345.9991549157
 20
276.5216364618
 11
341.7769326935
 21
276.3734883137
 12
342.0732289898
 22
276.5957105359
 13
342.0732289898
 23
276.5957105359
  0
SOLID
  5
32A
100
AcDbEntity
  8
0
100
AcDbTrace
 62
5
  6
CONTINUOUS
 10
343.9991549157
 20
276.2253435564
 11
341.7769326935
 21
276.3734883137
 12
345.9991549157
 22
276.5216364618
 13
345.9991549157
 23
276.5216364618
  0
SOLID
  5
32B
100
AcDbEntity
  8
0
100
AcDbTrace
 62
5
  6
CONTINUOUS
 10
343.9991549157
 20
276.2253435564
 11
345.9991549157
 21
276.5216364618
 12
346.3695252861
 22
276.2253435564
 13
346.3695252861
 23
276.2253435564
  0
SOLID
  5
32C
100
AcDbEntity
  8
0
100
AcDbTrace
 62
5
  6
CONTINUOUS
 10
346.3695252861
 20
276.2253435564
 11
344.3695252861
 21
276.1512621355
 12
343.9991549157
 22
276.2253435564
 13
343.9991549157
 23
276.2253435564
  0
SOLID
  5
32D
100
AcDbEntity
  8
0
100
AcDbTrace
 62
5
  6
CONTINUOUS
 10
343.9991549157
 20
276.2253435564
 11
343.7028586194
 21
276.1512621355
 12
341.5547104713
 22
276.0771908871
 13
341.5547104713
 23
276.0771908871
  0
SOLID
  5
32E
100
AcDbEntity
  8
0
100
AcDbTrace
 62
5
  6
CONTINUOUS
 10
343.9991549157
 20
276.2253435564
 11
341.5547104713
 21
276.0771908871
 12
341.7769326935
 22
276.3734883137
 13
341.7769326935
 23
276.3734883137
  0
SOLID
  5
32F
100
AcDbEntity
  8
0
100
AcDbTrace
 62
5
  6
CONTINUOUS
 10
341.5547104713
 20
276.0771908871
 11
343.7028586194
 21
276.1512621355
 12
343.4806363972
 22
276.0771908871
 13
343.4806363972
 23
276.0771908871
  0
SOLID
  5
330
100
AcDbEntity
  8
0
100
AcDbTrace
 62
5
  6
CONTINUOUS
 10
344.6658215824
 20
276.0771908871
 11
344.3695252861
 21
276.1512621355
 12
346.3695252861
 22
276.2253435564
 13
346.3695252861
 23
276.2253435564
  0
SOLID
  5
331
100
AcDbEntity
  8
0
100
AcDbTrace
 62
5
  6
CONTINUOUS
 10
344.9621178787
 20
275.9290438692
 11
344.6658215824
 21
276.0771908871
 12
346.3695252861
 22
276.2253435564
 13
346.3695252861
 23
276.2253435564
  0
SOLID
  5
332
100
AcDbEntity
  8
0
100
AcDbTrace
 62
5
  6
CONTINUOUS
 10
344.9621178787
 20
275.9290438692
 11
346.3695252861
 21
276.2253435564
 12
346.5917475083
 22
275.7808957211
 13
346.5917475083
 23
275.7808957211
  0
SOLID
  5
333
100
AcDbEntity
  8
0
100
AcDbTrace
 62
5
  6
CONTINUOUS
 10
343.1843401009
 20
276.0031179433
 11
342.9621178787
 21
275.8549697951
 12
341.332488249
 22
275.7068239076
 13
341.332488249
 23
275.7068239076
  0
SOLID
  5
334
100
AcDbEntity
  8
0
100
AcDbTrace
 62
5
  6
CONTINUOUS
 10
343.4806363972
 20
276.0771908871
 11
343.1843401009
 21
276.0031179433
 12
341.332488249
 22
275.7068239076
 13
341.332488249
 23
275.7068239076
  0
SOLID
  5
335
100
AcDbEntity
  8
0
100
AcDbTrace
 62
5
  6
CONTINUOUS
 10
343.4806363972
 20
276.0771908871
 11
341.332488249
 21
275.7068239076
 12
341.5547104713
 22
276.0771908871
 13
341.5547104713
 23
276.0771908871
  0
SOLID
  5
336
100
AcDbEntity
  8
0
100
AcDbTrace
 62
5
  6
CONTINUOUS
 10
346.5917475083
 20
275.7808957211
 11
345.1843401009
 21
275.7068239076
 12
344.9621178787
 22
275.9290438692
 13
344.9621178787
 23
275.9290438692
  0
SOLID
  5
337
100
AcDbEntity
  8
0
100
AcDbTrace
 62
5
  6
CONTINUOUS
 10
341.332488249
 20
275.7068239076
 11
342.9621178787
 21
275.8549697951
 12
342.6658215824
 22
275.6327475729
 13
342.6658215824
 23
275.6327475729
  0
SOLID
  5
338
100
AcDbEntity
  8
0
100
AcDbTrace
 62
5
  6
CONTINUOUS
 10
342.6658215824
 20
275.6327475729
 11
341.1102660268
 21
275.3364467555
 12
341.332488249
 22
275.7068239076
 13
341.332488249
 23
275.7068239076
  0
SOLID
  5
339
100
AcDbEntity
  8
0
100
AcDbTrace
 62
5
  6
CONTINUOUS
 10
341.1102660268
 20
275.3364467555
 11
342.6658215824
 21
275.6327475729
 12
342.4435993601
 22
275.3364467555
 13
342.4435993601
 23
275.3364467555
  0
SOLID
  5
33A
100
AcDbEntity
  8
0
100
AcDbTrace
 62
5
  6
CONTINUOUS
 10
345.332488249
 20
275.4845994248
 11
345.1843401009
 21
275.7068239076
 12
346.5917475083
 22
275.7808957211
 13
346.5917475083
 23
275.7808957211
  0
SOLID
  5
33B
100
AcDbEntity
  8
0
100
AcDbTrace
 62
5
  6
CONTINUOUS
 10
345.4806363972
 20
275.2623755071
 11
345.332488249
 21
275.4845994248
 12
346.5917475083
 22
275.7808957211
 13
346.5917475083
 23
275.7808957211
  0
SOLID
  5
33C
100
AcDbEntity
  8
0
100
AcDbTrace
 62
5
  6
CONTINUOUS
 10
345.4806363972
 20
275.2623755071
 11
346.5917475083
 21
275.7808957211
 12
346.8139697305
 22
275.2623755071
 13
346.8139697305
 23
275.2623755071
  0
SOLID
  5
33D
100
AcDbEntity
  8
0
100
AcDbTrace
 62
5
  6
CONTINUOUS
 10
346.8139697305
 20
275.2623755071
 11
345.5547104713
 21
274.9660809063
 12
345.4806363972
 22
275.2623755071
 13
345.4806363972
 23
275.2623755071
  0
SOLID
  5
33E
100
AcDbEntity
  8
0
100
AcDbTrace
 62
5
  6
CONTINUOUS
 10
342.4435993601
 20
275.3364467555
 11
342.295451212
 21
275.0401549803
 12
340.8880438046
 22
274.8920068322
 13
340.8880438046
 23
274.8920068322
  0
SOLID
  5
33F
100
AcDbEntity
  8
0
100
AcDbTrace
 62
5
  6
CONTINUOUS
 10
342.4435993601
 20
275.3364467555
 11
340.8880438046
 21
274.8920068322
 12
341.1102660268
 22
275.3364467555
 13
341.1102660268
 23
275.3364467555
  0
SOLID
  5
340
100
AcDbEntity
  8
0
100
AcDbTrace
 62
5
  6
CONTINUOUS
 10
345.5547104713
 20
274.9660809063
 11
346.8139697305
 21
275.2623755071
 12
346.9621178787
 22
274.743858684
 13
346.9621178787
 23
274.743858684
  0
SOLID
  5
341
100
AcDbEntity
  8
0
100
AcDbTrace
 62
5
  6
CONTINUOUS
 10
340.8880438046
 20
274.8920068322
 11
342.295451212
 21
275.0401549803
 12
342.0732289898
 22
274.66978461
 13
342.0732289898
 23
274.66978461
  0
SOLID
  5
342
100
AcDbEntity
  8
0
100
AcDbTrace
 62
5
  6
CONTINUOUS
 10
346.9621178787
 20
274.743858684
 11
345.7028586194
 21
274.66978461
 12
345.5547104713
 22
274.9660809063
 13
345.5547104713
 23
274.9660809063
  0
SOLID
  5
343
100
AcDbEntity
  8
0
100
AcDbTrace
 62
5
  6
CONTINUOUS
 10
342.0732289898
 20
274.66978461
 11
340.7398956564
 21
274.3734883137
 12
340.8880438046
 22
274.8920068322
 13
340.8880438046
 23
274.8920068322
  0
SOLID
  5
344
100
AcDbEntity
  8
0
100
AcDbTrace
 62
5
  6
CONTINUOUS
 10
340.7398956564
 20
274.3734883137
 11
342.0732289898
 21
274.66978461
 12
341.9250808416
 22
274.2253401655
 13
341.9250808416
 23
274.2253401655
  0
SOLID
  5
345
100
AcDbEntity
  8
0
100
AcDbTrace
 62
5
  6
CONTINUOUS
 10
341.9250808416
 20
274.2253401655
 11
340.6658215824
 21
273.8549697951
 12
340.7398956564
 22
274.3734883137
 13
340.7398956564
 23
274.3734883137
  0
SOLID
  5
346
100
AcDbEntity
  8
0
100
AcDbTrace
 62
5
  6
CONTINUOUS
 10
340.6658215824
 20
273.8549697951
 11
341.9250808416
 21
274.2253401655
 12
341.8510067676
 22
273.6327453124
 13
341.8510067676
 23
273.6327453124
  0
SOLID
  5
347
100
AcDbEntity
  8
0
100
AcDbTrace
 62
5
  6
CONTINUOUS
 10
343.7769326935
 20
273.6327453124
 11
344.1473030639
 21
273.706821647
 12
344.7398956564
 22
273.6327453124
 13
344.7398956564
 23
273.6327453124
  0
SOLID
  5
348
100
AcDbEntity
  8
0
100
AcDbTrace
 62
5
  6
CONTINUOUS
 10
344.7398956564
 20
273.6327453124
 11
343.4806363972
 21
273.5586734988
 12
343.7769326935
 22
273.6327453124
 13
343.7769326935
 23
273.6327453124
  0
SOLID
  5
349
100
AcDbEntity
  8
0
100
AcDbTrace
 62
5
  6
CONTINUOUS
 10
343.1102660268
 20
273.4845994248
 11
343.4806363972
 21
273.5586734988
 12
344.7398956564
 22
273.6327453124
 13
344.7398956564
 23
273.6327453124
  0
SOLID
  5
34A
100
AcDbEntity
  8
0
100
AcDbTrace
 62
5
  6
CONTINUOUS
 10
343.1102660268
 20
273.4845994248
 11
344.7398956564
 21
273.6327453124
 12
345.258414175
 22
273.4105253507
 13
345.258414175
 23
273.4105253507
  0
SOLID
  5
34B
100
AcDbEntity
  8
0
100
AcDbTrace
 62
5
  6
CONTINUOUS
 10
345.258414175
 20
273.4105253507
 11
342.8139697305
 21
273.3364512766
 12
343.1102660268
 22
273.4845994248
 13
343.1102660268
 23
273.4845994248
  0
SOLID
  5
34C
100
AcDbEntity
  8
0
100
AcDbTrace
 62
5
  6
CONTINUOUS
 10
341.8510067676
 20
273.6327453124
 11
340.5176734342
 21
273.2623772025
 12
340.6658215824
 22
273.8549697951
 13
340.6658215824
 23
273.8549697951
  0
SOLID
  5
34D
100
AcDbEntity
  8
0
100
AcDbTrace
 62
5
  6
CONTINUOUS
 10
342.5176734342
 20
273.1883070845
 11
342.8139697305
 21
273.3364512766
 12
345.258414175
 22
273.4105253507
 13
345.258414175
 23
273.4105253507
  0
SOLID
  5
34E
100
AcDbEntity
  8
0
100
AcDbTrace
 62
5
  6
CONTINUOUS
 10
342.5176734342
 20
273.1883070845
 11
345.258414175
 21
273.4105253507
 12
345.7769326935
 22
273.1883070845
 13
345.7769326935
 23
273.1883070845
  0
SOLID
  5
34F
100
AcDbEntity
  8
0
100
AcDbTrace
 62
5
  6
CONTINUOUS
 10
340.5176734342
 20
273.2623772025
 11
341.8510067676
 21
273.6327453124
 12
341.7769326935
 22
273.0401549803
 13
341.7769326935
 23
273.0401549803
  0
SOLID
  5
350
100
AcDbEntity
  8
0
100
AcDbTrace
 62
5
  6
CONTINUOUS
 10
345.7769326935
 20
273.1883070845
 11
342.2213771379
 21
272.9660809063
 12
342.5176734342
 22
273.1883070845
 13
342.5176734342
 23
273.1883070845
  0
SOLID
  5
351
100
AcDbEntity
  8
0
100
AcDbTrace
 62
5
  6
CONTINUOUS
 10
342.2213771379
 20
272.9660809063
 11
345.7769326935
 21
273.1883070845
 12
346.2213771379
 22
272.743858684
 13
346.2213771379
 23
272.743858684
  0
SOLID
  5
352
100
AcDbEntity
  8
0
100
AcDbTrace
 62
5
  6
CONTINUOUS
 10
346.2213771379
 20
272.743858684
 11
341.9991549157
 21
272.66978461
 12
342.2213771379
 22
272.9660809063
 13
342.2213771379
 23
272.9660809063
  0
SOLID
  5
353
100
AcDbEntity
  8
0
100
AcDbTrace
 62
5
  6
CONTINUOUS
 10
341.7769326935
 20
273.0401549803
 11
340.5176734342
 21
272.5957105359
 12
340.5176734342
 22
273.2623772025
 13
340.5176734342
 23
273.2623772025
  0
SOLID
  5
354
100
AcDbEntity
  8
0
100
AcDbTrace
 62
5
  6
CONTINUOUS
 10
340.5176734342
 20
272.5957105359
 11
341.7769326935
 21
273.0401549803
 12
341.7769326935
 22
272.3734922696
 13
341.7769326935
 23
272.3734922696
  0
SOLID
  5
355
100
AcDbEntity
  8
0
100
AcDbTrace
 62
5
  6
CONTINUOUS
 10
343.8510067676
 20
272.5216364618
 11
343.4065623231
 21
272.447563518
 12
341.7769326935
 22
272.3734922696
 13
341.7769326935
 23
272.3734922696
  0
SOLID
  5
356
100
AcDbEntity
  8
0
100
AcDbTrace
 62
5
  6
CONTINUOUS
 10
343.8510067676
 20
272.5216364618
 11
341.7769326935
 21
272.3734922696
 12
341.9991549157
 22
272.66978461
 13
341.9991549157
 23
272.66978461
  0
SOLID
  5
357
100
AcDbEntity
  8
0
100
AcDbTrace
 62
5
  6
CONTINUOUS
 10
341.7769326935
 20
272.3734922696
 11
343.4065623231
 21
272.447563518
 12
343.0361919527
 22
272.3734922696
 13
343.0361919527
 23
272.3734922696
  0
SOLID
  5
358
100
AcDbEntity
  8
0
100
AcDbTrace
 62
5
  6
CONTINUOUS
 10
343.8510067676
 20
272.5216364618
 11
341.9991549157
 21
272.66978461
 12
346.2213771379
 22
272.743858684
 13
346.2213771379
 23
272.743858684
  0
SOLID
  5
359
100
AcDbEntity
  8
0
100
AcDbTrace
 62
5
  6
CONTINUOUS
 10
344.295451212
 20
272.447563518
 11
343.8510067676
 21
272.5216364618
 12
346.2213771379
 22
272.743858684
 13
346.2213771379
 23
272.743858684
  0
SOLID
  5
35A
100
AcDbEntity
  8
0
100
AcDbTrace
 62
5
  6
CONTINUOUS
 10
344.6658215824
 20
272.3734922696
 11
344.295451212
 21
272.447563518
 12
346.2213771379
 22
272.743858684
 13
346.2213771379
 23
272.743858684
  0
SOLID
  5
35B
100
AcDbEntity
  8
0
100
AcDbTrace
 62
5
  6
CONTINUOUS
 10
344.6658215824
 20
272.3734922696
 11
346.2213771379
 21
272.743858684
 12
346.5917475083
 22
272.2994142396
 13
346.5917475083
 23
272.2994142396
  0
SOLID
  5
35C
100
AcDbEntity
  8
0
100
AcDbTrace
 62
5
  6
CONTINUOUS
 10
346.5917475083
 20
272.2994142396
 11
344.9621178787
 21
272.1512677869
 12
344.6658215824
 22
272.3734922696
 13
344.6658215824
 23
272.3734922696
  0
SOLID
  5
35D
100
AcDbEntity
  8
0
100
AcDbTrace
 62
5
  6
CONTINUOUS
 10
343.0361919527
 20
272.3734922696
 11
342.7398956564
 21
272.1512677869
 12
340.5176734342
 22
271.9290435866
 13
340.5176734342
 23
271.9290435866
  0
SOLID
  5
35E
100
AcDbEntity
  8
0
100
AcDbTrace
 62
5
  6
CONTINUOUS
 10
341.7769326935
 20
272.3734922696
 11
343.0361919527
 21
272.3734922696
 12
340.5176734342
 22
271.9290435866
 13
340.5176734342
 23
271.9290435866
  0
SOLID
  5
35F
100
AcDbEntity
  8
0
100
AcDbTrace
 62
5
  6
CONTINUOUS
 10
341.7769326935
 20
272.3734922696
 11
340.5176734342
 21
271.9290435866
 12
340.5176734342
 22
272.5957105359
 13
340.5176734342
 23
272.5957105359
  0
SOLID
  5
360
100
AcDbEntity
  8
0
100
AcDbTrace
 62
5
  6
CONTINUOUS
 10
340.5176734342
 20
271.9290435866
 11
342.7398956564
 21
272.1512677869
 12
342.3695252861
 22
271.9290435866
 13
342.3695252861
 23
271.9290435866
  0
SOLID
  5
361
100
AcDbEntity
  8
0
100
AcDbTrace
 62
5
  6
CONTINUOUS
 10
345.258414175
 20
271.9290435866
 11
344.9621178787
 21
272.1512677869
 12
346.5917475083
 22
272.2994142396
 13
346.5917475083
 23
272.2994142396
  0
SOLID
  5
362
100
AcDbEntity
  8
0
100
AcDbTrace
 62
5
  6
CONTINUOUS
 10
345.258414175
 20
271.9290435866
 11
346.5917475083
 21
272.2994142396
 12
346.8880438046
 22
271.7808957211
 13
346.8880438046
 23
271.7808957211
  0
SOLID
  5
363
100
AcDbEntity
  8
0
100
AcDbTrace
 62
5
  6
CONTINUOUS
 10
346.8880438046
 20
271.7808957211
 11
345.4806363972
 21
271.6327481381
 12
345.258414175
 22
271.9290435866
 13
345.258414175
 23
271.9290435866
  0
SOLID
  5
364
100
AcDbEntity
  8
0
100
AcDbTrace
 62
5
  6
CONTINUOUS
 10
342.3695252861
 20
271.9290435866
 11
342.1473030639
 21
271.6327481381
 12
340.5176734342
 22
271.2623814411
 13
340.5176734342
 23
271.2623814411
  0
SOLID
  5
365
100
AcDbEntity
  8
0
100
AcDbTrace
 62
5
  6
CONTINUOUS
 10
342.3695252861
 20
271.9290435866
 11
340.5176734342
 21
271.2623814411
 12
340.5176734342
 22
271.9290435866
 13
340.5176734342
 23
271.9290435866
  0
SOLID
  5
366
100
AcDbEntity
  8
0
100
AcDbTrace
 62
5
  6
CONTINUOUS
 10
340.5176734342
 20
271.2623814411
 11
342.1473030639
 21
271.6327481381
 12
341.9991549157
 22
271.2623814411
 13
341.9991549157
 23
271.2623814411
  0
SOLID
  5
367
100
AcDbEntity
  8
0
100
AcDbTrace
 62
5
  6
CONTINUOUS
 10
345.7028586194
 20
271.2623814411
 11
345.4806363972
 21
271.6327481381
 12
346.8880438046
 22
271.7808957211
 13
346.8880438046
 23
271.7808957211
  0
SOLID
  5
368
100
AcDbEntity
  8
0
100
AcDbTrace
 62
5
  6
CONTINUOUS
 10
345.7028586194
 20
271.2623814411
 11
346.8880438046
 21
271.7808957211
 12
347.0361919527
 22
271.1142290544
 13
347.0361919527
 23
271.1142290544
  0
SOLID
  5
369
100
AcDbEntity
  8
0
100
AcDbTrace
 62
5
  6
CONTINUOUS
 10
347.0361919527
 20
271.1142290544
 11
345.7769326935
 21
270.8179327581
 12
345.7028586194
 22
271.2623814411
 13
345.7028586194
 23
271.2623814411
  0
SOLID
  5
36A
100
AcDbEntity
  8
0
100
AcDbTrace
 62
5
  6
CONTINUOUS
 10
341.9991549157
 20
271.2623814411
 11
341.8510067676
 21
270.8920068322
 12
340.5176734342
 22
270.66978461
 13
340.5176734342
 23
270.66978461
  0
SOLID
  5
36B
100
AcDbEntity
  8
0
100
AcDbTrace
 62
5
  6
CONTINUOUS
 10
341.9991549157
 20
271.2623814411
 11
340.5176734342
 21
270.66978461
 12
340.5176734342
 22
271.2623814411
 13
340.5176734342
 23
271.2623814411
  0
SOLID
  5
36C
100
AcDbEntity
  8
0
100
AcDbTrace
 62
5
  6
CONTINUOUS
 10
340.5176734342
 20
270.66978461
 11
341.8510067676
 21
270.8920068322
 12
341.8510067676
 22
270.4475663437
 13
341.8510067676
 23
270.4475663437
  0
SOLID
  5
36D
100
AcDbEntity
  8
0
100
AcDbTrace
 62
5
  6
CONTINUOUS
 10
345.7769326935
 20
270.8179327581
 11
347.0361919527
 21
271.1142290544
 12
347.1102660268
 22
270.4475663437
 13
347.1102660268
 23
270.4475663437
  0
SOLID
  5
36E
100
AcDbEntity
  8
0
100
AcDbTrace
 62
5
  6
CONTINUOUS
 10
347.1102660268
 20
270.4475663437
 11
345.8510067676
 21
270.3734883137
 12
345.7769326935
 22
270.8179327581
 13
345.7769326935
 23
270.8179327581
  0
SOLID
  5
36F
100
AcDbEntity
  8
0
100
AcDbTrace
 62
5
  6
CONTINUOUS
 10
341.8510067676
 20
270.4475663437
 11
340.5917475083
 21
270.1512708951
 12
340.5176734342
 22
270.66978461
 13
340.5176734342
 23
270.66978461
  0
SOLID
  5
370
100
AcDbEntity
  8
0
100
AcDbTrace
 62
5
  6
CONTINUOUS
 10
340.5917475083
 20
270.1512708951
 11
341.8510067676
 21
270.4475663437
 12
341.8510067676
 22
270.1512708951
 13
341.8510067676
 23
270.1512708951
  0
SOLID
  5
371
100
AcDbEntity
  8
0
100
AcDbTrace
 62
5
  6
CONTINUOUS
 10
345.8510067676
 20
270.3734883137
 11
347.1102660268
 21
270.4475663437
 12
347.0361919527
 22
270.0031179433
 13
347.0361919527
 23
270.0031179433
  0
SOLID
  5
372
100
AcDbEntity
  8
0
100
AcDbTrace
 62
5
  6
CONTINUOUS
 10
347.0361919527
 20
270.0031179433
 11
345.7769326935
 21
269.854965274
 12
345.8510067676
 22
270.3734883137
 13
345.8510067676
 23
270.3734883137
  0
SOLID
  5
373
100
AcDbEntity
  8
0
100
AcDbTrace
 62
5
  6
CONTINUOUS
 10
341.8510067676
 20
270.1512708951
 11
341.8510067676
 21
269.854965274
 12
340.7398956564
 22
269.706821647
 13
340.7398956564
 23
269.706821647
  0
SOLID
  5
374
100
AcDbEntity
  8
0
100
AcDbTrace
 62
5
  6
CONTINUOUS
 10
341.8510067676
 20
270.1512708951
 11
340.7398956564
 21
269.706821647
 12
340.5917475083
 22
270.1512708951
 13
340.5917475083
 23
270.1512708951
  0
SOLID
  5
375
100
AcDbEntity
  8
0
100
AcDbTrace
 62
5
  6
CONTINUOUS
 10
340.7398956564
 20
269.706821647
 11
341.8510067676
 21
269.854965274
 12
341.9991549157
 22
269.5586696841
 13
341.9991549157
 23
269.5586696841
  0
SOLID
  5
376
100
AcDbEntity
  8
0
100
AcDbTrace
 62
5
  6
CONTINUOUS
 10
345.7769326935
 20
269.854965274
 11
347.0361919527
 21
270.0031179433
 12
346.9621178787
 22
269.5586696841
 13
346.9621178787
 23
269.5586696841
  0
SOLID
  5
377
100
AcDbEntity
  8
0
100
AcDbTrace
 62
5
  6
CONTINUOUS
 10
346.9621178787
 20
269.5586696841
 11
345.7028586194
 21
269.4105253507
 12
345.7769326935
 22
269.854965274
 13
345.7769326935
 23
269.854965274
  0
SOLID
  5
378
100
AcDbEntity
  8
0
100
AcDbTrace
 62
5
  6
CONTINUOUS
 10
341.9991549157
 20
269.5586696841
 11
340.8880438046
 21
269.2623742356
 12
340.7398956564
 22
269.706821647
 13
340.7398956564
 23
269.706821647
  0
SOLID
  5
379
100
AcDbEntity
  8
0
100
AcDbTrace
 62
5
  6
CONTINUOUS
 10
340.8880438046
 20
269.2623742356
 11
341.9991549157
 21
269.5586696841
 12
342.0732289898
 22
269.2623742356
 13
342.0732289898
 23
269.2623742356
  0
SOLID
  5
37A
100
AcDbEntity
  8
0
100
AcDbTrace
 62
5
  6
CONTINUOUS
 10
345.7028586194
 20
269.4105253507
 11
346.9621178787
 21
269.5586696841
 12
346.8139697305
 22
269.1142290544
 13
346.8139697305
 23
269.1142290544
  0
SOLID
  5
37B
100
AcDbEntity
  8
0
100
AcDbTrace
 62
5
  6
CONTINUOUS
 10
346.8139697305
 20
269.1142290544
 11
345.4806363972
 21
269.0401549803
 12
345.7028586194
 22
269.4105253507
 13
345.7028586194
 23
269.4105253507
  0
SOLID
  5
37C
100
AcDbEntity
  8
0
100
AcDbTrace
 62
5
  6
CONTINUOUS
 10
342.0732289898
 20
269.2623742356
 11
342.2213771379
 21
268.9660809063
 12
341.0361919527
 22
268.8179327581
 13
341.0361919527
 23
268.8179327581
  0
SOLID
  5
37D
100
AcDbEntity
  8
0
100
AcDbTrace
 62
5
  6
CONTINUOUS
 10
342.0732289898
 20
269.2623742356
 11
341.0361919527
 21
268.8179327581
 12
340.8880438046
 22
269.2623742356
 13
340.8880438046
 23
269.2623742356
  0
SOLID
  5
37E
100
AcDbEntity
  8
0
100
AcDbTrace
 62
5
  6
CONTINUOUS
 10
341.0361919527
 20
268.8179327581
 11
342.2213771379
 21
268.9660809063
 12
342.4435993601
 22
268.7438545868
 13
342.4435993601
 23
268.7438545868
  0
SOLID
  5
37F
100
AcDbEntity
  8
0
100
AcDbTrace
 62
5
  6
CONTINUOUS
 10
345.258414175
 20
268.7438545868
 11
345.4806363972
 21
269.0401549803
 12
346.8139697305
 22
269.1142290544
 13
346.8139697305
 23
269.1142290544
  0
SOLID
  5
380
100
AcDbEntity
  8
0
100
AcDbTrace
 62
5
  6
CONTINUOUS
 10
345.258414175
 20
268.7438545868
 11
346.8139697305
 21
269.1142290544
 12
346.6658215824
 22
268.7438545868
 13
346.6658215824
 23
268.7438545868
  0
SOLID
  5
381
100
AcDbEntity
  8
0
100
AcDbTrace
 62
5
  6
CONTINUOUS
 10
342.4435993601
 20
268.7438545868
 11
342.5917475083
 21
268.5957105359
 12
341.258414175
 22
268.5216364618
 13
341.258414175
 23
268.5216364618
  0
SOLID
  5
382
100
AcDbEntity
  8
0
100
AcDbTrace
 62
5
  6
CONTINUOUS
 10
342.4435993601
 20
268.7438545868
 11
341.258414175
 21
268.5216364618
 12
341.0361919527
 22
268.8179327581
 13
341.0361919527
 23
268.8179327581
  0
SOLID
  5
383
100
AcDbEntity
  8
0
100
AcDbTrace
 62
5
  6
CONTINUOUS
 10
346.6658215824
 20
268.7438545868
 11
344.9621178787
 21
268.4475623877
 12
345.258414175
 22
268.7438545868
 13
345.258414175
 23
268.7438545868
  0
SOLID
  5
384
100
AcDbEntity
  8
0
100
AcDbTrace
 62
5
  6
CONTINUOUS
 10
341.258414175
 20
268.5216364618
 11
342.5917475083
 21
268.5957105359
 12
342.8139697305
 22
268.3734878192
 13
342.8139697305
 23
268.3734878192
  0
SOLID
  5
385
100
AcDbEntity
  8
0
100
AcDbTrace
 62
5
  6
CONTINUOUS
 10
344.9621178787
 20
268.4475623877
 11
346.6658215824
 21
268.7438545868
 12
346.4435993601
 22
268.3734878192
 13
346.4435993601
 23
268.3734878192
  0
SOLID
  5
386
100
AcDbEntity
  8
0
100
AcDbTrace
 62
5
  6
CONTINUOUS
 10
346.4435993601
 20
268.3734878192
 11
344.6658215824
 21
268.2994164295
 12
344.9621178787
 22
268.4475623877
 13
344.9621178787
 23
268.4475623877
  0
SOLID
  5
387
100
AcDbEntity
  8
0
100
AcDbTrace
 62
5
  6
CONTINUOUS
 10
342.8139697305
 20
268.3734878192
 11
343.1102660268
 21
268.2994164295
 12
341.4806363972
 22
268.2253401655
 13
341.4806363972
 23
268.2253401655
  0
SOLID
  5
388
100
AcDbEntity
  8
0
100
AcDbTrace
 62
5
  6
CONTINUOUS
 10
342.8139697305
 20
268.3734878192
 11
341.4806363972
 21
268.2253401655
 12
341.258414175
 22
268.5216364618
 13
341.258414175
 23
268.5216364618
  0
SOLID
  5
389
100
AcDbEntity
  8
0
100
AcDbTrace
 62
5
  6
CONTINUOUS
 10
341.4806363972
 20
268.2253401655
 11
343.1102660268
 21
268.2994164295
 12
343.332488249
 22
268.1512636189
 13
343.332488249
 23
268.1512636189
  0
SOLID
  5
38A
100
AcDbEntity
  8
0
100
AcDbTrace
 62
5
  6
CONTINUOUS
 10
344.295451212
 20
268.1512636189
 11
344.6658215824
 21
268.2994164295
 12
346.4435993601
 22
268.3734878192
 13
346.4435993601
 23
268.3734878192
  0
SOLID
  5
38B
100
AcDbEntity
  8
0
100
AcDbTrace
 62
5
  6
CONTINUOUS
 10
344.295451212
 20
268.1512636189
 11
346.4435993601
 21
268.3734878192
 12
346.2213771379
 22
268.0031179433
 13
346.2213771379
 23
268.0031179433
  0
SOLID
  5
38C
100
AcDbEntity
  8
0
100
AcDbTrace
 62
5
  6
CONTINUOUS
 10
344.295451212
 20
268.1512636189
 11
346.2213771379
 21
268.0031179433
 12
341.7028586194
 22
267.9290438692
 13
341.7028586194
 23
267.9290438692
  0
SOLID
  5
38D
100
AcDbEntity
  8
0
100
AcDbTrace
 62
5
  6
CONTINUOUS
 10
343.8510067676
 20
268.1512636189
 11
344.295451212
 21
268.1512636189
 12
341.7028586194
 22
267.9290438692
 13
341.7028586194
 23
267.9290438692
  0
SOLID
  5
38E
100
AcDbEntity
  8
0
100
AcDbTrace
 62
5
  6
CONTINUOUS
 10
343.6287845453
 20
268.1512636189
 11
343.8510067676
 21
268.1512636189
 12
341.7028586194
 22
267.9290438692
 13
341.7028586194
 23
267.9290438692
  0
SOLID
  5
38F
100
AcDbEntity
  8
0
100
AcDbTrace
 62
5
  6
CONTINUOUS
 10
343.332488249
 20
268.1512636189
 11
343.6287845453
 21
268.1512636189
 12
341.7028586194
 22
267.9290438692
 13
341.7028586194
 23
267.9290438692
  0
SOLID
  5
390
100
AcDbEntity
  8
0
100
AcDbTrace
 62
5
  6
CONTINUOUS
 10
343.332488249
 20
268.1512636189
 11
341.7028586194
 21
267.9290438692
 12
341.4806363972
 22
268.2253401655
 13
341.4806363972
 23
268.2253401655
  0
SOLID
  5
391
100
AcDbEntity
  8
0
100
AcDbTrace
 62
5
  6
CONTINUOUS
 10
341.9991549157
 20
267.706825497
 11
341.7028586194
 21
267.9290438692
 12
346.2213771379
 22
268.0031179433
 13
346.2213771379
 23
268.0031179433
  0
SOLID
  5
392
100
AcDbEntity
  8
0
100
AcDbTrace
 62
5
  6
CONTINUOUS
 10
341.9991549157
 20
267.706825497
 11
346.2213771379
 21
268.0031179433
 12
345.9250808416
 22
267.706825497
 13
345.9250808416
 23
267.706825497
  0
SOLID
  5
393
100
AcDbEntity
  8
0
100
AcDbTrace
 62
5
  6
CONTINUOUS
 10
345.9250808416
 20
267.706825497
 11
342.2213771379
 21
267.4846013498
 12
341.9991549157
 22
267.706825497
 13
341.9991549157
 23
267.706825497
  0
SOLID
  5
394
100
AcDbEntity
  8
0
100
AcDbTrace
 62
5
  6
CONTINUOUS
 10
342.2213771379
 20
267.4846013498
 11
345.9250808416
 21
267.706825497
 12
345.5547104713
 22
267.4846013498
 13
345.5547104713
 23
267.4846013498
  0
SOLID
  5
395
100
AcDbEntity
  8
0
100
AcDbTrace
 62
5
  6
CONTINUOUS
 10
345.5547104713
 20
267.4846013498
 11
342.5917475083
 21
267.3364485348
 12
342.2213771379
 22
267.4846013498
 13
342.2213771379
 23
267.4846013498
  0
SOLID
  5
396
100
AcDbEntity
  8
0
100
AcDbTrace
 62
5
  6
CONTINUOUS
 10
342.5917475083
 20
267.3364485348
 11
345.5547104713
 21
267.4846013498
 12
345.1843401009
 22
267.3364485348
 13
345.1843401009
 23
267.3364485348
  0
SOLID
  5
397
100
AcDbEntity
  8
0
100
AcDbTrace
 62
5
  6
CONTINUOUS
 10
345.1843401009
 20
267.3364485348
 11
342.8880438046
 21
267.2623772025
 12
342.5917475083
 22
267.3364485348
 13
342.5917475083
 23
267.3364485348
  0
SOLID
  5
398
100
AcDbEntity
  8
0
100
AcDbTrace
 62
5
  6
CONTINUOUS
 10
342.8880438046
 20
267.2623772025
 11
345.1843401009
 21
267.3364485348
 12
344.8139697305
 22
267.2623772025
 13
344.8139697305
 23
267.2623772025
  0
SOLID
  5
399
100
AcDbEntity
  8
0
100
AcDbTrace
 62
5
  6
CONTINUOUS
 10
344.8139697305
 20
267.2623772025
 11
343.1843401009
 21
267.1883058703
 12
342.8880438046
 22
267.2623772025
 13
342.8880438046
 23
267.2623772025
  0
SOLID
  5
39A
100
AcDbEntity
  8
0
100
AcDbTrace
 62
5
  6
CONTINUOUS
 10
343.5547104713
 20
267.1883058703
 11
343.1843401009
 21
267.1883058703
 12
344.8139697305
 22
267.2623772025
 13
344.8139697305
 23
267.2623772025
  0
SOLID
  5
39B
100
AcDbEntity
  8
0
100
AcDbTrace
 62
5
  6
CONTINUOUS
 10
343.5547104713
 20
267.1883058703
 11
344.8139697305
 21
267.2623772025
 12
344.3695252861
 22
267.1883058703
 13
344.3695252861
 23
267.1883058703
  0
SOLID
  5
39C
100
AcDbEntity
  8
0
100
AcDbTrace
 62
5
  6
CONTINUOUS
 10
344.3695252861
 20
267.1883058703
 11
343.9250808416
 21
267.1142290544
 12
343.5547104713
 22
267.1883058703
 13
343.5547104713
 23
267.1883058703
  0
SOLID
  5
39D
100
AcDbEntity
  8
0
100
AcDbTrace
 62
5
  6
CONTINUOUS
 10
351.0361919527
 20
277.1883008679
 11
351.5547104713
 21
277.2623772025
 12
351.9250808416
 22
277.1883008679
 13
351.9250808416
 23
277.1883008679
  0
SOLID
  5
39E
100
AcDbEntity
  8
0
100
AcDbTrace
 62
5
  6
CONTINUOUS
 10
351.9250808416
 20
277.1883008679
 11
350.5917475083
 21
277.1142301847
 12
351.0361919527
 22
277.1883008679
 13
351.0361919527
 23
277.1883008679
  0
SOLID
  5
39F
100
AcDbEntity
  8
0
100
AcDbTrace
 62
5
  6
CONTINUOUS
 10
350.5917475083
 20
277.1142301847
 11
351.9250808416
 21
277.1883008679
 12
352.295451212
 22
277.1142301847
 13
352.295451212
 23
277.1142301847
  0
SOLID
  5
3A0
100
AcDbEntity
  8
0
100
AcDbTrace
 62
5
  6
CONTINUOUS
 10
352.295451212
 20
277.1142301847
 11
352.6658215824
 21
277.0401549803
 12
350.1473030639
 22
276.8920057019
 13
350.1473030639
 23
276.8920057019
  0
SOLID
  5
3A1
100
AcDbEntity
  8
0
100
AcDbTrace
 62
5
  6
CONTINUOUS
 10
352.295451212
 20
277.1142301847
 11
350.1473030639
 21
276.8920057019
 12
350.5917475083
 22
277.1142301847
 13
350.5917475083
 23
277.1142301847
  0
SOLID
  5
3A2
100
AcDbEntity
  8
0
100
AcDbTrace
 62
5
  6
CONTINUOUS
 10
350.1473030639
 20
276.8920057019
 11
352.6658215824
 21
277.0401549803
 12
352.9621178787
 22
276.8920057019
 13
352.9621178787
 23
276.8920057019
  0
SOLID
  5
3A3
100
AcDbEntity
  8
0
100
AcDbTrace
 62
5
  6
CONTINUOUS
 10
352.9621178787
 20
276.8920057019
 11
353.258414175
 21
276.743858684
 12
349.7769326935
 22
276.66978461
 13
349.7769326935
 23
276.66978461
  0
SOLID
  5
3A4
100
AcDbEntity
  8
0
100
AcDbTrace
 62
5
  6
CONTINUOUS
 10
352.9621178787
 20
276.8920057019
 11
349.7769326935
 21
276.66978461
 12
350.1473030639
 22
276.8920057019
 13
350.1473030639
 23
276.8920057019
  0
SOLID
  5
3A5
100
AcDbEntity
  8
0
100
AcDbTrace
 62
5
  6
CONTINUOUS
 10
349.7769326935
 20
276.66978461
 11
353.258414175
 21
276.743858684
 12
353.5547104713
 22
276.5216364618
 13
353.5547104713
 23
276.5216364618
  0
SOLID
  5
3A6
100
AcDbEntity
  8
0
100
AcDbTrace
 62
5
  6
CONTINUOUS
 10
353.5547104713
 20
276.5216364618
 11
349.4065623231
 21
276.3734883137
 12
349.7769326935
 22
276.66978461
 13
349.7769326935
 23
276.66978461
  0
SOLID
  5
3A7
100
AcDbEntity
  8
0
100
AcDbTrace
 62
5
  6
CONTINUOUS
 10
351.5547104713
 20
276.2253435564
 11
349.4065623231
 21
276.3734883137
 12
353.5547104713
 22
276.5216364618
 13
353.5547104713
 23
276.5216364618
  0
SOLID
  5
3A8
100
AcDbEntity
  8
0
100
AcDbTrace
 62
5
  6
CONTINUOUS
 10
351.5547104713
 20
276.2253435564
 11
353.5547104713
 21
276.5216364618
 12
353.7769326935
 22
276.2253435564
 13
353.7769326935
 23
276.2253435564
  0
SOLID
  5
3A9
100
AcDbEntity
  8
0
100
AcDbTrace
 62
5
  6
CONTINUOUS
 10
353.7769326935
 20
276.2253435564
 11
351.9250808416
 21
276.1512621355
 12
351.5547104713
 22
276.2253435564
 13
351.5547104713
 23
276.2253435564
  0
SOLID
  5
3AA
100
AcDbEntity
  8
0
100
AcDbTrace
 62
5
  6
CONTINUOUS
 10
352.295451212
 20
276.0031190736
 11
351.9250808416
 21
276.1512621355
 12
353.7769326935
 22
276.2253435564
 13
353.7769326935
 23
276.2253435564
  0
SOLID
  5
3AB
100
AcDbEntity
  8
0
100
AcDbTrace
 62
5
  6
CONTINUOUS
 10
352.295451212
 20
276.0031190736
 11
353.7769326935
 21
276.2253435564
 12
353.9250808416
 22
276.0031190736
 13
353.9250808416
 23
276.0031190736
  0
SOLID
  5
3AC
100
AcDbEntity
  8
0
100
AcDbTrace
 62
5
  6
CONTINUOUS
 10
351.1102660268
 20
276.1512621355
 11
350.8139697305
 21
276.0031190736
 12
349.1102660268
 22
275.9290438692
 13
349.1102660268
 23
275.9290438692
  0
SOLID
  5
3AD
100
AcDbEntity
  8
0
100
AcDbTrace
 62
5
  6
CONTINUOUS
 10
351.5547104713
 20
276.2253435564
 11
351.1102660268
 21
276.1512621355
 12
349.1102660268
 22
275.9290438692
 13
349.1102660268
 23
275.9290438692
  0
SOLID
  5
3AE
100
AcDbEntity
  8
0
100
AcDbTrace
 62
5
  6
CONTINUOUS
 10
351.5547104713
 20
276.2253435564
 11
349.1102660268
 21
275.9290438692
 12
349.4065623231
 22
276.3734883137
 13
349.4065623231
 23
276.3734883137
  0
SOLID
  5
3AF
100
AcDbEntity
  8
0
100
AcDbTrace
 62
5
  6
CONTINUOUS
 10
349.1102660268
 20
275.9290438692
 11
350.8139697305
 21
276.0031190736
 12
350.4435993601
 22
275.7808957211
 13
350.4435993601
 23
275.7808957211
  0
SOLID
  5
3B0
100
AcDbEntity
  8
0
100
AcDbTrace
 62
5
  6
CONTINUOUS
 10
353.9250808416
 20
276.0031190736
 11
352.6658215824
 21
275.706821647
 12
352.295451212
 22
276.0031190736
 13
352.295451212
 23
276.0031190736
  0
SOLID
  5
3B1
100
AcDbEntity
  8
0
100
AcDbTrace
 62
5
  6
CONTINUOUS
 10
352.6658215824
 20
275.706821647
 11
353.9250808416
 21
276.0031190736
 12
354.1473030639
 22
275.6327475729
 13
354.1473030639
 23
275.6327475729
  0
SOLID
  5
3B2
100
AcDbEntity
  8
0
100
AcDbTrace
 62
5
  6
CONTINUOUS
 10
350.4435993601
 20
275.7808957211
 11
348.8880438046
 21
275.4845994248
 12
349.1102660268
 22
275.9290438692
 13
349.1102660268
 23
275.9290438692
  0
SOLID
  5
3B3
100
AcDbEntity
  8
0
100
AcDbTrace
 62
5
  6
CONTINUOUS
 10
348.8880438046
 20
275.4845994248
 11
350.4435993601
 21
275.7808957211
 12
350.2213771379
 22
275.4845994248
 13
350.2213771379
 23
275.4845994248
  0
SOLID
  5
3B4
100
AcDbEntity
  8
0
100
AcDbTrace
 62
5
  6
CONTINUOUS
 10
354.1473030639
 20
275.6327475729
 11
352.9621178787
 21
275.4105253507
 12
352.6658215824
 22
275.706821647
 13
352.6658215824
 23
275.706821647
  0
SOLID
  5
3B5
100
AcDbEntity
  8
0
100
AcDbTrace
 62
5
  6
CONTINUOUS
 10
352.9621178787
 20
275.4105253507
 11
354.1473030639
 21
275.6327475729
 12
354.295451212
 22
275.3364512766
 13
354.295451212
 23
275.3364512766
  0
SOLID
  5
3B6
100
AcDbEntity
  8
0
100
AcDbTrace
 62
5
  6
CONTINUOUS
 10
354.295451212
 20
275.3364512766
 11
353.1102660268
 21
275.1883031285
 12
352.9621178787
 22
275.4105253507
 13
352.9621178787
 23
275.4105253507
  0
SOLID
  5
3B7
100
AcDbEntity
  8
0
100
AcDbTrace
 62
5
  6
CONTINUOUS
 10
350.2213771379
 20
275.4845994248
 11
350.0732289898
 21
275.2623772025
 12
348.6658215824
 22
275.0401549803
 13
348.6658215824
 23
275.0401549803
  0
SOLID
  5
3B8
100
AcDbEntity
  8
0
100
AcDbTrace
 62
5
  6
CONTINUOUS
 10
350.2213771379
 20
275.4845994248
 11
348.6658215824
 21
275.0401549803
 12
348.8880438046
 22
275.4845994248
 13
348.8880438046
 23
275.4845994248
  0
SOLID
  5
3B9
100
AcDbEntity
  8
0
100
AcDbTrace
 62
5
  6
CONTINUOUS
 10
348.6658215824
 20
275.0401549803
 11
350.0732289898
 21
275.2623772025
 12
349.9250808416
 22
274.9660809063
 13
349.9250808416
 23
274.9660809063
  0
SOLID
  5
3BA
100
AcDbEntity
  8
0
100
AcDbTrace
 62
5
  6
CONTINUOUS
 10
353.1843401009
 20
274.8920085276
 11
353.1102660268
 21
275.1883031285
 12
354.295451212
 22
275.3364512766
 13
354.295451212
 23
275.3364512766
  0
SOLID
  5
3BB
100
AcDbEntity
  8
0
100
AcDbTrace
 62
5
  6
CONTINUOUS
 10
353.1843401009
 20
274.8920085276
 11
354.295451212
 21
275.3364512766
 12
354.4435993601
 22
274.8920085276
 13
354.4435993601
 23
274.8920085276
  0
SOLID
  5
3BC
100
AcDbEntity
  8
0
100
AcDbTrace
 62
5
  6
CONTINUOUS
 10
354.4435993601
 20
274.8920085276
 11
353.332488249
 21
274.5216319407
 12
353.1843401009
 22
274.8920085276
 13
353.1843401009
 23
274.8920085276
  0
SOLID
  5
3BD
100
AcDbEntity
  8
0
100
AcDbTrace
 62
5
  6
CONTINUOUS
 10
353.332488249
 20
274.5216319407
 11
354.4435993601
 21
274.8920085276
 12
354.5917475083
 22
274.5216319407
 13
354.5917475083
 23
274.5216319407
  0
SOLID
  5
3BE
100
AcDbEntity
  8
0
100
AcDbTrace
 62
5
  6
CONTINUOUS
 10
349.9250808416
 20
274.9660809063
 11
349.8510067676
 21
274.5957105359
 12
348.5176734342
 22
274.4475623877
 13
348.5176734342
 23
274.4475623877
  0
SOLID
  5
3BF
100
AcDbEntity
  8
0
100
AcDbTrace
 62
5
  6
CONTINUOUS
 10
349.9250808416
 20
274.9660809063
 11
348.5176734342
 21
274.4475623877
 12
348.6658215824
 22
275.0401549803
 13
348.6658215824
 23
275.0401549803
  0
SOLID
  5
3C0
100
AcDbEntity
  8
0
100
AcDbTrace
 62
5
  6
CONTINUOUS
 10
348.5176734342
 20
274.4475623877
 11
349.8510067676
 21
274.5957105359
 12
349.7769326935
 22
274.2253401655
 13
349.7769326935
 23
274.2253401655
  0
SOLID
  5
3C1
100
AcDbEntity
  8
0
100
AcDbTrace
 62
5
  6
CONTINUOUS
 10
354.5917475083
 20
274.5216319407
 11
353.4065623231
 21
274.1512660914
 12
353.332488249
 22
274.5216319407
 13
353.332488249
 23
274.5216319407
  0
SOLID
  5
3C2
100
AcDbEntity
  8
0
100
AcDbTrace
 62
5
  6
CONTINUOUS
 10
353.4065623231
 20
274.1512660914
 11
354.5917475083
 21
274.5216319407
 12
354.6658215824
 22
274.0031179433
 13
354.6658215824
 23
274.0031179433
  0
SOLID
  5
3C3
100
AcDbEntity
  8
0
100
AcDbTrace
 62
5
  6
CONTINUOUS
 10
349.7769326935
 20
274.2253401655
 11
348.4435993601
 21
273.7808979816
 12
348.5176734342
 22
274.4475623877
 13
348.5176734342
 23
274.4475623877
  0
SOLID
  5
3C4
100
AcDbEntity
  8
0
100
AcDbTrace
 62
5
  6
CONTINUOUS
 10
348.4435993601
 20
273.7808979816
 11
349.7769326935
 21
274.2253401655
 12
349.7028586194
 22
273.7808979816
 13
349.7028586194
 23
273.7808979816
  0
SOLID
  5
3C5
100
AcDbEntity
  8
0
100
AcDbTrace
 62
5
  6
CONTINUOUS
 10
354.6658215824
 20
274.0031179433
 11
353.4065623231
 21
273.7808979816
 12
353.4065623231
 22
274.1512660914
 13
353.4065623231
 23
274.1512660914
  0
SOLID
  5
3C6
100
AcDbEntity
  8
0
100
AcDbTrace
 62
5
  6
CONTINUOUS
 10
353.4065623231
 20
273.7808979816
 11
354.6658215824
 21
274.0031179433
 12
354.7398956564
 22
273.4845994248
 13
354.7398956564
 23
273.4845994248
  0
SOLID
  5
3C7
100
AcDbEntity
  8
0
100
AcDbTrace
 62
5
  6
CONTINUOUS
 10
354.7398956564
 20
273.4845994248
 11
353.4806363972
 21
273.2623783328
 12
353.4065623231
 22
273.7808979816
 13
353.4065623231
 23
273.7808979816
  0
SOLID
  5
3C8
100
AcDbEntity
  8
0
100
AcDbTrace
 62
5
  6
CONTINUOUS
 10
349.7028586194
 20
273.7808979816
 11
349.6287845453
 21
273.2623783328
 12
348.3695252861
 22
272.9660809063
 13
348.3695252861
 23
272.9660809063
  0
SOLID
  5
3C9
100
AcDbEntity
  8
0
100
AcDbTrace
 62
5
  6
CONTINUOUS
 10
349.7028586194
 20
273.7808979816
 11
348.3695252861
 21
272.9660809063
 12
348.4435993601
 22
273.7808979816
 13
348.4435993601
 23
273.7808979816
  0
SOLID
  5
3CA
100
AcDbEntity
  8
0
100
AcDbTrace
 62
5
  6
CONTINUOUS
 10
353.4806363972
 20
273.2623783328
 11
354.7398956564
 21
273.4845994248
 12
354.7398956564
 22
272.8179327581
 13
354.7398956564
 23
272.8179327581
  0
SOLID
  5
3CB
100
AcDbEntity
  8
0
100
AcDbTrace
 62
5
  6
CONTINUOUS
 10
348.3695252861
 20
272.9660809063
 11
349.6287845453
 21
273.2623783328
 12
349.6287845453
 22
272.743858684
 13
349.6287845453
 23
272.743858684
  0
SOLID
  5
3CC
100
AcDbEntity
  8
0
100
AcDbTrace
 62
5
  6
CONTINUOUS
 10
354.7398956564
 20
272.8179327581
 11
353.4806363972
 21
272.743858684
 12
353.4806363972
 22
273.2623783328
 13
353.4806363972
 23
273.2623783328
  0
SOLID
  5
3CD
100
AcDbEntity
  8
0
100
AcDbTrace
 62
5
  6
CONTINUOUS
 10
349.6287845453
 20
272.743858684
 11
348.3695252861
 21
272.1512677869
 12
348.3695252861
 22
272.9660809063
 13
348.3695252861
 23
272.9660809063
  0
SOLID
  5
3CE
100
AcDbEntity
  8
0
100
AcDbTrace
 62
5
  6
CONTINUOUS
 10
348.3695252861
 20
272.1512677869
 11
349.6287845453
 21
272.743858684
 12
349.6287845453
 22
272.1512677869
 13
349.6287845453
 23
272.1512677869
  0
SOLID
  5
3CF
100
AcDbEntity
  8
0
100
AcDbTrace
 62
5
  6
CONTINUOUS
 10
353.5547104713
 20
272.1512677869
 11
353.4806363972
 21
272.743858684
 12
354.7398956564
 22
272.8179327581
 13
354.7398956564
 23
272.8179327581
  0
SOLID
  5
3D0
100
AcDbEntity
  8
0
100
AcDbTrace
 62
5
  6
CONTINUOUS
 10
353.5547104713
 20
272.1512677869
 11
354.7398956564
 21
272.8179327581
 12
354.8139697305
 22
272.1512677869
 13
354.8139697305
 23
272.1512677869
  0
SOLID
  5
3D1
100
AcDbEntity
  8
0
100
AcDbTrace
 62
5
  6
CONTINUOUS
 10
354.8139697305
 20
272.1512677869
 11
353.4806363972
 21
271.5586768897
 12
353.5547104713
 22
272.1512677869
 13
353.5547104713
 23
272.1512677869
  0
SOLID
  5
3D2
100
AcDbEntity
  8
0
100
AcDbTrace
 62
5
  6
CONTINUOUS
 10
349.6287845453
 20
272.1512677869
 11
349.6287845453
 21
271.5586768897
 12
348.3695252861
 22
271.4845994248
 13
348.3695252861
 23
271.4845994248
  0
SOLID
  5
3D3
100
AcDbEntity
  8
0
100
AcDbTrace
 62
5
  6
CONTINUOUS
 10
349.6287845453
 20
272.1512677869
 11
348.3695252861
 21
271.4845994248
 12
348.3695252861
 22
272.1512677869
 13
348.3695252861
 23
272.1512677869
  0
SOLID
  5
3D4
100
AcDbEntity
  8
0
100
AcDbTrace
 62
5
  6
CONTINUOUS
 10
353.4806363972
 20
271.5586768897
 11
354.8139697305
 21
272.1512677869
 12
354.7398956564
 22
271.3364512766
 13
354.7398956564
 23
271.3364512766
  0
SOLID
  5
3D5
100
AcDbEntity
  8
0
100
AcDbTrace
 62
5
  6
CONTINUOUS
 10
348.3695252861
 20
271.4845994248
 11
349.6287845453
 21
271.5586768897
 12
349.6287845453
 22
271.0401572409
 13
349.6287845453
 23
271.0401572409
  0
SOLID
  5
3D6
100
AcDbEntity
  8
0
100
AcDbTrace
 62
5
  6
CONTINUOUS
 10
354.7398956564
 20
271.3364512766
 11
353.4806363972
 21
271.0401572409
 12
353.4806363972
 22
271.5586768897
 13
353.4806363972
 23
271.5586768897
  0
SOLID
  5
3D7
100
AcDbEntity
  8
0
100
AcDbTrace
 62
5
  6
CONTINUOUS
 10
349.6287845453
 20
271.0401572409
 11
348.3695252861
 21
270.8179327581
 12
348.3695252861
 22
271.4845994248
 13
348.3695252861
 23
271.4845994248
  0
SOLID
  5
3D8
100
AcDbEntity
  8
0
100
AcDbTrace
 62
5
  6
CONTINUOUS
 10
353.4806363972
 20
271.0401572409
 11
354.7398956564
 21
271.3364512766
 12
354.6658215824
 22
270.5957105359
 13
354.6658215824
 23
270.5957105359
  0
SOLID
  5
3D9
100
AcDbEntity
  8
0
100
AcDbTrace
 62
5
  6
CONTINUOUS
 10
348.3695252861
 20
270.8179327581
 11
349.6287845453
 21
271.0401572409
 12
349.7028586194
 22
270.5216375921
 13
349.7028586194
 23
270.5216375921
  0
SOLID
  5
3DA
100
AcDbEntity
  8
0
100
AcDbTrace
 62
5
  6
CONTINUOUS
 10
354.6658215824
 20
270.5957105359
 11
353.4065623231
 21
270.5216375921
 12
353.4806363972
 22
271.0401572409
 13
353.4806363972
 23
271.0401572409
  0
SOLID
  5
3DB
100
AcDbEntity
  8
0
100
AcDbTrace
 62
5
  6
CONTINUOUS
 10
349.7028586194
 20
270.5216375921
 11
348.4435993601
 21
270.2994142396
 12
348.3695252861
 22
270.8179327581
 13
348.3695252861
 23
270.8179327581
  0
SOLID
  5
3DC
100
AcDbEntity
  8
0
100
AcDbTrace
 62
5
  6
CONTINUOUS
 10
348.4435993601
 20
270.2994142396
 11
349.7028586194
 21
270.5216375921
 12
349.7028586194
 22
270.0771894742
 13
349.7028586194
 23
270.0771894742
  0
SOLID
  5
3DD
100
AcDbEntity
  8
0
100
AcDbTrace
 62
5
  6
CONTINUOUS
 10
353.4065623231
 20
270.0771894742
 11
353.4065623231
 21
270.5216375921
 12
354.6658215824
 22
270.5957105359
 13
354.6658215824
 23
270.5957105359
  0
SOLID
  5
3DE
100
AcDbEntity
  8
0
100
AcDbTrace
 62
5
  6
CONTINUOUS
 10
353.4065623231
 20
270.0771894742
 11
354.6658215824
 21
270.5957105359
 12
354.5917475083
 22
269.9290438692
 13
354.5917475083
 23
269.9290438692
  0
SOLID
  5
3DF
100
AcDbEntity
  8
0
100
AcDbTrace
 62
5
  6
CONTINUOUS
 10
349.7028586194
 20
270.0771894742
 11
348.5917475083
 21
269.7068224947
 12
348.4435993601
 22
270.2994142396
 13
348.4435993601
 23
270.2994142396
  0
SOLID
  5
3E0
100
AcDbEntity
  8
0
100
AcDbTrace
 62
5
  6
CONTINUOUS
 10
348.5917475083
 20
269.7068224947
 11
349.7028586194
 21
270.0771894742
 12
349.8510067676
 22
269.7068224947
 13
349.8510067676
 23
269.7068224947
  0
SOLID
  5
3E1
100
AcDbEntity
  8
0
100
AcDbTrace
 62
5
  6
CONTINUOUS
 10
354.5917475083
 20
269.9290438692
 11
353.332488249
 21
269.7068224947
 12
353.4065623231
 22
270.0771894742
 13
353.4065623231
 23
270.0771894742
  0
SOLID
  5
3E2
100
AcDbEntity
  8
0
100
AcDbTrace
 62
5
  6
CONTINUOUS
 10
353.1843401009
 20
269.4105270461
 11
353.332488249
 21
269.7068224947
 12
354.5917475083
 22
269.9290438692
 13
354.5917475083
 23
269.9290438692
  0
SOLID
  5
3E3
100
AcDbEntity
  8
0
100
AcDbTrace
 62
5
  6
CONTINUOUS
 10
353.1843401009
 20
269.4105270461
 11
354.5917475083
 21
269.9290438692
 12
354.4435993601
 22
269.3364512766
 13
354.4435993601
 23
269.3364512766
  0
SOLID
  5
3E4
100
AcDbEntity
  8
0
100
AcDbTrace
 62
5
  6
CONTINUOUS
 10
349.8510067676
 20
269.7068224947
 11
349.9250808416
 21
269.4105270461
 12
348.7398956564
 22
269.2623772025
 13
348.7398956564
 23
269.2623772025
  0
SOLID
  5
3E5
100
AcDbEntity
  8
0
100
AcDbTrace
 62
5
  6
CONTINUOUS
 10
349.8510067676
 20
269.7068224947
 11
348.7398956564
 21
269.2623772025
 12
348.5917475083
 22
269.7068224947
 13
348.5917475083
 23
269.7068224947
  0
SOLID
  5
3E6
100
AcDbEntity
  8
0
100
AcDbTrace
 62
5
  6
CONTINUOUS
 10
348.7398956564
 20
269.2623772025
 11
349.9250808416
 21
269.4105270461
 12
349.9991549157
 22
269.1142315975
 13
349.9991549157
 23
269.1142315975
  0
SOLID
  5
3E7
100
AcDbEntity
  8
0
100
AcDbTrace
 62
5
  6
CONTINUOUS
 10
354.4435993601
 20
269.3364512766
 11
353.1102660268
 21
269.1142315975
 12
353.1843401009
 22
269.4105270461
 13
353.1843401009
 23
269.4105270461
  0
SOLID
  5
3E8
100
AcDbEntity
  8
0
100
AcDbTrace
 62
5
  6
CONTINUOUS
 10
349.9991549157
 20
269.1142315975
 11
350.1473030639
 21
268.8920073973
 12
348.8880438046
 22
268.8179361489
 13
348.8880438046
 23
268.8179361489
  0
SOLID
  5
3E9
100
AcDbEntity
  8
0
100
AcDbTrace
 62
5
  6
CONTINUOUS
 10
349.9991549157
 20
269.1142315975
 11
348.8880438046
 21
268.8179361489
 12
348.7398956564
 22
269.2623772025
 13
348.7398956564
 23
269.2623772025
  0
SOLID
  5
3EA
100
AcDbEntity
  8
0
100
AcDbTrace
 62
5
  6
CONTINUOUS
 10
352.9621178787
 20
268.8920073973
 11
353.1102660268
 21
269.1142315975
 12
354.4435993601
 22
269.3364512766
 13
354.4435993601
 23
269.3364512766
  0
SOLID
  5
3EB
100
AcDbEntity
  8
0
100
AcDbTrace
 62
5
  6
CONTINUOUS
 10
352.9621178787
 20
268.8920073973
 11
354.4435993601
 21
269.3364512766
 12
354.2213771379
 22
268.8179361489
 13
354.2213771379
 23
268.8179361489
  0
SOLID
  5
3EC
100
AcDbEntity
  8
0
100
AcDbTrace
 62
5
  6
CONTINUOUS
 10
354.2213771379
 20
268.8179361489
 11
352.6658215824
 21
268.5957105359
 12
352.9621178787
 22
268.8920073973
 13
352.9621178787
 23
268.8920073973
  0
SOLID
  5
3ED
100
AcDbEntity
  8
0
100
AcDbTrace
 62
5
  6
CONTINUOUS
 10
348.8880438046
 20
268.8179361489
 11
350.1473030639
 21
268.8920073973
 12
350.4435993601
 22
268.5216364618
 13
350.4435993601
 23
268.5216364618
  0
SOLID
  5
3EE
100
AcDbEntity
  8
0
100
AcDbTrace
 62
5
  6
CONTINUOUS
 10
350.4435993601
 20
268.5216364618
 11
349.1102660268
 21
268.4475623877
 12
348.8880438046
 22
268.8179361489
 13
348.8880438046
 23
268.8179361489
  0
SOLID
  5
3EF
100
AcDbEntity
  8
0
100
AcDbTrace
 62
5
  6
CONTINUOUS
 10
352.6658215824
 20
268.5957105359
 11
354.2213771379
 21
268.8179361489
 12
353.9991549157
 22
268.3734883137
 13
353.9991549157
 23
268.3734883137
  0
SOLID
  5
3F0
100
AcDbEntity
  8
0
100
AcDbTrace
 62
5
  6
CONTINUOUS
 10
349.1102660268
 20
268.4475623877
 11
350.4435993601
 21
268.5216364618
 12
350.8139697305
 22
268.2994164295
 13
350.8139697305
 23
268.2994164295
  0
SOLID
  5
3F1
100
AcDbEntity
  8
0
100
AcDbTrace
 62
5
  6
CONTINUOUS
 10
353.9991549157
 20
268.3734883137
 11
352.295451212
 21
268.2994164295
 12
352.6658215824
 22
268.5957105359
 13
352.6658215824
 23
268.5957105359
  0
SOLID
  5
3F2
100
AcDbEntity
  8
0
100
AcDbTrace
 62
5
  6
CONTINUOUS
 10
351.5547104713
 20
268.1512636189
 11
351.9250808416
 21
268.1512636189
 12
349.332488249
 22
268.0771920174
 13
349.332488249
 23
268.0771920174
  0
SOLID
  5
3F3
100
AcDbEntity
  8
0
100
AcDbTrace
 62
5
  6
CONTINUOUS
 10
351.1843401009
 20
268.1512636189
 11
351.5547104713
 21
268.1512636189
 12
349.332488249
 22
268.0771920174
 13
349.332488249
 23
268.0771920174
  0
SOLID
  5
3F4
100
AcDbEntity
  8
0
100
AcDbTrace
 62
5
  6
CONTINUOUS
 10
350.8139697305
 20
268.2994164295
 11
351.1843401009
 21
268.1512636189
 12
349.332488249
 22
268.0771920174
 13
349.332488249
 23
268.0771920174
  0
SOLID
  5
3F5
100
AcDbEntity
  8
0
100
AcDbTrace
 62
5
  6
CONTINUOUS
 10
350.8139697305
 20
268.2994164295
 11
349.332488249
 21
268.0771920174
 12
349.1102660268
 22
268.4475623877
 13
349.1102660268
 23
268.4475623877
  0
SOLID
  5
3F6
100
AcDbEntity
  8
0
100
AcDbTrace
 62
5
  6
CONTINUOUS
 10
351.9250808416
 20
268.1512636189
 11
352.295451212
 21
268.2994164295
 12
353.9991549157
 22
268.3734883137
 13
353.9991549157
 23
268.3734883137
  0
SOLID
  5
3F7
100
AcDbEntity
  8
0
100
AcDbTrace
 62
5
  6
CONTINUOUS
 10
353.7028586194
 20
267.9290438692
 11
349.332488249
 21
268.0771920174
 12
351.9250808416
 22
268.1512636189
 13
351.9250808416
 23
268.1512636189
  0
SOLID
  5
3F8
100
AcDbEntity
  8
0
100
AcDbTrace
 62
5
  6
CONTINUOUS
 10
351.9250808416
 20
268.1512636189
 11
353.9991549157
 21
268.3734883137
 12
353.7028586194
 22
267.9290438692
 13
353.7028586194
 23
267.9290438692
  0
SOLID
  5
3F9
100
AcDbEntity
  8
0
100
AcDbTrace
 62
5
  6
CONTINUOUS
 10
353.7028586194
 20
267.9290438692
 11
349.5547104713
 21
267.8549697951
 12
349.332488249
 22
268.0771920174
 13
349.332488249
 23
268.0771920174
  0
SOLID
  5
3FA
100
AcDbEntity
  8
0
100
AcDbTrace
 62
5
  6
CONTINUOUS
 10
349.7769326935
 20
267.6327440055
 11
349.5547104713
 21
267.8549697951
 12
353.7028586194
 22
267.9290438692
 13
353.7028586194
 23
267.9290438692
  0
SOLID
  5
3FB
100
AcDbEntity
  8
0
100
AcDbTrace
 62
5
  6
CONTINUOUS
 10
349.7769326935
 20
267.6327440055
 11
353.7028586194
 21
267.9290438692
 12
353.332488249
 22
267.6327440055
 13
353.332488249
 23
267.6327440055
  0
SOLID
  5
3FC
100
AcDbEntity
  8
0
100
AcDbTrace
 62
5
  6
CONTINUOUS
 10
353.332488249
 20
267.6327440055
 11
349.9991549157
 21
267.4845994248
 12
349.7769326935
 22
267.6327440055
 13
349.7769326935
 23
267.6327440055
  0
SOLID
  5
3FD
100
AcDbEntity
  8
0
100
AcDbTrace
 62
5
  6
CONTINUOUS
 10
349.9991549157
 20
267.4845994248
 11
353.332488249
 21
267.6327440055
 12
352.9621178787
 22
267.4105253507
 13
352.9621178787
 23
267.4105253507
  0
SOLID
  5
3FE
100
AcDbEntity
  8
0
100
AcDbTrace
 62
5
  6
CONTINUOUS
 10
352.9621178787
 20
267.4105253507
 11
350.295451212
 21
267.3364512766
 12
349.9991549157
 22
267.4845994248
 13
349.9991549157
 23
267.4845994248
  0
SOLID
  5
3FF
100
AcDbEntity
  8
0
100
AcDbTrace
 62
5
  6
CONTINUOUS
 10
350.5917475083
 20
267.2623772025
 11
350.295451212
 21
267.3364512766
 12
352.9621178787
 22
267.4105253507
 13
352.9621178787
 23
267.4105253507
  0
SOLID
  5
400
100
AcDbEntity
  8
0
100
AcDbTrace
 62
5
  6
CONTINUOUS
 10
350.5917475083
 20
267.2623772025
 11
352.9621178787
 21
267.4105253507
 12
352.5176734342
 22
267.2623772025
 13
352.5176734342
 23
267.2623772025
  0
SOLID
  5
401
100
AcDbEntity
  8
0
100
AcDbTrace
 62
5
  6
CONTINUOUS
 10
352.5176734342
 20
267.2623772025
 11
350.8880438046
 21
267.1883058703
 12
350.5917475083
 22
267.2623772025
 13
350.5917475083
 23
267.2623772025
  0
SOLID
  5
402
100
AcDbEntity
  8
0
100
AcDbTrace
 62
5
  6
CONTINUOUS
 10
351.1843401009
 20
267.1883058703
 11
350.8880438046
 21
267.1883058703
 12
352.5176734342
 22
267.2623772025
 13
352.5176734342
 23
267.2623772025
  0
SOLID
  5
403
100
AcDbEntity
  8
0
100
AcDbTrace
 62
5
  6
CONTINUOUS
 10
351.1843401009
 20
267.1883058703
 11
352.5176734342
 21
267.2623772025
 12
352.0732289898
 22
267.1883058703
 13
352.0732289898
 23
267.1883058703
  0
SOLID
  5
404
100
AcDbEntity
  8
0
100
AcDbTrace
 62
5
  6
CONTINUOUS
 10
352.0732289898
 20
267.1883058703
 11
351.5547104713
 21
267.1142290544
 12
351.1843401009
 22
267.1883058703
 13
351.1843401009
 23
267.1883058703
  0
SOLID
  5
405
100
AcDbEntity
  8
0
100
AcDbTrace
 62
5
  6
CONTINUOUS
 10
358.7398956564
 20
277.1883008679
 11
359.258414175
 21
277.2623772025
 12
359.6287845453
 22
277.1883008679
 13
359.6287845453
 23
277.1883008679
  0
SOLID
  5
406
100
AcDbEntity
  8
0
100
AcDbTrace
 62
5
  6
CONTINUOUS
 10
359.6287845453
 20
277.1883008679
 11
358.295451212
 21
277.1142301847
 12
358.7398956564
 22
277.1883008679
 13
358.7398956564
 23
277.1883008679
  0
SOLID
  5
407
100
AcDbEntity
  8
0
100
AcDbTrace
 62
5
  6
CONTINUOUS
 10
358.295451212
 20
277.1142301847
 11
359.6287845453
 21
277.1883008679
 12
359.9991549157
 22
277.1142301847
 13
359.9991549157
 23
277.1142301847
  0
SOLID
  5
408
100
AcDbEntity
  8
0
100
AcDbTrace
 62
5
  6
CONTINUOUS
 10
359.9991549157
 20
277.1142301847
 11
360.3695252861
 21
277.0401549803
 12
357.8510067676
 22
276.8920057019
 13
357.8510067676
 23
276.8920057019
  0
SOLID
  5
409
100
AcDbEntity
  8
0
100
AcDbTrace
 62
5
  6
CONTINUOUS
 10
359.9991549157
 20
277.1142301847
 11
357.8510067676
 21
276.8920057019
 12
358.295451212
 22
277.1142301847
 13
358.295451212
 23
277.1142301847
  0
SOLID
  5
40A
100
AcDbEntity
  8
0
100
AcDbTrace
 62
5
  6
CONTINUOUS
 10
357.8510067676
 20
276.8920057019
 11
360.3695252861
 21
277.0401549803
 12
360.6658215824
 22
276.8920057019
 13
360.6658215824
 23
276.8920057019
  0
SOLID
  5
40B
100
AcDbEntity
  8
0
100
AcDbTrace
 62
5
  6
CONTINUOUS
 10
360.6658215824
 20
276.8920057019
 11
360.9621178787
 21
276.743858684
 12
357.4806363972
 22
276.66978461
 13
357.4806363972
 23
276.66978461
  0
SOLID
  5
40C
100
AcDbEntity
  8
0
100
AcDbTrace
 62
5
  6
CONTINUOUS
 10
360.6658215824
 20
276.8920057019
 11
357.4806363972
 21
276.66978461
 12
357.8510067676
 22
276.8920057019
 13
357.8510067676
 23
276.8920057019
  0
SOLID
  5
40D
100
AcDbEntity
  8
0
100
AcDbTrace
 62
5
  6
CONTINUOUS
 10
357.4806363972
 20
276.66978461
 11
360.9621178787
 21
276.743858684
 12
361.258414175
 22
276.5216364618
 13
361.258414175
 23
276.5216364618
  0
SOLID
  5
40E
100
AcDbEntity
  8
0
100
AcDbTrace
 62
5
  6
CONTINUOUS
 10
361.258414175
 20
276.5216364618
 11
357.1102660268
 21
276.3734883137
 12
357.4806363972
 22
276.66978461
 13
357.4806363972
 23
276.66978461
  0
SOLID
  5
40F
100
AcDbEntity
  8
0
100
AcDbTrace
 62
5
  6
CONTINUOUS
 10
359.258414175
 20
276.2253435564
 11
357.1102660268
 21
276.3734883137
 12
361.258414175
 22
276.5216364618
 13
361.258414175
 23
276.5216364618
  0
SOLID
  5
410
100
AcDbEntity
  8
0
100
AcDbTrace
 62
5
  6
CONTINUOUS
 10
359.258414175
 20
276.2253435564
 11
361.258414175
 21
276.5216364618
 12
361.4806363972
 22
276.2253435564
 13
361.4806363972
 23
276.2253435564
  0
SOLID
  5
411
100
AcDbEntity
  8
0
100
AcDbTrace
 62
5
  6
CONTINUOUS
 10
361.4806363972
 20
276.2253435564
 11
359.6287845453
 21
276.1512621355
 12
359.258414175
 22
276.2253435564
 13
359.258414175
 23
276.2253435564
  0
SOLID
  5
412
100
AcDbEntity
  8
0
100
AcDbTrace
 62
5
  6
CONTINUOUS
 10
359.9991549157
 20
276.0031190736
 11
359.6287845453
 21
276.1512621355
 12
361.4806363972
 22
276.2253435564
 13
361.4806363972
 23
276.2253435564
  0
SOLID
  5
413
100
AcDbEntity
  8
0
100
AcDbTrace
 62
5
  6
CONTINUOUS
 10
359.9991549157
 20
276.0031190736
 11
361.4806363972
 21
276.2253435564
 12
361.6287845453
 22
276.0031190736
 13
361.6287845453
 23
276.0031190736
  0
SOLID
  5
414
100
AcDbEntity
  8
0
100
AcDbTrace
 62
5
  6
CONTINUOUS
 10
358.8139697305
 20
276.1512621355
 11
358.5176734342
 21
276.0031190736
 12
356.8139697305
 22
275.9290438692
 13
356.8139697305
 23
275.9290438692
  0
SOLID
  5
415
100
AcDbEntity
  8
0
100
AcDbTrace
 62
5
  6
CONTINUOUS
 10
359.258414175
 20
276.2253435564
 11
358.8139697305
 21
276.1512621355
 12
356.8139697305
 22
275.9290438692
 13
356.8139697305
 23
275.9290438692
  0
SOLID
  5
416
100
AcDbEntity
  8
0
100
AcDbTrace
 62
5
  6
CONTINUOUS
 10
359.258414175
 20
276.2253435564
 11
356.8139697305
 21
275.9290438692
 12
357.1102660268
 22
276.3734883137
 13
357.1102660268
 23
276.3734883137
  0
SOLID
  5
417
100
AcDbEntity
  8
0
100
AcDbTrace
 62
5
  6
CONTINUOUS
 10
356.8139697305
 20
275.9290438692
 11
358.5176734342
 21
276.0031190736
 12
358.1473030639
 22
275.7808957211
 13
358.1473030639
 23
275.7808957211
  0
SOLID
  5
418
100
AcDbEntity
  8
0
100
AcDbTrace
 62
5
  6
CONTINUOUS
 10
361.6287845453
 20
276.0031190736
 11
360.3695252861
 21
275.706821647
 12
359.9991549157
 22
276.0031190736
 13
359.9991549157
 23
276.0031190736
  0
SOLID
  5
419
100
AcDbEntity
  8
0
100
AcDbTrace
 62
5
  6
CONTINUOUS
 10
360.3695252861
 20
275.706821647
 11
361.6287845453
 21
276.0031190736
 12
361.8510067676
 22
275.6327475729
 13
361.8510067676
 23
275.6327475729
  0
SOLID
  5
41A
100
AcDbEntity
  8
0
100
AcDbTrace
 62
5
  6
CONTINUOUS
 10
358.1473030639
 20
275.7808957211
 11
356.5917475083
 21
275.4845994248
 12
356.8139697305
 22
275.9290438692
 13
356.8139697305
 23
275.9290438692
  0
SOLID
  5
41B
100
AcDbEntity
  8
0
100
AcDbTrace
 62
5
  6
CONTINUOUS
 10
356.5917475083
 20
275.4845994248
 11
358.1473030639
 21
275.7808957211
 12
357.9250808416
 22
275.4845994248
 13
357.9250808416
 23
275.4845994248
  0
SOLID
  5
41C
100
AcDbEntity
  8
0
100
AcDbTrace
 62
5
  6
CONTINUOUS
 10
361.8510067676
 20
275.6327475729
 11
360.6658215824
 21
275.4105253507
 12
360.3695252861
 22
275.706821647
 13
360.3695252861
 23
275.706821647
  0
SOLID
  5
41D
100
AcDbEntity
  8
0
100
AcDbTrace
 62
5
  6
CONTINUOUS
 10
360.6658215824
 20
275.4105253507
 11
361.8510067676
 21
275.6327475729
 12
361.9991549157
 22
275.3364512766
 13
361.9991549157
 23
275.3364512766
  0
SOLID
  5
41E
100
AcDbEntity
  8
0
100
AcDbTrace
 62
5
  6
CONTINUOUS
 10
361.9991549157
 20
275.3364512766
 11
360.8139697305
 21
275.1883031285
 12
360.6658215824
 22
275.4105253507
 13
360.6658215824
 23
275.4105253507
  0
SOLID
  5
41F
100
AcDbEntity
  8
0
100
AcDbTrace
 62
5
  6
CONTINUOUS
 10
357.9250808416
 20
275.4845994248
 11
357.7769326935
 21
275.2623772025
 12
356.3695252861
 22
275.0401549803
 13
356.3695252861
 23
275.0401549803
  0
SOLID
  5
420
100
AcDbEntity
  8
0
100
AcDbTrace
 62
5
  6
CONTINUOUS
 10
357.9250808416
 20
275.4845994248
 11
356.3695252861
 21
275.0401549803
 12
356.5917475083
 22
275.4845994248
 13
356.5917475083
 23
275.4845994248
  0
SOLID
  5
421
100
AcDbEntity
  8
0
100
AcDbTrace
 62
5
  6
CONTINUOUS
 10
356.3695252861
 20
275.0401549803
 11
357.7769326935
 21
275.2623772025
 12
357.6287845453
 22
274.9660809063
 13
357.6287845453
 23
274.9660809063
  0
SOLID
  5
422
100
AcDbEntity
  8
0
100
AcDbTrace
 62
5
  6
CONTINUOUS
 10
360.8880438046
 20
274.8920085276
 11
360.8139697305
 21
275.1883031285
 12
361.9991549157
 22
275.3364512766
 13
361.9991549157
 23
275.3364512766
  0
SOLID
  5
423
100
AcDbEntity
  8
0
100
AcDbTrace
 62
5
  6
CONTINUOUS
 10
360.8880438046
 20
274.8920085276
 11
361.9991549157
 21
275.3364512766
 12
362.1473030639
 22
274.8920085276
 13
362.1473030639
 23
274.8920085276
  0
SOLID
  5
424
100
AcDbEntity
  8
0
100
AcDbTrace
 62
5
  6
CONTINUOUS
 10
362.1473030639
 20
274.8920085276
 11
361.0361919527
 21
274.5216319407
 12
360.8880438046
 22
274.8920085276
 13
360.8880438046
 23
274.8920085276
  0
SOLID
  5
425
100
AcDbEntity
  8
0
100
AcDbTrace
 62
5
  6
CONTINUOUS
 10
361.0361919527
 20
274.5216319407
 11
362.1473030639
 21
274.8920085276
 12
362.295451212
 22
274.5216319407
 13
362.295451212
 23
274.5216319407
  0
SOLID
  5
426
100
AcDbEntity
  8
0
100
AcDbTrace
 62
5
  6
CONTINUOUS
 10
357.6287845453
 20
274.9660809063
 11
357.5547104713
 21
274.5957105359
 12
356.2213771379
 22
274.4475623877
 13
356.2213771379
 23
274.4475623877
  0
SOLID
  5
427
100
AcDbEntity
  8
0
100
AcDbTrace
 62
5
  6
CONTINUOUS
 10
357.6287845453
 20
274.9660809063
 11
356.2213771379
 21
274.4475623877
 12
356.3695252861
 22
275.0401549803
 13
356.3695252861
 23
275.0401549803
  0
SOLID
  5
428
100
AcDbEntity
  8
0
100
AcDbTrace
 62
5
  6
CONTINUOUS
 10
356.2213771379
 20
274.4475623877
 11
357.5547104713
 21
274.5957105359
 12
357.4806363972
 22
274.2253401655
 13
357.4806363972
 23
274.2253401655
  0
SOLID
  5
429
100
AcDbEntity
  8
0
100
AcDbTrace
 62
5
  6
CONTINUOUS
 10
362.295451212
 20
274.5216319407
 11
361.1102660268
 21
274.1512660914
 12
361.0361919527
 22
274.5216319407
 13
361.0361919527
 23
274.5216319407
  0
SOLID
  5
42A
100
AcDbEntity
  8
0
100
AcDbTrace
 62
5
  6
CONTINUOUS
 10
361.1102660268
 20
274.1512660914
 11
362.295451212
 21
274.5216319407
 12
362.3695252861
 22
274.0031179433
 13
362.3695252861
 23
274.0031179433
  0
SOLID
  5
42B
100
AcDbEntity
  8
0
100
AcDbTrace
 62
5
  6
CONTINUOUS
 10
357.4806363972
 20
274.2253401655
 11
356.1473030639
 21
273.7808979816
 12
356.2213771379
 22
274.4475623877
 13
356.2213771379
 23
274.4475623877
  0
SOLID
  5
42C
100
AcDbEntity
  8
0
100
AcDbTrace
 62
5
  6
CONTINUOUS
 10
356.1473030639
 20
273.7808979816
 11
357.4806363972
 21
274.2253401655
 12
357.4065623231
 22
273.7808979816
 13
357.4065623231
 23
273.7808979816
  0
SOLID
  5
42D
100
AcDbEntity
  8
0
100
AcDbTrace
 62
5
  6
CONTINUOUS
 10
362.3695252861
 20
274.0031179433
 11
361.1102660268
 21
273.7808979816
 12
361.1102660268
 22
274.1512660914
 13
361.1102660268
 23
274.1512660914
  0
SOLID
  5
42E
100
AcDbEntity
  8
0
100
AcDbTrace
 62
5
  6
CONTINUOUS
 10
361.1102660268
 20
273.7808979816
 11
362.3695252861
 21
274.0031179433
 12
362.4435993601
 22
273.4845994248
 13
362.4435993601
 23
273.4845994248
  0
SOLID
  5
42F
100
AcDbEntity
  8
0
100
AcDbTrace
 62
5
  6
CONTINUOUS
 10
362.4435993601
 20
273.4845994248
 11
361.1843401009
 21
273.2623783328
 12
361.1102660268
 22
273.7808979816
 13
361.1102660268
 23
273.7808979816
  0
SOLID
  5
430
100
AcDbEntity
  8
0
100
AcDbTrace
 62
5
  6
CONTINUOUS
 10
357.4065623231
 20
273.7808979816
 11
357.332488249
 21
273.2623783328
 12
356.0732289898
 22
272.9660809063
 13
356.0732289898
 23
272.9660809063
  0
SOLID
  5
431
100
AcDbEntity
  8
0
100
AcDbTrace
 62
5
  6
CONTINUOUS
 10
357.4065623231
 20
273.7808979816
 11
356.0732289898
 21
272.9660809063
 12
356.1473030639
 22
273.7808979816
 13
356.1473030639
 23
273.7808979816
  0
SOLID
  5
432
100
AcDbEntity
  8
0
100
AcDbTrace
 62
5
  6
CONTINUOUS
 10
361.1843401009
 20
273.2623783328
 11
362.4435993601
 21
273.4845994248
 12
362.4435993601
 22
272.8179327581
 13
362.4435993601
 23
272.8179327581
  0
SOLID
  5
433
100
AcDbEntity
  8
0
100
AcDbTrace
 62
5
  6
CONTINUOUS
 10
356.0732289898
 20
272.9660809063
 11
357.332488249
 21
273.2623783328
 12
357.332488249
 22
272.743858684
 13
357.332488249
 23
272.743858684
  0
SOLID
  5
434
100
AcDbEntity
  8
0
100
AcDbTrace
 62
5
  6
CONTINUOUS
 10
362.4435993601
 20
272.8179327581
 11
361.1843401009
 21
272.743858684
 12
361.1843401009
 22
273.2623783328
 13
361.1843401009
 23
273.2623783328
  0
SOLID
  5
435
100
AcDbEntity
  8
0
100
AcDbTrace
 62
5
  6
CONTINUOUS
 10
357.332488249
 20
272.743858684
 11
356.0732289898
 21
272.1512677869
 12
356.0732289898
 22
272.9660809063
 13
356.0732289898
 23
272.9660809063
  0
SOLID
  5
436
100
AcDbEntity
  8
0
100
AcDbTrace
 62
5
  6
CONTINUOUS
 10
356.0732289898
 20
272.1512677869
 11
357.332488249
 21
272.743858684
 12
357.332488249
 22
272.1512677869
 13
357.332488249
 23
272.1512677869
  0
SOLID
  5
437
100
AcDbEntity
  8
0
100
AcDbTrace
 62
5
  6
CONTINUOUS
 10
361.258414175
 20
272.1512677869
 11
361.1843401009
 21
272.743858684
 12
362.4435993601
 22
272.8179327581
 13
362.4435993601
 23
272.8179327581
  0
SOLID
  5
438
100
AcDbEntity
  8
0
100
AcDbTrace
 62
5
  6
CONTINUOUS
 10
361.258414175
 20
272.1512677869
 11
362.4435993601
 21
272.8179327581
 12
362.5176734342
 22
272.1512677869
 13
362.5176734342
 23
272.1512677869
  0
SOLID
  5
439
100
AcDbEntity
  8
0
100
AcDbTrace
 62
5
  6
CONTINUOUS
 10
362.5176734342
 20
272.1512677869
 11
361.1843401009
 21
271.5586768897
 12
361.258414175
 22
272.1512677869
 13
361.258414175
 23
272.1512677869
  0
SOLID
  5
43A
100
AcDbEntity
  8
0
100
AcDbTrace
 62
5
  6
CONTINUOUS
 10
357.332488249
 20
272.1512677869
 11
357.332488249
 21
271.5586768897
 12
356.0732289898
 22
271.4845994248
 13
356.0732289898
 23
271.4845994248
  0
SOLID
  5
43B
100
AcDbEntity
  8
0
100
AcDbTrace
 62
5
  6
CONTINUOUS
 10
357.332488249
 20
272.1512677869
 11
356.0732289898
 21
271.4845994248
 12
356.0732289898
 22
272.1512677869
 13
356.0732289898
 23
272.1512677869
  0
SOLID
  5
43C
100
AcDbEntity
  8
0
100
AcDbTrace
 62
5
  6
CONTINUOUS
 10
361.1843401009
 20
271.5586768897
 11
362.5176734342
 21
272.1512677869
 12
362.4435993601
 22
271.3364512766
 13
362.4435993601
 23
271.3364512766
  0
SOLID
  5
43D
100
AcDbEntity
  8
0
100
AcDbTrace
 62
5
  6
CONTINUOUS
 10
356.0732289898
 20
271.4845994248
 11
357.332488249
 21
271.5586768897
 12
357.332488249
 22
271.0401572409
 13
357.332488249
 23
271.0401572409
  0
SOLID
  5
43E
100
AcDbEntity
  8
0
100
AcDbTrace
 62
5
  6
CONTINUOUS
 10
362.4435993601
 20
271.3364512766
 11
361.1843401009
 21
271.0401572409
 12
361.1843401009
 22
271.5586768897
 13
361.1843401009
 23
271.5586768897
  0
SOLID
  5
43F
100
AcDbEntity
  8
0
100
AcDbTrace
 62
5
  6
CONTINUOUS
 10
357.332488249
 20
271.0401572409
 11
356.0732289898
 21
270.8179327581
 12
356.0732289898
 22
271.4845994248
 13
356.0732289898
 23
271.4845994248
  0
SOLID
  5
440
100
AcDbEntity
  8
0
100
AcDbTrace
 62
5
  6
CONTINUOUS
 10
361.1843401009
 20
271.0401572409
 11
362.4435993601
 21
271.3364512766
 12
362.3695252861
 22
270.5957105359
 13
362.3695252861
 23
270.5957105359
  0
SOLID
  5
441
100
AcDbEntity
  8
0
100
AcDbTrace
 62
5
  6
CONTINUOUS
 10
356.0732289898
 20
270.8179327581
 11
357.332488249
 21
271.0401572409
 12
357.4065623231
 22
270.5216375921
 13
357.4065623231
 23
270.5216375921
  0
SOLID
  5
442
100
AcDbEntity
  8
0
100
AcDbTrace
 62
5
  6
CONTINUOUS
 10
362.3695252861
 20
270.5957105359
 11
361.1102660268
 21
270.5216375921
 12
361.1843401009
 22
271.0401572409
 13
361.1843401009
 23
271.0401572409
  0
SOLID
  5
443
100
AcDbEntity
  8
0
100
AcDbTrace
 62
5
  6
CONTINUOUS
 10
357.4065623231
 20
270.5216375921
 11
356.1473030639
 21
270.2994142396
 12
356.0732289898
 22
270.8179327581
 13
356.0732289898
 23
270.8179327581
  0
SOLID
  5
444
100
AcDbEntity
  8
0
100
AcDbTrace
 62
5
  6
CONTINUOUS
 10
356.1473030639
 20
270.2994142396
 11
357.4065623231
 21
270.5216375921
 12
357.4065623231
 22
270.0771894742
 13
357.4065623231
 23
270.0771894742
  0
SOLID
  5
445
100
AcDbEntity
  8
0
100
AcDbTrace
 62
5
  6
CONTINUOUS
 10
361.1102660268
 20
270.0771894742
 11
361.1102660268
 21
270.5216375921
 12
362.3695252861
 22
270.5957105359
 13
362.3695252861
 23
270.5957105359
  0
SOLID
  5
446
100
AcDbEntity
  8
0
100
AcDbTrace
 62
5
  6
CONTINUOUS
 10
361.1102660268
 20
270.0771894742
 11
362.3695252861
 21
270.5957105359
 12
362.295451212
 22
269.9290438692
 13
362.295451212
 23
269.9290438692
  0
SOLID
  5
447
100
AcDbEntity
  8
0
100
AcDbTrace
 62
5
  6
CONTINUOUS
 10
357.4065623231
 20
270.0771894742
 11
356.295451212
 21
269.7068224947
 12
356.1473030639
 22
270.2994142396
 13
356.1473030639
 23
270.2994142396
  0
SOLID
  5
448
100
AcDbEntity
  8
0
100
AcDbTrace
 62
5
  6
CONTINUOUS
 10
356.295451212
 20
269.7068224947
 11
357.4065623231
 21
270.0771894742
 12
357.5547104713
 22
269.7068224947
 13
357.5547104713
 23
269.7068224947
  0
SOLID
  5
449
100
AcDbEntity
  8
0
100
AcDbTrace
 62
5
  6
CONTINUOUS
 10
362.295451212
 20
269.9290438692
 11
361.0361919527
 21
269.7068224947
 12
361.1102660268
 22
270.0771894742
 13
361.1102660268
 23
270.0771894742
  0
SOLID
  5
44A
100
AcDbEntity
  8
0
100
AcDbTrace
 62
5
  6
CONTINUOUS
 10
360.8880438046
 20
269.4105270461
 11
361.0361919527
 21
269.7068224947
 12
362.295451212
 22
269.9290438692
 13
362.295451212
 23
269.9290438692
  0
SOLID
  5
44B
100
AcDbEntity
  8
0
100
AcDbTrace
 62
5
  6
CONTINUOUS
 10
360.8880438046
 20
269.4105270461
 11
362.295451212
 21
269.9290438692
 12
362.1473030639
 22
269.3364512766
 13
362.1473030639
 23
269.3364512766
  0
SOLID
  5
44C
100
AcDbEntity
  8
0
100
AcDbTrace
 62
5
  6
CONTINUOUS
 10
357.5547104713
 20
269.7068224947
 11
357.6287845453
 21
269.4105270461
 12
356.4435993601
 22
269.2623772025
 13
356.4435993601
 23
269.2623772025
  0
SOLID
  5
44D
100
AcDbEntity
  8
0
100
AcDbTrace
 62
5
  6
CONTINUOUS
 10
357.5547104713
 20
269.7068224947
 11
356.4435993601
 21
269.2623772025
 12
356.295451212
 22
269.7068224947
 13
356.295451212
 23
269.7068224947
  0
SOLID
  5
44E
100
AcDbEntity
  8
0
100
AcDbTrace
 62
5
  6
CONTINUOUS
 10
356.4435993601
 20
269.2623772025
 11
357.6287845453
 21
269.4105270461
 12
357.7028586194
 22
269.1142315975
 13
357.7028586194
 23
269.1142315975
  0
SOLID
  5
44F
100
AcDbEntity
  8
0
100
AcDbTrace
 62
5
  6
CONTINUOUS
 10
362.1473030639
 20
269.3364512766
 11
360.8139697305
 21
269.1142315975
 12
360.8880438046
 22
269.4105270461
 13
360.8880438046
 23
269.4105270461
  0
SOLID
  5
450
100
AcDbEntity
  8
0
100
AcDbTrace
 62
5
  6
CONTINUOUS
 10
357.7028586194
 20
269.1142315975
 11
357.8510067676
 21
268.8920073973
 12
356.5917475083
 22
268.8179361489
 13
356.5917475083
 23
268.8179361489
  0
SOLID
  5
451
100
AcDbEntity
  8
0
100
AcDbTrace
 62
5
  6
CONTINUOUS
 10
357.7028586194
 20
269.1142315975
 11
356.5917475083
 21
268.8179361489
 12
356.4435993601
 22
269.2623772025
 13
356.4435993601
 23
269.2623772025
  0
SOLID
  5
452
100
AcDbEntity
  8
0
100
AcDbTrace
 62
5
  6
CONTINUOUS
 10
360.6658215824
 20
268.8920073973
 11
360.8139697305
 21
269.1142315975
 12
362.1473030639
 22
269.3364512766
 13
362.1473030639
 23
269.3364512766
  0
SOLID
  5
453
100
AcDbEntity
  8
0
100
AcDbTrace
 62
5
  6
CONTINUOUS
 10
360.6658215824
 20
268.8920073973
 11
362.1473030639
 21
269.3364512766
 12
361.9250808416
 22
268.8179361489
 13
361.9250808416
 23
268.8179361489
  0
SOLID
  5
454
100
AcDbEntity
  8
0
100
AcDbTrace
 62
5
  6
CONTINUOUS
 10
361.9250808416
 20
268.8179361489
 11
360.3695252861
 21
268.5957105359
 12
360.6658215824
 22
268.8920073973
 13
360.6658215824
 23
268.8920073973
  0
SOLID
  5
455
100
AcDbEntity
  8
0
100
AcDbTrace
 62
5
  6
CONTINUOUS
 10
356.5917475083
 20
268.8179361489
 11
357.8510067676
 21
268.8920073973
 12
358.1473030639
 22
268.5216364618
 13
358.1473030639
 23
268.5216364618
  0
SOLID
  5
456
100
AcDbEntity
  8
0
100
AcDbTrace
 62
5
  6
CONTINUOUS
 10
358.1473030639
 20
268.5216364618
 11
356.8139697305
 21
268.4475623877
 12
356.5917475083
 22
268.8179361489
 13
356.5917475083
 23
268.8179361489
  0
SOLID
  5
457
100
AcDbEntity
  8
0
100
AcDbTrace
 62
5
  6
CONTINUOUS
 10
360.3695252861
 20
268.5957105359
 11
361.9250808416
 21
268.8179361489
 12
361.7028586194
 22
268.3734883137
 13
361.7028586194
 23
268.3734883137
  0
SOLID
  5
458
100
AcDbEntity
  8
0
100
AcDbTrace
 62
5
  6
CONTINUOUS
 10
356.8139697305
 20
268.4475623877
 11
358.1473030639
 21
268.5216364618
 12
358.5176734342
 22
268.2994164295
 13
358.5176734342
 23
268.2994164295
  0
SOLID
  5
459
100
AcDbEntity
  8
0
100
AcDbTrace
 62
5
  6
CONTINUOUS
 10
361.7028586194
 20
268.3734883137
 11
359.9991549157
 21
268.2994164295
 12
360.3695252861
 22
268.5957105359
 13
360.3695252861
 23
268.5957105359
  0
SOLID
  5
45A
100
AcDbEntity
  8
0
100
AcDbTrace
 62
5
  6
CONTINUOUS
 10
359.258414175
 20
268.1512636189
 11
359.6287845453
 21
268.1512636189
 12
357.0361919527
 22
268.0771920174
 13
357.0361919527
 23
268.0771920174
  0
SOLID
  5
45B
100
AcDbEntity
  8
0
100
AcDbTrace
 62
5
  6
CONTINUOUS
 10
358.8880438046
 20
268.1512636189
 11
359.258414175
 21
268.1512636189
 12
357.0361919527
 22
268.0771920174
 13
357.0361919527
 23
268.0771920174
  0
SOLID
  5
45C
100
AcDbEntity
  8
0
100
AcDbTrace
 62
5
  6
CONTINUOUS
 10
358.5176734342
 20
268.2994164295
 11
358.8880438046
 21
268.1512636189
 12
357.0361919527
 22
268.0771920174
 13
357.0361919527
 23
268.0771920174
  0
SOLID
  5
45D
100
AcDbEntity
  8
0
100
AcDbTrace
 62
5
  6
CONTINUOUS
 10
358.5176734342
 20
268.2994164295
 11
357.0361919527
 21
268.0771920174
 12
356.8139697305
 22
268.4475623877
 13
356.8139697305
 23
268.4475623877
  0
SOLID
  5
45E
100
AcDbEntity
  8
0
100
AcDbTrace
 62
5
  6
CONTINUOUS
 10
359.6287845453
 20
268.1512636189
 11
359.9991549157
 21
268.2994164295
 12
361.7028586194
 22
268.3734883137
 13
361.7028586194
 23
268.3734883137
  0
SOLID
  5
45F
100
AcDbEntity
  8
0
100
AcDbTrace
 62
5
  6
CONTINUOUS
 10
361.4065623231
 20
267.9290438692
 11
357.0361919527
 21
268.0771920174
 12
359.6287845453
 22
268.1512636189
 13
359.6287845453
 23
268.1512636189
  0
SOLID
  5
460
100
AcDbEntity
  8
0
100
AcDbTrace
 62
5
  6
CONTINUOUS
 10
359.6287845453
 20
268.1512636189
 11
361.7028586194
 21
268.3734883137
 12
361.4065623231
 22
267.9290438692
 13
361.4065623231
 23
267.9290438692
  0
SOLID
  5
461
100
AcDbEntity
  8
0
100
AcDbTrace
 62
5
  6
CONTINUOUS
 10
361.4065623231
 20
267.9290438692
 11
357.258414175
 21
267.8549697951
 12
357.0361919527
 22
268.0771920174
 13
357.0361919527
 23
268.0771920174
  0
SOLID
  5
462
100
AcDbEntity
  8
0
100
AcDbTrace
 62
5
  6
CONTINUOUS
 10
357.4806363972
 20
267.6327440055
 11
357.258414175
 21
267.8549697951
 12
361.4065623231
 22
267.9290438692
 13
361.4065623231
 23
267.9290438692
  0
SOLID
  5
463
100
AcDbEntity
  8
0
100
AcDbTrace
 62
5
  6
CONTINUOUS
 10
357.4806363972
 20
267.6327440055
 11
361.4065623231
 21
267.9290438692
 12
361.0361919527
 22
267.6327440055
 13
361.0361919527
 23
267.6327440055
  0
SOLID
  5
464
100
AcDbEntity
  8
0
100
AcDbTrace
 62
5
  6
CONTINUOUS
 10
361.0361919527
 20
267.6327440055
 11
357.7028586194
 21
267.4845994248
 12
357.4806363972
 22
267.6327440055
 13
357.4806363972
 23
267.6327440055
  0
SOLID
  5
465
100
AcDbEntity
  8
0
100
AcDbTrace
 62
5
  6
CONTINUOUS
 10
357.7028586194
 20
267.4845994248
 11
361.0361919527
 21
267.6327440055
 12
360.6658215824
 22
267.4105253507
 13
360.6658215824
 23
267.4105253507
  0
SOLID
  5
466
100
AcDbEntity
  8
0
100
AcDbTrace
 62
5
  6
CONTINUOUS
 10
360.6658215824
 20
267.4105253507
 11
357.9991549157
 21
267.3364512766
 12
357.7028586194
 22
267.4845994248
 13
357.7028586194
 23
267.4845994248
  0
SOLID
  5
467
100
AcDbEntity
  8
0
100
AcDbTrace
 62
5
  6
CONTINUOUS
 10
358.295451212
 20
267.2623772025
 11
357.9991549157
 21
267.3364512766
 12
360.6658215824
 22
267.4105253507
 13
360.6658215824
 23
267.4105253507
  0
SOLID
  5
468
100
AcDbEntity
  8
0
100
AcDbTrace
 62
5
  6
CONTINUOUS
 10
358.295451212
 20
267.2623772025
 11
360.6658215824
 21
267.4105253507
 12
360.2213771379
 22
267.2623772025
 13
360.2213771379
 23
267.2623772025
  0
SOLID
  5
469
100
AcDbEntity
  8
0
100
AcDbTrace
 62
5
  6
CONTINUOUS
 10
360.2213771379
 20
267.2623772025
 11
358.5917475083
 21
267.1883058703
 12
358.295451212
 22
267.2623772025
 13
358.295451212
 23
267.2623772025
  0
SOLID
  5
46A
100
AcDbEntity
  8
0
100
AcDbTrace
 62
5
  6
CONTINUOUS
 10
358.8880438046
 20
267.1883058703
 11
358.5917475083
 21
267.1883058703
 12
360.2213771379
 22
267.2623772025
 13
360.2213771379
 23
267.2623772025
  0
SOLID
  5
46B
100
AcDbEntity
  8
0
100
AcDbTrace
 62
5
  6
CONTINUOUS
 10
358.8880438046
 20
267.1883058703
 11
360.2213771379
 21
267.2623772025
 12
359.7769326935
 22
267.1883058703
 13
359.7769326935
 23
267.1883058703
  0
SOLID
  5
46C
100
AcDbEntity
  8
0
100
AcDbTrace
 62
5
  6
CONTINUOUS
 10
359.7769326935
 20
267.1883058703
 11
359.258414175
 21
267.1142290544
 12
358.8880438046
 22
267.1883058703
 13
358.8880438046
 23
267.1883058703
  0
LINE
  5
46D
100
AcDbEntity
  8
0
100
AcDbLine
 62
7
  6
CONTINUOUS
 10
119.7623967665
 20
342.8240306551
 11
119.7623967665
 21
361.8240306551
  0
LINE
  5
46E
100
AcDbEntity
  8
0
100
AcDbLine
 62
7
  6
CONTINUOUS
 10
119.7623967665
 20
342.8240306551
 11
539.7623967665
 21
342.8240306551
  0
LINE
  5
46F
100
AcDbEntity
  8
0
100
AcDbLine
 62
7
  6
CONTINUOUS
 10
119.7623967665
 20
361.8240306551
 11
539.7623967665
 21
361.8240306551
  0
LINE
  5
470
100
AcDbEntity
  8
0
100
AcDbLine
 62
7
  6
CONTINUOUS
 10
539.7623967665
 20
342.8240306551
 11
539.7623967665
 21
361.8240306551
  0
HATCH
  5
471
100
AcDbEntity
  8
0
100
AcDbHatch
 62
2
  6
CONTINUOUS
 10
0.0
 20
0.0
 30
0.0
210
0.0
220
0.0
230
1.0
  2
c
 70
0
 71
1
 91
1
 92
1
 93
4
 72
1
 10
119.7623967665
 20
361.8240306551
 11
539.7623967665
 21
361.8240306551
 72
1
 10
539.7623967665
 20
342.8240306551
 11
539.7623967665
 21
361.8240306551
 72
1
 10
119.7623967665
 20
342.8240306551
 11
539.7623967665
 21
342.8240306551
 72
1
 10
119.7623967665
 20
342.8240306551
 11
119.7623967665
 21
361.8240306551
 97
4
330
46D
330
46E
330
46F
330
470
 75
0
 76
0
 52
45.0
 41
32.0
 77
0
 78
1
 53
45.0
 43
0.0
 44
0.0
 45
-22.627416998
 46
22.627416998
 79
0
 98
1
 10
0.0
 20
0.0
  0
LINE
  5
472
100
AcDbEntity
  8
0
100
AcDbLine
 62
7
  6
CONTINUOUS
 10
119.7623967665
 20
61.8240306551
 11
119.7623967665
 21
361.8240306551
  0
LINE
  5
473
100
AcDbEntity
  8
0
100
AcDbLine
 62
7
  6
CONTINUOUS
 10
129.7623967665
 20
61.8240306551
 11
129.7623967665
 21
342.8240306551
  0
LINE
  5
474
100
AcDbEntity
  8
0
100
AcDbLine
 62
7
  6
CONTINUOUS
 10
140.7623967665
 20
61.8240306551
 11
140.7623967665
 21
208.8240306551
  0
LINE
  5
475
100
AcDbEntity
  8
0
100
AcDbLine
 62
7
  6
CONTINUOUS
 10
119.7623967665
 20
61.8240306551
 11
539.7623967665
 21
61.8240306551
  0
LINE
  5
476
100
AcDbEntity
  8
DIMENSIONS
100
AcDbLine
 62
5
  6
CONTINUOUS
 10
555.7237987061
 20
355.2704512939
 11
556.9738308105
 21
355.8061896973
  0
LWPOLYLINE
  5
477
100
AcDbEntity
  8
DIMENSIONS
100
AcDbPolyline
 62
5
  6
CONTINUOUS
 90
3
 70
0
 10
133.8338213196
 20
52.8114992065
 10
134.5481150208
 20
53.525783844
 10
134.5481150208
 20
51.0257830811
  0
LWPOLYLINE
  5
478
100
AcDbEntity
  8
DIMENSIONS
100
AcDbPolyline
 62
5
  6
CONTINUOUS
 90
3
 70
0
 10
135.2623996582
 20
52.8114992065
 10
135.9766842957
 20
53.525783844
 10
135.9766842957
 20
51.0257830811
  0
LINE
  5
479
100
AcDbEntity
  8
0
100
AcDbLine
 62
7
  6
CONTINUOUS
 10
140.7623967665
 20
208.8240306551
 11
539.7623967665
 21
208.8240306551
  0
LWPOLYLINE
  5
47A
100
AcDbEntity
  8
DIMENSIONS
100
AcDbPolyline
 62
5
  6
CONTINUOUS
 90
12
 70
0
 10
556.7952392578
 20
346.3418887939
 10
556.9738308105
 20
346.5204440918
 10
556.9738308105
 20
347.234737793
 10
556.7952392578
 20
347.4133293457
 10
556.2595371094
 20
347.4133293457
 10
556.1404760742
 20
347.234737793
 10
556.0214512939
 20
346.5204440918
 10
555.9023902588
 20
346.3418887939
 10
555.3666881104
 20
346.3418887939
 10
555.1880965576
 20
346.5204440918
 10
555.1880965576
 20
347.234737793
 10
555.3666881104
 20
347.4133293457
  0
LINE
  5
47B
100
AcDbEntity
  8
DIMENSIONS
100
AcDbLine
 62
5
  6
CONTINUOUS
 10
553.2238070068
 20
277.2823553467
 11
551.9738111572
 21
277.2823553467
  0
LWPOLYLINE
  5
47C
100
AcDbEntity
  8
DIMENSIONS
100
AcDbPolyline
 62
5
  6
CONTINUOUS
 90
7
 70
0
 10
553.2238070068
 20
347.8597357178
 10
550.7238153076
 20
347.8597357178
 10
550.7238153076
 20
348.3954741211
 10
550.7833458252
 20
348.5740294189
 10
551.0809621582
 20
348.9311762695
 10
551.6166643066
 20
348.9311762695
 10
551.9738111572
 20
348.5740294189
  0
LINE
  5
47D
100
AcDbEntity
  8
DIMENSIONS
100
AcDbLine
 62
5
  6
CONTINUOUS
 10
556.9738308105
 20
348.425203125
 11
554.4738028564
 21
348.425203125
  0
LWPOLYLINE
  5
47E
100
AcDbEntity
  8
DIMENSIONS
100
AcDbPolyline
 62
5
  6
CONTINUOUS
 90
9
 70
0
 10
552.8666601563
 20
349.8240252686
 10
551.7952558594
 20
349.8240252686
 10
551.4381090088
 20
350.1811721191
 10
551.4381090088
 20
350.5383189697
 10
551.7952558594
 20
350.8954658203
 10
552.8666601563
 20
350.8954658203
 10
553.2238070068
 20
350.5383189697
 10
553.2238070068
 20
350.1811721191
 10
552.8666601563
 20
349.8240252686
  0
LWPOLYLINE
  5
47F
100
AcDbEntity
  8
DIMENSIONS
100
AcDbPolyline
 62
5
  6
CONTINUOUS
 90
4
 70
0
 10
556.9738308105
 20
350.6276147461
 10
555.5452434082
 20
350.6276147461
 10
555.1880965576
 20
350.4490231934
 10
555.1880965576
 20
349.5561741943
  0
LWPOLYLINE
  5
480
100
AcDbEntity
  8
DIMENSIONS
100
AcDbPolyline
 62
5
  6
CONTINUOUS
 90
7
 70
0
 10
550.7238153076
 20
352.6811638184
 10
553.2238070068
 20
352.6811638184
 10
553.2238070068
 20
351.9668701172
 10
553.045251709
 20
351.6097595215
 10
551.6166643066
 20
351.6097595215
 10
551.4381090088
 20
351.9668701172
 10
551.4381090088
 20
352.6811638184
  0
LWPOLYLINE
  5
481
100
AcDbEntity
  8
DIMENSIONS
100
AcDbPolyline
 62
5
  6
CONTINUOUS
 90
5
 70
0
 10
556.9738308105
 20
353.1276064453
 10
555.1880965576
 20
353.1276064453
 10
555.1880965576
 20
353.8419001465
 10
555.3666881104
 20
353.9609249268
 10
555.7237987061
 20
353.9609249268
  0
LINE
  5
482
100
AcDbEntity
  8
DIMENSIONS
100
AcDbLine
 62
5
  6
CONTINUOUS
 10
556.9738308105
 20
354.7347491455
 11
554.4738028564
 21
354.7347491455
  0
LWPOLYLINE
  5
483
100
AcDbEntity
  8
DIMENSIONS
100
AcDbPolyline
 62
5
  6
CONTINUOUS
 90
5
 70
0
 10
553.2238070068
 20
355.1811555176
 10
551.4381090088
 20
355.1811555176
 10
551.4381090088
 20
356.0740407715
 10
551.6166643066
 20
356.2525960693
 10
553.2238070068
 20
356.2525960693
  0
LWPOLYLINE
  5
484
100
AcDbEntity
  8
DIMENSIONS
100
AcDbPolyline
 62
5
  6
CONTINUOUS
 90
3
 70
0
 10
551.4381090088
 20
273.2347514648
 10
550.7238153076
 20
273.949045166
 10
553.2238070068
 20
273.949045166
  0
LINE
  5
485
100
AcDbEntity
  8
0
100
AcDbLine
 62
7
  6
CONTINUOUS
 10
539.7623967665
 20
342.8240306551
 11
539.7623967665
 21
61.8240306551
  0
LWPOLYLINE
  5
486
100
AcDbEntity
  8
DIMENSIONS
100
AcDbPolyline
 62
5
  6
CONTINUOUS
 90
6
 70
0
 10
551.9738111572
 20
347.8597357178
 10
551.9738111572
 20
348.7525847168
 10
552.3309580078
 20
349.1097315674
 10
552.8666601563
 20
349.1097315674
 10
553.2238070068
 20
348.7525847168
 10
553.2238070068
 20
347.8597357178
  0
LINE
  5
487
100
AcDbEntity
  8
DIMENSIONS
100
AcDbLine
 62
5
  6
CONTINUOUS
 10
552.3309580078
 20
356.9668897705
 11
552.3309580078
 21
358.0383303223
  0
LWPOLYLINE
  5
488
100
AcDbEntity
  8
DIMENSIONS
100
AcDbPolyline
 62
5
  6
CONTINUOUS
 90
3
 70
0
 10
552.6881048584
 20
277.6990327148
 10
552.6881048584
 20
276.4490368652
 10
550.7238153076
 20
276.9847390137
  0
LWPOLYLINE
  5
489
100
AcDbEntity
  8
DIMENSIONS
100
AcDbPolyline
 62
5
  6
CONTINUOUS
 90
9
 70
0
 10
553.2238070068
 20
354.4668980713
 10
553.2238070068
 20
353.7526043701
 10
552.8666601563
 20
353.3954575195
 10
551.7952558594
 20
353.3954575195
 10
551.4381090088
 20
353.7526043701
 10
551.4381090088
 20
354.1097512207
 10
551.7952558594
 20
354.4668980713
 10
552.3309580078
 20
354.4668980713
 10
552.3309580078
 20
353.3954575195
  0
LWPOLYLINE
  5
48A
100
AcDbEntity
  8
DIMENSIONS
100
AcDbPolyline
 62
5
  6
CONTINUOUS
 90
6
 70
0
 10
553.2238070068
 20
274.6633026123
 10
553.2238070068
 20
275.5561878662
 10
553.045251709
 20
275.7347431641
 10
552.15240271
 20
275.7347431641
 10
551.7952558594
 20
275.3775963135
 10
551.7952558594
 20
275.0204494629
  0
LINE
  5
48B
100
AcDbEntity
  8
DIMENSIONS
100
AcDbLine
 62
5
  6
CONTINUOUS
 10
555.1880965576
 20
348.127586792
 11
555.1880965576
 21
348.8418804932
  0
LWPOLYLINE
  5
48C
100
AcDbEntity
  8
DIMENSIONS
100
AcDbPolyline
 62
5
  6
CONTINUOUS
 90
5
 70
0
 10
551.7952558594
 20
275.3775963135
 10
551.6166643066
 20
275.6752126465
 10
551.0809621582
 20
275.6752126465
 10
550.7238153076
 20
275.3775963135
 10
550.7238153076
 20
274.6633026123
  0
LWPOLYLINE
  5
48D
100
AcDbEntity
  8
DIMENSIONS
100
AcDbPolyline
 62
5
  6
CONTINUOUS
 90
9
 70
0
 10
556.9738308105
 20
357.5918876953
 10
556.9738308105
 20
356.8775939941
 10
556.61668396
 20
356.5204471436
 10
555.5452434082
 20
356.5204471436
 10
555.1880965576
 20
356.8775939941
 10
555.1880965576
 20
357.2347408447
 10
555.5452434082
 20
357.5918876953
 10
556.0809455566
 20
357.5918876953
 10
556.0809455566
 20
356.5204471436
  0
LWPOLYLINE
  5
48E
100
AcDbEntity
  8
DIMENSIONS
100
AcDbPolyline
 62
5
  6
CONTINUOUS
 90
9
 70
0
 10
556.9738308105
 20
352.4133127441
 10
556.9738308105
 20
351.699019043
 10
556.61668396
 20
351.3418721924
 10
555.5452434082
 20
351.3418721924
 10
555.1880965576
 20
351.699019043
 10
555.1880965576
 20
352.0561658936
 10
555.5452434082
 20
352.4133127441
 10
556.0809455566
 20
352.4133127441
 10
556.0809455566
 20
351.3418721924
  0
LWPOLYLINE
  5
48F
100
AcDbEntity
  8
DIMENSIONS
100
AcDbPolyline
 62
5
  6
CONTINUOUS
 90
6
 70
0
 10
556.9738308105
 20
350.6276147461
 10
556.9738308105
 20
349.9133210449
 10
556.7952392578
 20
349.5561741943
 10
556.2595371094
 20
349.5561741943
 10
556.0809455566
 20
349.9133210449
 10
556.0809455566
 20
350.6276147461
  0
LINE
  5
490
100
AcDbEntity
  8
DIMENSIONS
100
AcDbLine
 62
5
  6
CONTINUOUS
 10
556.0809455566
 20
354.7347491455
 11
555.1880965576
 21
355.8061896973
  0
LINE
  5
491
100
AcDbEntity
  8
0
100
AcDbLine
 62
7
  6
CONTINUOUS
 10
66.9326007839
 20
61.8240306551
 11
85.9326007839
 21
61.8240306551
  0
LWPOLYLINE
  5
492
100
AcDbEntity
  8
DIMENSIONS
100
AcDbPolyline
 62
5
  6
CONTINUOUS
 90
10
 70
0
 10
70.807598877
 20
373.2046179199
 10
71.5218880463
 20
373.9189116211
 10
71.7004569397
 20
374.6331690674
 10
71.7004569397
 20
375.3474627686
 10
71.343314621
 20
375.7046096191
 10
70.807598877
 20
375.7046096191
 10
70.4504565582
 20
375.3474627686
 10
70.4504565582
 20
374.6331690674
 10
70.807598877
 20
374.2760584717
 10
71.5814095001
 20
374.2760584717
  0
LINE
  5
493
100
AcDbEntity
  8
0
100
AcDbLine
 62
7
  6
CONTINUOUS
 10
66.9326007839
 20
61.8240306551
 11
66.9326007839
 21
361.8240306551
  0
LINE
  5
494
100
AcDbEntity
  8
0
100
AcDbLine
 62
7
  6
CONTINUOUS
 10
75.9326007839
 20
342.8240306551
 11
75.9326007839
 21
208.8240306551
  0
LINE
  5
495
100
AcDbEntity
  8
DEFAULT_2
100
AcDbLine
 62
8
  6
HIDDEN
 10
75.9326007839
 20
61.8240306551
 11
75.9326007839
 21
208.8240306551
  0
LINE
  5
496
100
AcDbEntity
  8
ACHSEN
100
AcDbLine
 62
8
  6
HIDDEN
 10
75.9326007839
 20
342.8240306551
 11
75.9326007839
 21
348.3240306551
  0
LINE
  5
497
100
AcDbEntity
  8
0
100
AcDbLine
 62
7
  6
CONTINUOUS
 10
75.9326007839
 20
208.8240306551
 11
66.9326007839
 21
208.8240306551
  0
LINE
  5
498
100
AcDbEntity
  8
0
100
AcDbLine
 62
7
  6
CONTINUOUS
 10
85.9326007839
 20
361.8240306551
 11
85.9326007839
 21
61.8240306551
  0
LINE
  5
499
100
AcDbEntity
  8
0
100
AcDbLine
 62
7
  6
CONTINUOUS
 10
66.9326007839
 20
342.8240306551
 11
75.9326007839
 21
342.8240306551
  0
LINE
  5
49A
100
AcDbEntity
  8
ACHSEN
100
AcDbLine
 62
8
  6
HIDDEN
 10
75.9326007839
 20
348.3240306551
 11
66.9326007839
 21
348.3240306551
  0
LINE
  5
49B
100
AcDbEntity
  8
0
100
AcDbLine
 62
7
  6
CONTINUOUS
 10
66.9326007839
 20
361.8240306551
 11
85.9326007839
 21
361.8240306551
  0
ARC
  5
49C
100
AcDbEntity
  8
0
100
AcDbCircle
 62
7
  6
CONTINUOUS
 10
135.2623967665
 20
342.8240306551
 40
5.5
100
AcDbArc
 50
0.0
 51
180.0
  0
ENDSEC
  0
SECTION
  2
OBJECTS
  0
DICTIONARY
  5
C
100
AcDbDictionary
280
0
281
1
  3
ACAD_GROUP
350
D
  3
ACAD_MLINESTYLE
350
17
  3
ACAD_LAYOUT
350
1A
  3
ACAD_PLOTSETTINGS
350
19
  3
ACAD_PLOTSTYLENAME
350
E
  0
DICTIONARY
  5
D
102
{ACAD_REACTORS
330
C
102
}
100
AcDbDictionary
280
0
281
1
  0
ACDBDICTIONARYWDFLT
  5
E
102
{ACAD_REACTORS
330
C
102
}
100
AcDbDictionary
281
1
  3
Normal
350
F
100
AcDbDictionaryWithDefault
340
F
  0
DICTIONARY
  5
17
102
{ACAD_REACTORS
330
C
102
}
100
AcDbDictionary
280
0
281
1
  3
Standard
350
18
  0
DICTIONARY
  5
19
102
{ACAD_REACTORS
330
C
102
}
100
AcDbDictionary
281
1
  0
DICTIONARY
  5
1A
102
{ACAD_REACTORS
330
C
102
}
100
AcDbDictionary
281
1
  3
Layout1
350
1E
  3
Model
350
22
  0
ACDBPLACEHOLDER
  5
F
102
{ACAD_REACTORS
330
E
102
}
  0
MLINESTYLE
  5
18
102
{ACAD_REACTORS
330
17
102
}
100
AcDbMlineStyle
  2
STANDARD
 70
0
  3

 62
256
 51
90.0
 52
90.0
 71
2
 49
0.5
 62
256
  6
BYLAYER
 49
-0.5
 62
256
  6
BYLAYER
  0
LAYOUT
  5
1E
102
{ACAD_REACTORS
330
1A
102
}
100
AcDbPlotSettings
  1

  2

  4

  6

 40
0.0
 41
0.0
 42
0.0
 43
0.0
 44
0.0
 45
0.0
 46
0.0
 47
0.0
 48
0.0
 49
0.0
140
0.0
141
0.0
142
1.0
143
1.0
 70
0
 72
0
 73
0
 74
0
  7

 75
0
147
1.0
148
0.0
149
0.0
100
AcDbLayout
  1
Layout1
 70
0
 71
0
 10
0.0
 20
0.0
 11
0.0
 21
0.0
 12
0.0
 22
0.0
 32
0.0
 14
0.0
 24
0.0
 34
0.0
 15
0.0
 25
0.0
 35
0.0
146
0.0
 13
0.0
 23
0.0
 33
0.0
 16
0.0
 26
0.0
 36
0.0
 17
0.0
 27
0.0
 37
0.0
 76
0
330
1B
331
0
345
0
346
0
  0
LAYOUT
  5
22
102
{ACAD_REACTORS
330
1A
102
}
100
AcDbPlotSettings
  1

  2

  4

  6

 40
0.0
 41
0.0
 42
0.0
 43
0.0
 44
0.0
 45
0.0
 46
0.0
 47
0.0
 48
0.0
 49
0.0
140
0.0
141
0.0
142
1.0
143
1.0
 70
1024
 72
0
 73
0
 74
0
  7

 75
0
147
1.0
148
0.0
149
0.0
100
AcDbLayout
  1
Model
 70
0
 71
0
 10
0.0
 20
0.0
 11
0.0
 21
0.0
 12
0.0
 22
0.0
 32
0.0
 14
0.0
 24
0.0
 34
0.0
 15
0.0
 25
0.0
 35
0.0
146
0.0
 13
0.0
 23
0.0
 33
0.0
 16
0.0
 26
0.0
 36
0.0
 17
0.0
 27
0.0
 37
0.0
 76
0
330
1F
331
0
345
0
346
0
  0
ENDSEC
  0
EOF
