999
DXF file: korpus_classic_2.dxf
999
Pro/ENGINEER 2009400 by Parametric Technology Corporation
  0
SECTION
  2
HEADER
  9
$ACADVER
  1
AC1015
  9
$DWGCODEPAGE
  3
ANSI_1252
  9
$EXTMAX
 10
594.0
 20
420.0
 30
0.0
  9
$EXTMIN
 10
0.0
 20
0.0
 30
0.0
  9
$LIMMIN
 10
0.0
 20
0.0
  9
$LIMMAX
 10
594.0
 20
420.0
  9
$VIEWCTR
 10
297.0
 20
210.0
  9
$VIEWSIZE
 40
420.0
  9
$CLAYER
  8
0
  9
$LTSCALE
 40
32.67
  9
$CELTYPE
  6
BYLAYER
  9
$DIMSCALE
 40
1.0
  9
$DIMASZ
 40
2.5
  9
$DIMEXO
 40
3.7125
  9
$DIMDLI
 40
22.572
  9
$DIMEXE
 40
10.692
  9
$DIMCEN
 40
5.346
  9
$DIMLFAC
 40
1.0
  9
$DIMBLK
  1
_FILLED
  9
$DIMTXT
 40
2.5
  9
$DIMTOL
 70
1
  9
$DIMLIM
 70
0
  9
$DIMTFAC
 40
1.0
  9
$DIMTP
 40
0.01
  9
$DIMTM
 40
0.01
  9
$PDMODE
 70
3
  9
$PDSIZE
 40
0.5
  9
$HANDSEED
  5
48C
  9
$MEASUREMENT
 70
1
  9
$INSUNITS
 70
4
  0
ENDSEC
  0
SECTION
  2
CLASSES
  0
CLASS
  1
ACDBDICTIONARYWDFLT
  2
AcDbDictionaryWithDefault
  3
AutoCAD 2000
 90
0
280
0
281
0
  0
CLASS
  1
ACDBPLACEHOLDER
  2
AcDbPlaceHolder
  3
AutoCAD 2000
 90
0
280
0
281
0
  0
CLASS
  1
LAYOUT
  2
AcDbLayout
  3
AutoCAD 2000
 90
0
280
0
281
0
  0
ENDSEC
  0
SECTION
  2
TABLES
  0
TABLE
  2
VPORT
  5
8
100
AcDbSymbolTable
 70
2
  0
VPORT
  5
1F4
100
AcDbSymbolTableRecord
100
AcDbViewportTableRecord
  2
*ACTIVE
 70
0
 10
0.0
 20
0.0
 11
1.0
 21
1.0
 12
297.0
 22
210.0
 13
0.0
 23
0.0
 14
1.0
 24
1.0
 15
0.0
 25
0.0
 16
0.0
 26
0.0
 36
1.0
 17
0.0
 27
0.0
 37
0.0
 40
420.0
 41
1.4142857143
 42
50.0
 43
0.0
 44
0.0
 50
0.0
 51
0.0
 71
0
 72
100
 73
1
 74
1
 75
0
 76
0
 77
0
 78
0
  0
ENDTAB
  0
TABLE
  2
LTYPE
  5
5
100
AcDbSymbolTable
 70
6
  0
LTYPE
  5
14
100
AcDbSymbolTableRecord
100
AcDbLinetypeTableRecord
  2
BYBLOCK
 70
0
  3

 72
65
 73
0
 40
0.0
  0
LTYPE
  5
15
100
AcDbSymbolTableRecord
100
AcDbLinetypeTableRecord
  2
BYLAYER
 70
0
  3

 72
65
 73
0
 40
0.0
  0
LTYPE
  5
16
100
AcDbSymbolTableRecord
100
AcDbLinetypeTableRecord
  2
CONTINUOUS
 70
64
  3
Solid line
 72
65
 73
0
 40
0.0
  0
LTYPE
  5
1F5
100
AcDbSymbolTableRecord
100
AcDbLinetypeTableRecord
  2
CENTER
 70
64
  3
____ _ ____ _ ____ _ ____ _ ____ _ ____ _ ____
 72
65
 73
4
 40
0.6
 49
0.375
 74
0
 49
-0.075
 74
0
 49
0.075
 74
0
 49
-0.075
 74
0
  0
LTYPE
  5
1F6
100
AcDbSymbolTableRecord
100
AcDbLinetypeTableRecord
  2
HIDDEN
 70
64
  3
- - - - - - - - - - - - - - - - - - - -
 72
65
 73
2
 40
0.2
 49
0.1
 74
0
 49
-0.1
 74
0
  0
LTYPE
  5
1F7
100
AcDbSymbolTableRecord
100
AcDbLinetypeTableRecord
  2
PHANTOM
 70
64
  3
_____ _ _ _____ _ _ _____ _ _ _____
 72
65
 73
6
 40
0.8
 49
0.45
 74
0
 49
-0.05
 74
0
 49
0.1
 74
0
 49
-0.05
 74
0
 49
0.1
 74
0
 49
-0.05
 74
0
  0
LTYPE
  5
1F8
100
AcDbSymbolTableRecord
100
AcDbLinetypeTableRecord
  2
DOT
 70
64
  3
. . . . . . . . . . . . . . . . . . . .
 72
65
 73
2
 40
0.2
 49
0.1
 74
0
 49
-0.1
 74
0
  0
LTYPE
  5
1F9
100
AcDbSymbolTableRecord
100
AcDbLinetypeTableRecord
  2
DASHED
 70
64
  3
- - - - - - - - - - - - - - - - - - - -
 72
65
 73
2
 40
0.2
 49
0.1
 74
0
 49
-0.1
 74
0
  0
ENDTAB
  0
TABLE
  2
LAYER
  5
2
100
AcDbSymbolTable
 70
36
  0
LAYER
  5
10
100
AcDbSymbolTableRecord
100
AcDbLayerTableRecord
  2
0
 70
0
 62
7
  6
CONTINUOUS
370
-3
390
F
  0
LAYER
  5
1FA
100
AcDbSymbolTableRecord
100
AcDbLayerTableRecord
  2
DEFAULT_1
 70
0
 62
7
  6
CENTER
370
-3
390
F
  0
LAYER
  5
1FB
100
AcDbSymbolTableRecord
100
AcDbLayerTableRecord
  2
DEFAULT_2
 70
0
 62
8
  6
HIDDEN
370
-3
390
F
  0
LAYER
  5
1FC
100
AcDbSymbolTableRecord
100
AcDbLayerTableRecord
  2
DEFAULT_3
 70
0
 62
7
  6
PHANTOM
370
-3
390
F
  0
LAYER
  5
1FD
100
AcDbSymbolTableRecord
100
AcDbLayerTableRecord
  2
_2D_DELETED_OBJS
 70
0
 62
7
  6
CONTINUOUS
370
-3
390
F
  0
LAYER
  5
1FE
100
AcDbSymbolTableRecord
100
AcDbLayerTableRecord
  2
_BLACK_HOLE
 70
0
 62
7
  6
CONTINUOUS
370
-3
390
F
  0
LAYER
  5
1FF
100
AcDbSymbolTableRecord
100
AcDbLayerTableRecord
  2
ACHSEN
 70
0
 62
7
  6
CONTINUOUS
370
-3
390
F
  0
LAYER
  5
200
100
AcDbSymbolTableRecord
100
AcDbLayerTableRecord
  2
AXIS
 70
0
 62
7
  6
CONTINUOUS
370
-3
390
F
  0
LAYER
  5
201
100
AcDbSymbolTableRecord
100
AcDbLayerTableRecord
  2
DIMENSIONS
 70
0
 62
7
  6
CONTINUOUS
370
-3
390
F
  0
LAYER
  5
202
100
AcDbSymbolTableRecord
100
AcDbLayerTableRecord
  2
EBENEN
 70
0
 62
7
  6
CONTINUOUS
370
-3
390
F
  0
LAYER
  5
203
100
AcDbSymbolTableRecord
100
AcDbLayerTableRecord
  2
FASEN
 70
0
 62
7
  6
CONTINUOUS
370
-3
390
F
  0
LAYER
  5
204
100
AcDbSymbolTableRecord
100
AcDbLayerTableRecord
  2
FLAECHEN
 70
0
 62
7
  6
CONTINUOUS
370
-3
390
F
  0
LAYER
  5
205
100
AcDbSymbolTableRecord
100
AcDbLayerTableRecord
  2
HOLES
 70
0
 62
7
  6
CONTINUOUS
370
-3
390
F
  0
LAYER
  5
206
100
AcDbSymbolTableRecord
100
AcDbLayerTableRecord
  2
KOERPER
 70
0
 62
7
  6
CONTINUOUS
370
-3
390
F
  0
LAYER
  5
207
100
AcDbSymbolTableRecord
100
AcDbLayerTableRecord
  2
KURVEN
 70
0
 62
7
  6
CONTINUOUS
370
-3
390
F
  0
LAYER
  5
208
100
AcDbSymbolTableRecord
100
AcDbLayerTableRecord
  2
ORI_FL
 70
0
 62
7
  6
CONTINUOUS
370
-3
390
F
  0
LAYER
  5
209
100
AcDbSymbolTableRecord
100
AcDbLayerTableRecord
  2
PUNKTE
 70
0
 62
7
  6
CONTINUOUS
370
-3
390
F
  0
LAYER
  5
20A
100
AcDbSymbolTableRecord
100
AcDbLayerTableRecord
  2
QUILTS
 70
0
 62
7
  6
CONTINUOUS
370
-3
390
F
  0
LAYER
  5
20B
100
AcDbSymbolTableRecord
100
AcDbLayerTableRecord
  2
ROUNDS
 70
0
 62
7
  6
CONTINUOUS
370
-3
390
F
  0
LAYER
  5
20C
100
AcDbSymbolTableRecord
100
AcDbLayerTableRecord
  2
SAMMELFLAECHEN
 70
0
 62
7
  6
CONTINUOUS
370
-3
390
F
  0
LAYER
  5
20D
100
AcDbSymbolTableRecord
100
AcDbLayerTableRecord
  2
SKETCH
 70
0
 62
7
  6
CONTINUOUS
370
-3
390
F
  0
LAYER
  5
20E
100
AcDbSymbolTableRecord
100
AcDbLayerTableRecord
  2
SOLIDS
 70
0
 62
7
  6
CONTINUOUS
370
-3
390
F
  0
ENDTAB
  0
TABLE
  2
STYLE
  5
3
100
AcDbSymbolTable
 70
1
  0
STYLE
  5
11
100
AcDbSymbolTableRecord
100
AcDbTextStyleTableRecord
  2
STANDARD
 70
0
 40
0.0
 41
0.8
 50
0.0
 71
0
 42
0.2
  3
txt
  4

  0
ENDTAB
  0
TABLE
  2
VIEW
  5
6
100
AcDbSymbolTable
 70
0
  0
ENDTAB
  0
TABLE
  2
UCS
  5
7
100
AcDbSymbolTable
 70
0
  0
ENDTAB
  0
TABLE
  2
APPID
  5
9
100
AcDbSymbolTable
 70
1
  0
APPID
  5
20F
100
AcDbSymbolTableRecord
100
AcDbRegAppTableRecord
  2
ACAD
 70
0
  0
ENDTAB
  0
TABLE
  2
BLOCK_RECORD
  5
1
100
AcDbSymbolTable
 70
0
  0
BLOCK_RECORD
  5
1F
100
AcDbSymbolTableRecord
100
AcDbBlockTableRecord
  2
*MODEL_SPACE
  0
BLOCK_RECORD
  5
1B
100
AcDbSymbolTableRecord
100
AcDbBlockTableRecord
  2
*PAPER_SPACE
  0
BLOCK_RECORD
  5
210
100
AcDbSymbolTableRecord
100
AcDbBlockTableRecord
  2
_FILLED
  0
BLOCK_RECORD
  5
211
100
AcDbSymbolTableRecord
100
AcDbBlockTableRecord
  2
*D0
  0
BLOCK_RECORD
  5
212
100
AcDbSymbolTableRecord
100
AcDbBlockTableRecord
  2
*D1
  0
BLOCK_RECORD
  5
213
100
AcDbSymbolTableRecord
100
AcDbBlockTableRecord
  2
*D2
  0
BLOCK_RECORD
  5
214
100
AcDbSymbolTableRecord
100
AcDbBlockTableRecord
  2
*D3
  0
ENDTAB
  0
TABLE
  2
DIMSTYLE
  5
A
100
AcDbSymbolTable
 70
1
100
AcDbDimStyleTable
 71
0
  0
DIMSTYLE
105
215
100
AcDbSymbolTableRecord
100
AcDbDimStyleTableRecord
  2
STANDARD
 70
0
  3

  4

 40
1.0
 41
2.5
 42
0.0625
 43
0.38
 44
0.18
 45
0.0
 46
0.0
 47
0.01
 48
0.01
140
2.5
141
0.09
142
0.0
143
25.4
144
1.0
145
0.0
146
1.0
147
0.09
 71
1.0
 72
0.0
 73
0
 74
0
 75
0
 76
0
 77
1
 78
8
170
0
171
2
172
0
173
0
174
0
175
0
176
0
177
0
178
5
270
2
271
2
272
2
273
2
274
2
275
0
280
0
281
0
282
0
283
1
284
8
285
0
286
0
287
3
288
0
340
11
341
210
342
210
343
210
344
210
  0
DIMSTYLE
105
216
100
AcDbSymbolTableRecord
100
AcDbDimStyleTableRecord
  2
DIMSTYLE_1
 70
0
  3

  4

 40
1.0
 41
2.5
 42
0.0625
 43
0.38
 44
0.18
 45
0.0
 46
0.0
 47
0.3
 48
0.3
140
2.5
141
0.09
142
0.0
143
25.4
144
1.0
145
0.0
146
1.0
147
0.09
 71
0.0
 72
0.0
 73
0
 74
0
 75
0
 76
0
 77
1
 78
8
170
0
171
2
172
0
173
0
174
0
175
0
176
0
177
0
178
5
270
2
271
2
272
2
273
2
274
2
275
0
280
0
281
0
282
0
283
1
284
8
285
0
286
0
287
3
288
0
340
11
341
210
342
210
343
210
344
210
  0
DIMSTYLE
105
217
100
AcDbSymbolTableRecord
100
AcDbDimStyleTableRecord
  2
DIMSTYLE_2
 70
0
  3

  4

 40
1.0
 41
2.5
 42
0.0625
 43
0.38
 44
0.18
 45
0.0
 46
0.0
 47
0.2
 48
0.2
140
2.5
141
0.09
142
0.0
143
25.4
144
1.0
145
0.0
146
1.0
147
0.09
 71
0.0
 72
0.0
 73
0
 74
0
 75
0
 76
0
 77
1
 78
8
170
0
171
2
172
0
173
0
174
0
175
0
176
0
177
0
178
5
270
2
271
2
272
2
273
2
274
2
275
0
280
0
281
0
282
0
283
1
284
8
285
0
286
0
287
3
288
0
340
11
341
210
342
210
343
210
344
210
  0
ENDTAB
  0
ENDSEC
  0
SECTION
  2
BLOCKS
  0
BLOCK
  5
20
100
AcDbEntity
  8
0
100
AcDbBlockBegin
  2
*MODEL_SPACE
 70
0
 10
0.0
 20
0.0
 30
0.0
  3
*MODEL_SPACE
  1

  0
ENDBLK
  5
21
100
AcDbEntity
  8
0
100
AcDbBlockEnd
  0
BLOCK
  5
1C
100
AcDbEntity
  8
0
100
AcDbBlockBegin
  2
*PAPER_SPACE
 70
0
 10
0.0
 20
0.0
 30
0.0
  3
*PAPER_SPACE
  1

  0
ENDBLK
  5
1D
100
AcDbEntity
  8
0
100
AcDbBlockEnd
  0
BLOCK
  5
218
100
AcDbEntity
  8
DIMENSIONS
100
AcDbBlockBegin
 62
2
  6
CONTINUOUS
  2
*D0
 70
65
 10
0.0
 20
0.0
  3
*D0
  1

  0
LINE
  5
219
100
AcDbEntity
  8
DIMENSIONS
100
AcDbLine
 62
2
  6
CONTINUOUS
 10
497.3364361702
 20
312.0961296193
 11
508.9912382769
 21
312.0961296193
  0
LINE
  5
21A
100
AcDbEntity
  8
DIMENSIONS
100
AcDbLine
 62
2
  6
CONTINUOUS
 10
497.3364361702
 20
212.0961296193
 11
508.9912382769
 21
212.0961296193
  0
LINE
  5
21B
100
AcDbEntity
  8
DIMENSIONS
100
AcDbLine
 62
2
  6
CONTINUOUS
 10
507.9912382769
 20
312.0961296193
 11
507.9912382769
 21
262.0961296193
  0
LINE
  5
21C
100
AcDbEntity
  8
DIMENSIONS
100
AcDbLine
 62
2
  6
CONTINUOUS
 10
507.9912382769
 20
212.0961296193
 11
507.9912382769
 21
262.0961296193
  0
INSERT
  5
21D
100
AcDbEntity
  8
DIMENSIONS
100
AcDbBlockReference
 62
2
  6
CONTINUOUS
  2
_FILLED
 10
507.9912382769
 20
312.0961296193
 41
2.5
 42
2.5
 43
2.5
 50
90.0
  0
INSERT
  5
21E
100
AcDbEntity
  8
DIMENSIONS
100
AcDbBlockReference
 62
2
  6
CONTINUOUS
  2
_FILLED
 10
507.9912382769
 20
212.0961296193
 41
2.5
 42
2.5
 43
2.5
 50
270.0
  0
ENDBLK
  5
21F
100
AcDbEntity
  8
0
  6
BYBLOCK
 62
0
100
AcDbBlockEnd
  0
BLOCK
  5
220
100
AcDbEntity
  8
DIMENSIONS
100
AcDbBlockBegin
 62
2
  6
CONTINUOUS
  2
*D1
 70
65
 10
0.0
 20
0.0
  3
*D1
  1

  0
LINE
  5
221
100
AcDbEntity
  8
DIMENSIONS
100
AcDbLine
 62
2
  6
CONTINUOUS
 10
97.3364361702
 20
30.0961296193
 11
97.3364361702
 21
14.6637779759
  0
LINE
  5
222
100
AcDbEntity
  8
DIMENSIONS
100
AcDbLine
 62
2
  6
CONTINUOUS
 10
86.3364361702
 20
30.0961296193
 11
86.3364361702
 21
14.6637779759
  0
LINE
  5
223
100
AcDbEntity
  8
DIMENSIONS
100
AcDbLine
 62
2
  6
CONTINUOUS
 10
97.3364361702
 20
15.6637779759
 11
104.8364361702
 21
15.6637779759
  0
LINE
  5
224
100
AcDbEntity
  8
DIMENSIONS
100
AcDbLine
 62
2
  6
CONTINUOUS
 10
104.8364361702
 20
15.6637779759
 11
91.8364361702
 21
15.6637779759
  0
LINE
  5
225
100
AcDbEntity
  8
DIMENSIONS
100
AcDbLine
 62
2
  6
CONTINUOUS
 10
86.3364361702
 20
15.6637779759
 11
78.8364361702
 21
15.6637779759
  0
LINE
  5
226
100
AcDbEntity
  8
DIMENSIONS
100
AcDbLine
 62
2
  6
CONTINUOUS
 10
78.8364361702
 20
15.6637779759
 11
91.8364361702
 21
15.6637779759
  0
INSERT
  5
227
100
AcDbEntity
  8
DIMENSIONS
100
AcDbBlockReference
 62
2
  6
CONTINUOUS
  2
_FILLED
 10
97.3364361702
 20
15.6637779759
 41
2.5
 42
2.5
 43
2.5
 50
180.0
  0
INSERT
  5
228
100
AcDbEntity
  8
DIMENSIONS
100
AcDbBlockReference
 62
2
  6
CONTINUOUS
  2
_FILLED
 10
86.3364361702
 20
15.6637779759
 41
2.5
 42
2.5
 43
2.5
  0
ENDBLK
  5
229
100
AcDbEntity
  8
0
  6
BYBLOCK
 62
0
100
AcDbBlockEnd
  0
BLOCK
  5
22A
100
AcDbEntity
  8
DIMENSIONS
100
AcDbBlockBegin
 62
2
  6
CONTINUOUS
  2
*D2
 70
65
 10
0.0
 20
0.0
  3
*D2
  1

  0
LINE
  5
22B
100
AcDbEntity
  8
DIMENSIONS
100
AcDbLine
 62
2
  6
CONTINUOUS
 10
31.021093498
 20
318.5961296193
 11
31.021093498
 21
341.9568701848
  0
LINE
  5
22C
100
AcDbEntity
  8
DIMENSIONS
100
AcDbLine
 62
2
  6
CONTINUOUS
 10
22.021093498
 20
332.0961296193
 11
22.021093498
 21
341.9568701848
  0
LINE
  5
22D
100
AcDbEntity
  8
DIMENSIONS
100
AcDbLine
 62
2
  6
CONTINUOUS
 10
31.021093498
 20
340.9568701848
 11
38.521093498
 21
340.9568701848
  0
LINE
  5
22E
100
AcDbEntity
  8
DIMENSIONS
100
AcDbLine
 62
2
  6
CONTINUOUS
 10
38.521093498
 20
340.9568701848
 11
26.521093498
 21
340.9568701848
  0
LINE
  5
22F
100
AcDbEntity
  8
DIMENSIONS
100
AcDbLine
 62
2
  6
CONTINUOUS
 10
22.021093498
 20
340.9568701848
 11
14.521093498
 21
340.9568701848
  0
LINE
  5
230
100
AcDbEntity
  8
DIMENSIONS
100
AcDbLine
 62
2
  6
CONTINUOUS
 10
14.521093498
 20
340.9568701848
 11
26.521093498
 21
340.9568701848
  0
INSERT
  5
231
100
AcDbEntity
  8
DIMENSIONS
100
AcDbBlockReference
 62
2
  6
CONTINUOUS
  2
_FILLED
 10
31.021093498
 20
340.9568701848
 41
2.5
 42
2.5
 43
2.5
 50
180.0
  0
INSERT
  5
232
100
AcDbEntity
  8
DIMENSIONS
100
AcDbBlockReference
 62
2
  6
CONTINUOUS
  2
_FILLED
 10
22.021093498
 20
340.9568701848
 41
2.5
 42
2.5
 43
2.5
  0
ENDBLK
  5
233
100
AcDbEntity
  8
0
  6
BYBLOCK
 62
0
100
AcDbBlockEnd
  0
BLOCK
  5
234
100
AcDbEntity
  8
DIMENSIONS
100
AcDbBlockBegin
 62
2
  6
CONTINUOUS
  2
*D3
 70
65
 10
0.0
 20
0.0
  3
*D3
  1

  0
LINE
  5
235
100
AcDbEntity
  8
DIMENSIONS
100
AcDbLine
 62
2
  6
CONTINUOUS
 10
497.3364361702
 20
312.0961296193
 11
509.0055145656
 21
312.0961296193
  0
LINE
  5
236
100
AcDbEntity
  8
DIMENSIONS
100
AcDbLine
 62
2
  6
CONTINUOUS
 10
497.3364361702
 20
331.0961296193
 11
509.0055145656
 21
331.0961296193
  0
LINE
  5
237
100
AcDbEntity
  8
DIMENSIONS
100
AcDbLine
 62
2
  6
CONTINUOUS
 10
508.0055145656
 20
312.0961296193
 11
508.0055145656
 21
321.5961296193
  0
LINE
  5
238
100
AcDbEntity
  8
DIMENSIONS
100
AcDbLine
 62
2
  6
CONTINUOUS
 10
508.0055145656
 20
331.0961296193
 11
508.0055145656
 21
321.5961296193
  0
INSERT
  5
239
100
AcDbEntity
  8
DIMENSIONS
100
AcDbBlockReference
 62
2
  6
CONTINUOUS
  2
_FILLED
 10
508.0055145656
 20
312.0961296193
 41
2.5
 42
2.5
 43
2.5
 50
270.0
  0
INSERT
  5
23A
100
AcDbEntity
  8
DIMENSIONS
100
AcDbBlockReference
 62
2
  6
CONTINUOUS
  2
_FILLED
 10
508.0055145656
 20
331.0961296193
 41
2.5
 42
2.5
 43
2.5
 50
90.0
  0
ENDBLK
  5
23B
100
AcDbEntity
  8
0
  6
BYBLOCK
 62
0
100
AcDbBlockEnd
  0
BLOCK
  5
23C
100
AcDbEntity
  8
0
100
AcDbBlockBegin
  2
_FILLED
 70
64
 10
0.0
 20
0.0
  3
_FILLED
  1

  0
SOLID
  5
23D
100
AcDbEntity
  8
0
  6
BYBLOCK
 62
0
100
AcDbTrace
 10
0.0
 20
0.0
 11
-1.0
 21
0.15
 12
-1.0
 22
-0.15
 13
-1.0
 23
-0.15
  0
ENDBLK
  5
23E
100
AcDbEntity
  8
0
  6
BYBLOCK
 62
0
100
AcDbBlockEnd
  0
ENDSEC
  0
SECTION
  2
ENTITIES
  0
DIMENSION
  5
23F
100
AcDbEntity
  8
DIMENSIONS
100
AcDbDimension
 62
2
  6
CONTINUOUS
  2
*D0
 10
507.9912382769
 20
212.0961296193
 11
507.3662382769
 21
259.4175581907
 70
160
 42
100.0
  3
DIMSTYLE_1
100
AcDbAlignedDimension
 13
497.3364361702
 23
312.0961296193
 14
497.3364361702
 24
212.0961296193
 50
270.0
100
AcDbRotatedDimension
  0
DIMENSION
  5
240
100
AcDbEntity
  8
DIMENSIONS
100
AcDbDimension
 62
2
  6
CONTINUOUS
  2
*D1
 10
86.3364361702
 20
15.6637779759
 11
90.4078647416
 21
16.2887779759
 70
160
 42
11.0
  3
DIMSTYLE_2
100
AcDbAlignedDimension
 13
97.3364361702
 23
30.0961296193
 14
86.3364361702
 24
30.0961296193
 50
180.0
100
AcDbRotatedDimension
  0
DIMENSION
  5
241
100
AcDbEntity
  8
DIMENSIONS
100
AcDbDimension
 62
2
  6
CONTINUOUS
  2
*D2
 10
22.021093498
 20
340.9568701848
 11
25.5389506409
 21
341.5818701848
 70
160
 42
9.0
  3
DIMSTYLE_2
100
AcDbAlignedDimension
 13
31.021093498
 23
318.5961296193
 14
22.021093498
 24
332.0961296193
 50
180.0
100
AcDbRotatedDimension
  0
DIMENSION
  5
242
100
AcDbEntity
  8
DIMENSIONS
100
AcDbDimension
 62
2
  6
CONTINUOUS
  2
*D3
 10
508.0055145656
 20
331.0961296193
 11
507.3805145656
 21
315.1675581907
 70
160
 42
19.0
  1
 Boden-\Pstaerke
  3
DIMSTYLE_2
100
AcDbAlignedDimension
 13
497.3364361702
 23
312.0961296193
 14
497.3364361702
 24
331.0961296193
 50
90.0
100
AcDbRotatedDimension
  0
SOLID
  5
243
100
AcDbEntity
  8
0
100
AcDbTrace
 62
5
  6
CONTINUOUS
 10
262.5080176061
 20
270.2080903015
 11
263.1746842727
 21
270.2821598544
 12
263.8413509394
 22
270.2080903015
 13
263.8413509394
 23
270.2080903015
  0
SOLID
  5
244
100
AcDbEntity
  8
0
100
AcDbTrace
 62
5
  6
CONTINUOUS
 10
263.8413509394
 20
270.2080903015
 11
261.9154250135
 21
270.0599398928
 12
262.5080176061
 22
270.2080903015
 13
262.5080176061
 23
270.2080903015
  0
SOLID
  5
245
100
AcDbEntity
  8
0
100
AcDbTrace
 62
5
  6
CONTINUOUS
 10
261.9154250135
 20
270.0599398928
 11
263.8413509394
 21
270.2080903015
 12
264.433943532
 22
270.0599398928
 13
264.433943532
 23
270.0599398928
  0
SOLID
  5
246
100
AcDbEntity
  8
0
100
AcDbTrace
 62
5
  6
CONTINUOUS
 10
264.433943532
 20
270.0599398928
 11
261.396906495
 21
269.8377199311
 12
261.9154250135
 22
270.0599398928
 13
261.9154250135
 23
270.0599398928
  0
SOLID
  5
247
100
AcDbEntity
  8
0
100
AcDbTrace
 62
5
  6
CONTINUOUS
 10
261.396906495
 20
269.8377199311
 11
264.433943532
 21
270.0599398928
 12
264.9524620505
 22
269.8377199311
 13
264.9524620505
 23
269.8377199311
  0
SOLID
  5
248
100
AcDbEntity
  8
0
100
AcDbTrace
 62
5
  6
CONTINUOUS
 10
264.9524620505
 20
269.8377199311
 11
260.9524620505
 21
269.5414191137
 12
261.396906495
 22
269.8377199311
 13
261.396906495
 23
269.8377199311
  0
SOLID
  5
249
100
AcDbEntity
  8
0
100
AcDbTrace
 62
5
  6
CONTINUOUS
 10
260.9524620505
 20
269.5414191137
 11
264.9524620505
 21
269.8377199311
 12
265.396906495
 22
269.4673450396
 13
265.396906495
 23
269.4673450396
  0
SOLID
  5
24A
100
AcDbEntity
  8
0
100
AcDbTrace
 62
5
  6
CONTINUOUS
 10
263.1746842727
 20
269.2451228174
 11
262.7302398283
 21
269.1710498736
 12
260.5820916801
 22
269.096969583
 13
260.5820916801
 23
269.096969583
  0
SOLID
  5
24B
100
AcDbEntity
  8
0
100
AcDbTrace
 62
5
  6
CONTINUOUS
 10
265.396906495
 20
269.4673450396
 11
263.1746842727
 21
269.2451228174
 12
260.5820916801
 22
269.096969583
 13
260.5820916801
 23
269.096969583
  0
SOLID
  5
24C
100
AcDbEntity
  8
0
100
AcDbTrace
 62
5
  6
CONTINUOUS
 10
265.396906495
 20
269.4673450396
 11
260.5820916801
 21
269.096969583
 12
260.9524620505
 22
269.5414191137
 13
260.9524620505
 23
269.5414191137
  0
SOLID
  5
24D
100
AcDbEntity
  8
0
100
AcDbTrace
 62
5
  6
CONTINUOUS
 10
260.5820916801
 20
269.096969583
 11
262.7302398283
 21
269.1710498736
 12
262.3598694579
 22
269.096969583
 13
262.3598694579
 23
269.096969583
  0
SOLID
  5
24E
100
AcDbEntity
  8
0
100
AcDbTrace
 62
5
  6
CONTINUOUS
 10
263.5450546431
 20
269.1710498736
 11
263.1746842727
 21
269.2451228174
 12
265.396906495
 22
269.4673450396
 13
265.396906495
 23
269.4673450396
  0
SOLID
  5
24F
100
AcDbEntity
  8
0
100
AcDbTrace
 62
5
  6
CONTINUOUS
 10
263.9154250135
 20
269.096969583
 11
263.5450546431
 21
269.1710498736
 12
265.396906495
 22
269.4673450396
 13
265.396906495
 23
269.4673450396
  0
SOLID
  5
250
100
AcDbEntity
  8
0
100
AcDbTrace
 62
5
  6
CONTINUOUS
 10
263.9154250135
 20
269.096969583
 11
265.396906495
 21
269.4673450396
 12
265.7672768653
 22
269.0229005952
 13
265.7672768653
 23
269.0229005952
  0
SOLID
  5
251
100
AcDbEntity
  8
0
100
AcDbTrace
 62
5
  6
CONTINUOUS
 10
265.7672768653
 20
269.0229005952
 11
264.2117213098
 21
268.9488265211
 12
263.9154250135
 22
269.096969583
 13
263.9154250135
 23
269.096969583
  0
SOLID
  5
252
100
AcDbEntity
  8
0
100
AcDbTrace
 62
5
  6
CONTINUOUS
 10
261.9894990876
 20
268.874752447
 11
261.7672768653
 21
268.6525302248
 12
260.2857953838
 22
268.5784601067
 13
260.2857953838
 23
268.5784601067
  0
SOLID
  5
253
100
AcDbEntity
  8
0
100
AcDbTrace
 62
5
  6
CONTINUOUS
 10
262.3598694579
 20
269.096969583
 11
261.9894990876
 21
268.874752447
 12
260.2857953838
 22
268.5784601067
 13
260.2857953838
 23
268.5784601067
  0
SOLID
  5
254
100
AcDbEntity
  8
0
100
AcDbTrace
 62
5
  6
CONTINUOUS
 10
262.3598694579
 20
269.096969583
 11
260.2857953838
 21
268.5784601067
 12
260.5820916801
 22
269.096969583
 13
260.5820916801
 23
269.096969583
  0
SOLID
  5
255
100
AcDbEntity
  8
0
100
AcDbTrace
 62
5
  6
CONTINUOUS
 10
264.5080176061
 20
268.7266042989
 11
264.2117213098
 21
268.9488265211
 12
265.7672768653
 22
269.0229005952
 13
265.7672768653
 23
269.0229005952
  0
SOLID
  5
256
100
AcDbEntity
  8
0
100
AcDbTrace
 62
5
  6
CONTINUOUS
 10
264.5080176061
 20
268.7266042989
 11
265.7672768653
 21
269.0229005952
 12
266.0635731616
 22
268.5784601067
 13
266.0635731616
 23
268.5784601067
  0
SOLID
  5
257
100
AcDbEntity
  8
0
100
AcDbTrace
 62
5
  6
CONTINUOUS
 10
266.0635731616
 20
268.5784601067
 11
264.7302398283
 21
268.5043820766
 12
264.5080176061
 22
268.7266042989
 13
264.5080176061
 23
268.7266042989
  0
SOLID
  5
258
100
AcDbEntity
  8
0
100
AcDbTrace
 62
5
  6
CONTINUOUS
 10
260.2857953838
 20
268.5784601067
 11
261.7672768653
 21
268.6525302248
 12
261.5450546431
 22
268.3562339285
 13
261.5450546431
 23
268.3562339285
  0
SOLID
  5
259
100
AcDbEntity
  8
0
100
AcDbTrace
 62
5
  6
CONTINUOUS
 10
264.8783879764
 20
268.2080857803
 11
264.7302398283
 21
268.5043820766
 12
266.0635731616
 22
268.5784601067
 13
266.0635731616
 23
268.5784601067
  0
SOLID
  5
25A
100
AcDbEntity
  8
0
100
AcDbTrace
 62
5
  6
CONTINUOUS
 10
264.8783879764
 20
268.2080857803
 11
266.0635731616
 21
268.5784601067
 12
266.2117213098
 22
268.0599398928
 13
266.2117213098
 23
268.0599398928
  0
SOLID
  5
25B
100
AcDbEntity
  8
0
100
AcDbTrace
 62
5
  6
CONTINUOUS
 10
261.5450546431
 20
268.3562339285
 11
261.3228324209
 21
268.0599398928
 12
260.0635731616
 22
267.9858635581
 13
260.0635731616
 23
267.9858635581
  0
SOLID
  5
25C
100
AcDbEntity
  8
0
100
AcDbTrace
 62
5
  6
CONTINUOUS
 10
261.5450546431
 20
268.3562339285
 11
260.0635731616
 21
267.9858635581
 12
260.2857953838
 22
268.5784601067
 13
260.2857953838
 23
268.5784601067
  0
SOLID
  5
25D
100
AcDbEntity
  8
0
100
AcDbTrace
 62
5
  6
CONTINUOUS
 10
266.2117213098
 20
268.0599398928
 11
264.9524620505
 21
267.9117894841
 12
264.8783879764
 22
268.2080857803
 13
264.8783879764
 23
268.2080857803
  0
SOLID
  5
25E
100
AcDbEntity
  8
0
100
AcDbTrace
 62
5
  6
CONTINUOUS
 10
260.0635731616
 20
267.9858635581
 11
261.3228324209
 21
268.0599398928
 12
261.2487583468
 22
267.6895672618
 13
261.2487583468
 23
267.6895672618
  0
SOLID
  5
25F
100
AcDbEntity
  8
0
100
AcDbTrace
 62
5
  6
CONTINUOUS
 10
265.0265361246
 20
267.5414191137
 11
264.9524620505
 21
267.9117894841
 12
266.2117213098
 22
268.0599398928
 13
266.2117213098
 23
268.0599398928
  0
SOLID
  5
260
100
AcDbEntity
  8
0
100
AcDbTrace
 62
5
  6
CONTINUOUS
 10
265.0265361246
 20
267.5414191137
 11
266.2117213098
 21
268.0599398928
 12
266.2857953838
 22
267.4673450396
 13
266.2857953838
 23
267.4673450396
  0
SOLID
  5
261
100
AcDbEntity
  8
0
100
AcDbTrace
 62
5
  6
CONTINUOUS
 10
261.2487583468
 20
267.6895672618
 11
259.9894990876
 21
267.3932709655
 12
260.0635731616
 22
267.9858635581
 13
260.0635731616
 23
267.9858635581
  0
SOLID
  5
262
100
AcDbEntity
  8
0
100
AcDbTrace
 62
5
  6
CONTINUOUS
 10
259.9894990876
 20
267.3932709655
 11
261.2487583468
 21
267.6895672618
 12
261.2487583468
 22
267.2451228174
 13
261.2487583468
 23
267.2451228174
  0
SOLID
  5
263
100
AcDbEntity
  8
0
100
AcDbTrace
 62
5
  6
CONTINUOUS
 10
266.2857953838
 20
267.4673450396
 11
264.9524620505
 21
267.1710487433
 12
265.0265361246
 22
267.5414191137
 13
265.0265361246
 23
267.5414191137
  0
SOLID
  5
264
100
AcDbEntity
  8
0
100
AcDbTrace
 62
5
  6
CONTINUOUS
 10
264.9524620505
 20
267.1710487433
 11
266.2857953838
 21
267.4673450396
 12
266.2117213098
 22
266.9488265211
 13
266.2117213098
 23
266.9488265211
  0
SOLID
  5
265
100
AcDbEntity
  8
0
100
AcDbTrace
 62
5
  6
CONTINUOUS
 10
266.2117213098
 20
266.9488265211
 11
264.8783879764
 21
266.874752447
 12
264.9524620505
 22
267.1710487433
 13
264.9524620505
 23
267.1710487433
  0
SOLID
  5
266
100
AcDbEntity
  8
0
100
AcDbTrace
 62
5
  6
CONTINUOUS
 10
264.6561657542
 20
266.5043820766
 11
264.8783879764
 21
266.874752447
 12
266.2117213098
 22
266.9488265211
 13
266.2117213098
 23
266.9488265211
  0
SOLID
  5
267
100
AcDbEntity
  8
0
100
AcDbTrace
 62
5
  6
CONTINUOUS
 10
264.6561657542
 20
266.5043820766
 11
266.2117213098
 21
266.9488265211
 12
265.9894990876
 22
266.3562339285
 13
265.9894990876
 23
266.3562339285
  0
SOLID
  5
268
100
AcDbEntity
  8
0
100
AcDbTrace
 62
5
  6
CONTINUOUS
 10
265.9894990876
 20
266.3562339285
 11
264.433943532
 21
266.1340117063
 12
264.6561657542
 22
266.5043820766
 13
264.6561657542
 23
266.5043820766
  0
SOLID
  5
269
100
AcDbEntity
  8
0
100
AcDbTrace
 62
5
  6
CONTINUOUS
 10
264.433943532
 20
266.1340117063
 11
265.9894990876
 21
266.3562339285
 12
265.9154250135
 22
266.0599376322
 13
265.9154250135
 23
266.0599376322
  0
SOLID
  5
26A
100
AcDbEntity
  8
0
100
AcDbTrace
 62
5
  6
CONTINUOUS
 10
265.9154250135
 20
266.0599376322
 11
264.2857953838
 21
265.9117894841
 12
264.433943532
 22
266.1340117063
 13
264.433943532
 23
266.1340117063
  0
SOLID
  5
26B
100
AcDbEntity
  8
0
100
AcDbTrace
 62
5
  6
CONTINUOUS
 10
264.2857953838
 20
265.9117894841
 11
265.9154250135
 21
266.0599376322
 12
265.6932027913
 22
265.7636413359
 13
265.6932027913
 23
265.7636413359
  0
SOLID
  5
26C
100
AcDbEntity
  8
0
100
AcDbTrace
 62
5
  6
CONTINUOUS
 10
265.6932027913
 20
265.7636413359
 11
264.0635731616
 21
265.6895672618
 12
264.2857953838
 22
265.9117894841
 13
264.2857953838
 23
265.9117894841
  0
SOLID
  5
26D
100
AcDbEntity
  8
0
100
AcDbTrace
 62
5
  6
CONTINUOUS
 10
263.8413509394
 20
265.4673501259
 11
264.0635731616
 21
265.6895672618
 12
265.6932027913
 22
265.7636413359
 13
265.6932027913
 23
265.7636413359
  0
SOLID
  5
26E
100
AcDbEntity
  8
0
100
AcDbTrace
 62
5
  6
CONTINUOUS
 10
263.8413509394
 20
265.4673501259
 11
265.6932027913
 21
265.7636413359
 12
265.470980569
 22
265.4673501259
 13
265.470980569
 23
265.4673501259
  0
SOLID
  5
26F
100
AcDbEntity
  8
0
100
AcDbTrace
 62
5
  6
CONTINUOUS
 10
265.470980569
 20
265.4673501259
 11
263.6191287172
 21
265.2451228174
 12
263.8413509394
 22
265.4673501259
 13
263.8413509394
 23
265.4673501259
  0
SOLID
  5
270
100
AcDbEntity
  8
0
100
AcDbTrace
 62
5
  6
CONTINUOUS
 10
263.6191287172
 20
265.2451228174
 11
265.470980569
 21
265.4673501259
 12
265.2487583468
 22
265.0969746692
 13
265.2487583468
 23
265.0969746692
  0
SOLID
  5
271
100
AcDbEntity
  8
0
100
AcDbTrace
 62
5
  6
CONTINUOUS
 10
265.2487583468
 20
265.0969746692
 11
263.3228324209
 21
264.9488265211
 12
263.6191287172
 22
265.2451228174
 13
263.6191287172
 23
265.2451228174
  0
SOLID
  5
272
100
AcDbEntity
  8
0
100
AcDbTrace
 62
5
  6
CONTINUOUS
 10
263.3228324209
 20
264.9488265211
 11
265.2487583468
 21
265.0969746692
 12
264.9524620505
 22
264.8006783729
 13
264.9524620505
 23
264.8006783729
  0
SOLID
  5
273
100
AcDbEntity
  8
0
100
AcDbTrace
 62
5
  6
CONTINUOUS
 10
264.9524620505
 20
264.8006783729
 11
262.9524620505
 21
264.6525302248
 12
263.3228324209
 22
264.9488265211
 13
263.3228324209
 23
264.9488265211
  0
SOLID
  5
274
100
AcDbEntity
  8
0
100
AcDbTrace
 62
5
  6
CONTINUOUS
 10
262.6561657542
 20
264.3562299725
 11
262.9524620505
 21
264.6525302248
 12
264.9524620505
 22
264.8006783729
 13
264.9524620505
 23
264.8006783729
  0
SOLID
  5
275
100
AcDbEntity
  8
0
100
AcDbTrace
 62
5
  6
CONTINUOUS
 10
262.6561657542
 20
264.3562299725
 11
264.9524620505
 21
264.8006783729
 12
264.5080176061
 22
264.3562299725
 13
264.5080176061
 23
264.3562299725
  0
SOLID
  5
276
100
AcDbEntity
  8
0
100
AcDbTrace
 62
5
  6
CONTINUOUS
 10
264.5080176061
 20
264.3562299725
 11
262.2117213098
 21
263.9858635581
 12
262.6561657542
 22
264.3562299725
 13
262.6561657542
 23
264.3562299725
  0
SOLID
  5
277
100
AcDbEntity
  8
0
100
AcDbTrace
 62
5
  6
CONTINUOUS
 10
262.2117213098
 20
263.9858635581
 11
264.5080176061
 21
264.3562299725
 12
263.9894990876
 22
263.9117894841
 13
263.9894990876
 23
263.9117894841
  0
SOLID
  5
278
100
AcDbEntity
  8
0
100
AcDbTrace
 62
5
  6
CONTINUOUS
 10
263.9894990876
 20
263.9117894841
 11
261.7672768653
 21
263.6154931878
 12
262.2117213098
 22
263.9858635581
 13
262.2117213098
 23
263.9858635581
  0
SOLID
  5
279
100
AcDbEntity
  8
0
100
AcDbTrace
 62
5
  6
CONTINUOUS
 10
261.7672768653
 20
263.6154931878
 11
263.9894990876
 21
263.9117894841
 12
263.396906495
 22
263.3932709655
 13
263.396906495
 23
263.3932709655
  0
SOLID
  5
27A
100
AcDbEntity
  8
0
100
AcDbTrace
 62
5
  6
CONTINUOUS
 10
263.396906495
 20
263.3932709655
 11
261.3228324209
 21
263.1710487433
 12
261.7672768653
 22
263.6154931878
 13
261.7672768653
 23
263.6154931878
  0
SOLID
  5
27B
100
AcDbEntity
  8
0
100
AcDbTrace
 62
5
  6
CONTINUOUS
 10
261.3228324209
 20
263.1710487433
 11
263.396906495
 21
263.3932709655
 12
262.9524620505
 22
262.9488265211
 13
262.9524620505
 23
262.9488265211
  0
SOLID
  5
27C
100
AcDbEntity
  8
0
100
AcDbTrace
 62
5
  6
CONTINUOUS
 10
262.9524620505
 20
262.9488265211
 11
260.9524620505
 21
262.8006783729
 12
261.3228324209
 22
263.1710487433
 13
261.3228324209
 23
263.1710487433
  0
SOLID
  5
27D
100
AcDbEntity
  8
0
100
AcDbTrace
 62
5
  6
CONTINUOUS
 10
260.9524620505
 20
262.8006783729
 11
262.9524620505
 21
262.9488265211
 12
262.5080176061
 22
262.6525302248
 13
262.5080176061
 23
262.6525302248
  0
SOLID
  5
27E
100
AcDbEntity
  8
0
100
AcDbTrace
 62
5
  6
CONTINUOUS
 10
262.5080176061
 20
262.6525302248
 11
260.6561657542
 21
262.5043820766
 12
260.9524620505
 22
262.8006783729
 13
260.9524620505
 23
262.8006783729
  0
SOLID
  5
27F
100
AcDbEntity
  8
0
100
AcDbTrace
 62
5
  6
CONTINUOUS
 10
260.6561657542
 20
262.5043820766
 11
262.5080176061
 21
262.6525302248
 12
262.2117213098
 22
262.3562339285
 13
262.2117213098
 23
262.3562339285
  0
SOLID
  5
280
100
AcDbEntity
  8
0
100
AcDbTrace
 62
5
  6
CONTINUOUS
 10
262.2117213098
 20
262.3562339285
 11
261.9894990876
 21
262.1340117063
 12
260.2117213098
 22
261.8377197898
 13
260.2117213098
 23
261.8377197898
  0
SOLID
  5
281
100
AcDbEntity
  8
0
100
AcDbTrace
 62
5
  6
CONTINUOUS
 10
262.2117213098
 20
262.3562339285
 11
260.2117213098
 21
261.8377197898
 12
260.6561657542
 22
262.5043820766
 13
260.6561657542
 23
262.5043820766
  0
SOLID
  5
282
100
AcDbEntity
  8
0
100
AcDbTrace
 62
5
  6
CONTINUOUS
 10
260.2117213098
 20
261.8377197898
 11
261.9894990876
 21
262.1340117063
 12
261.6932027913
 22
261.8377197898
 13
261.6932027913
 23
261.8377197898
  0
SOLID
  5
283
100
AcDbEntity
  8
0
100
AcDbTrace
 62
5
  6
CONTINUOUS
 10
261.470980569
 20
261.5414198201
 11
266.3598694579
 21
261.5414198201
 12
259.9154250135
 22
261.0969746692
 13
259.9154250135
 23
261.0969746692
  0
SOLID
  5
284
100
AcDbEntity
  8
0
100
AcDbTrace
 62
5
  6
CONTINUOUS
 10
261.6932027913
 20
261.8377197898
 11
261.470980569
 21
261.5414198201
 12
259.9154250135
 22
261.0969746692
 13
259.9154250135
 23
261.0969746692
  0
SOLID
  5
285
100
AcDbEntity
  8
0
100
AcDbTrace
 62
5
  6
CONTINUOUS
 10
261.6932027913
 20
261.8377197898
 11
259.9154250135
 21
261.0969746692
 12
260.2117213098
 22
261.8377197898
 13
260.2117213098
 23
261.8377197898
  0
SOLID
  5
286
100
AcDbEntity
  8
0
100
AcDbTrace
 62
5
  6
CONTINUOUS
 10
259.8413509394
 20
260.7266042989
 11
259.9154250135
 21
261.0969746692
 12
266.3598694579
 22
261.5414198201
 13
266.3598694579
 23
261.5414198201
  0
SOLID
  5
287
100
AcDbEntity
  8
0
100
AcDbTrace
 62
5
  6
CONTINUOUS
 10
259.8413509394
 20
260.2821598544
 11
259.8413509394
 21
260.7266042989
 12
266.3598694579
 22
261.5414198201
 13
266.3598694579
 23
261.5414198201
  0
SOLID
  5
288
100
AcDbEntity
  8
0
100
AcDbTrace
 62
5
  6
CONTINUOUS
 10
259.8413509394
 20
260.2821598544
 11
266.3598694579
 21
261.5414198201
 12
266.3598694579
 22
260.2821598544
 13
266.3598694579
 23
260.2821598544
  0
SOLID
  5
289
100
AcDbEntity
  8
0
100
AcDbTrace
 62
5
  6
CONTINUOUS
 10
269.8413509394
 20
268.8747496213
 11
273.6932027913
 21
270.1340094457
 12
273.6932027913
 22
268.8747496213
 13
273.6932027913
 23
268.8747496213
  0
SOLID
  5
28A
100
AcDbEntity
  8
0
100
AcDbTrace
 62
5
  6
CONTINUOUS
 10
270.6561657542
 20
266.8747496213
 11
271.1746842727
 21
266.9488265211
 12
271.7672768653
 22
266.8747496213
 13
271.7672768653
 23
266.8747496213
  0
SOLID
  5
28B
100
AcDbEntity
  8
0
100
AcDbTrace
 62
5
  6
CONTINUOUS
 10
271.7672768653
 20
266.8747496213
 11
270.2117213098
 21
266.7266042989
 12
270.6561657542
 22
266.8747496213
 13
270.6561657542
 23
266.8747496213
  0
SOLID
  5
28C
100
AcDbEntity
  8
0
100
AcDbTrace
 62
5
  6
CONTINUOUS
 10
270.2117213098
 20
266.7266042989
 11
271.7672768653
 21
266.8747496213
 12
272.3598694579
 22
266.6525302248
 13
272.3598694579
 23
266.6525302248
  0
SOLID
  5
28D
100
AcDbEntity
  8
0
100
AcDbTrace
 62
5
  6
CONTINUOUS
 10
272.3598694579
 20
266.6525302248
 11
269.7672768653
 21
266.5043820766
 12
270.2117213098
 22
266.7266042989
 13
270.2117213098
 23
266.7266042989
  0
SOLID
  5
28E
100
AcDbEntity
  8
0
100
AcDbTrace
 62
5
  6
CONTINUOUS
 10
269.7672768653
 20
266.5043820766
 11
272.3598694579
 21
266.6525302248
 12
272.8043139024
 22
266.4303080026
 13
272.8043139024
 23
266.4303080026
  0
SOLID
  5
28F
100
AcDbEntity
  8
0
100
AcDbTrace
 62
5
  6
CONTINUOUS
 10
272.8043139024
 20
266.4303080026
 11
269.3228324209
 21
266.2080857803
 12
269.7672768653
 22
266.5043820766
 13
269.7672768653
 23
266.5043820766
  0
SOLID
  5
290
100
AcDbEntity
  8
0
100
AcDbTrace
 62
5
  6
CONTINUOUS
 10
269.3228324209
 20
266.2080857803
 11
272.8043139024
 21
266.4303080026
 12
273.3228324209
 22
265.9858635581
 13
273.3228324209
 23
265.9858635581
  0
SOLID
  5
291
100
AcDbEntity
  8
0
100
AcDbTrace
 62
5
  6
CONTINUOUS
 10
270.2857953838
 20
265.6895700875
 11
270.8783879764
 21
265.7636413359
 12
270.5820916801
 22
265.6895700875
 13
270.5820916801
 23
265.6895700875
  0
SOLID
  5
292
100
AcDbEntity
  8
0
100
AcDbTrace
 62
5
  6
CONTINUOUS
 10
271.3228324209
 20
265.6895700875
 11
270.8783879764
 21
265.7636413359
 12
273.3228324209
 22
265.9858635581
 13
273.3228324209
 23
265.9858635581
  0
SOLID
  5
293
100
AcDbEntity
  8
0
100
AcDbTrace
 62
5
  6
CONTINUOUS
 10
271.7672768653
 20
265.6154897969
 11
271.3228324209
 21
265.6895700875
 12
273.3228324209
 22
265.9858635581
 13
273.3228324209
 23
265.9858635581
  0
SOLID
  5
294
100
AcDbEntity
  8
0
100
AcDbTrace
 62
5
  6
CONTINUOUS
 10
271.7672768653
 20
265.6154897969
 11
273.3228324209
 21
265.9858635581
 12
273.6932027913
 22
265.5414191137
 13
273.6932027913
 23
265.5414191137
  0
SOLID
  5
295
100
AcDbEntity
  8
0
100
AcDbTrace
 62
5
  6
CONTINUOUS
 10
273.6932027913
 20
265.5414191137
 11
272.0635731616
 21
265.3932709655
 12
271.7672768653
 22
265.6154897969
 13
271.7672768653
 23
265.6154897969
  0
SOLID
  5
296
100
AcDbEntity
  8
0
100
AcDbTrace
 62
5
  6
CONTINUOUS
 10
269.8413509394
 20
265.4673450396
 11
269.470980569
 21
265.1710498736
 12
267.9154250135
 22
265.0229005952
 13
267.9154250135
 23
265.0229005952
  0
SOLID
  5
297
100
AcDbEntity
  8
0
100
AcDbTrace
 62
5
  6
CONTINUOUS
 10
270.0635731616
 20
265.6154897969
 11
269.8413509394
 21
265.4673450396
 12
267.9154250135
 22
265.0229005952
 13
267.9154250135
 23
265.0229005952
  0
SOLID
  5
298
100
AcDbEntity
  8
0
100
AcDbTrace
 62
5
  6
CONTINUOUS
 10
270.2857953838
 20
265.6895700875
 11
270.0635731616
 21
265.6154897969
 12
267.9154250135
 22
265.0229005952
 13
267.9154250135
 23
265.0229005952
  0
SOLID
  5
299
100
AcDbEntity
  8
0
100
AcDbTrace
 62
5
  6
CONTINUOUS
 10
269.3228324209
 20
266.2080857803
 11
273.3228324209
 21
265.9858635581
 12
270.8783879764
 22
265.7636413359
 13
270.8783879764
 23
265.7636413359
  0
SOLID
  5
29A
100
AcDbEntity
  8
0
100
AcDbTrace
 62
5
  6
CONTINUOUS
 10
269.3228324209
 20
266.2080857803
 11
270.8783879764
 21
265.7636413359
 12
270.2857953838
 22
265.6895700875
 13
270.2857953838
 23
265.6895700875
  0
SOLID
  5
29B
100
AcDbEntity
  8
0
100
AcDbTrace
 62
5
  6
CONTINUOUS
 10
269.3228324209
 20
266.2080857803
 11
270.2857953838
 21
265.6895700875
 12
267.9154250135
 22
265.0229005952
 13
267.9154250135
 23
265.0229005952
  0
SOLID
  5
29C
100
AcDbEntity
  8
0
100
AcDbTrace
 62
5
  6
CONTINUOUS
 10
269.8413509394
 20
268.8747496213
 11
269.3228324209
 21
266.2080857803
 12
267.9154250135
 22
265.0229005952
 13
267.9154250135
 23
265.0229005952
  0
SOLID
  5
29D
100
AcDbEntity
  8
0
100
AcDbTrace
 62
5
  6
CONTINUOUS
 10
268.9524620505
 20
270.1340094457
 11
273.6932027913
 21
270.1340094457
 12
269.8413509394
 22
268.8747496213
 13
269.8413509394
 23
268.8747496213
  0
SOLID
  5
29E
100
AcDbEntity
  8
0
100
AcDbTrace
 62
5
  6
CONTINUOUS
 10
269.8413509394
 20
268.8747496213
 11
267.9154250135
 21
265.0229005952
 12
268.9524620505
 22
270.1340094457
 13
268.9524620505
 23
270.1340094457
  0
SOLID
  5
29F
100
AcDbEntity
  8
0
100
AcDbTrace
 62
5
  6
CONTINUOUS
 10
272.3598694579
 20
265.1710498736
 11
272.0635731616
 21
265.3932709655
 12
273.6932027913
 22
265.5414191137
 13
273.6932027913
 23
265.5414191137
  0
SOLID
  5
2A0
100
AcDbEntity
  8
0
100
AcDbTrace
 62
5
  6
CONTINUOUS
 10
272.3598694579
 20
265.1710498736
 11
273.6932027913
 21
265.5414191137
 12
273.9894990876
 22
264.9488265211
 13
273.9894990876
 23
264.9488265211
  0
SOLID
  5
2A1
100
AcDbEntity
  8
0
100
AcDbTrace
 62
5
  6
CONTINUOUS
 10
267.9154250135
 20
265.0229005952
 11
269.470980569
 21
265.1710498736
 12
269.1746842727
 22
264.874752447
 13
269.1746842727
 23
264.874752447
  0
SOLID
  5
2A2
100
AcDbEntity
  8
0
100
AcDbTrace
 62
5
  6
CONTINUOUS
 10
273.9894990876
 20
264.9488265211
 11
272.5820916801
 21
264.8006783729
 12
272.3598694579
 22
265.1710498736
 13
272.3598694579
 23
265.1710498736
  0
SOLID
  5
2A3
100
AcDbEntity
  8
0
100
AcDbTrace
 62
5
  6
CONTINUOUS
 10
272.8043139024
 20
264.4303080026
 11
272.5820916801
 21
264.8006783729
 12
273.9894990876
 22
264.9488265211
 13
273.9894990876
 23
264.9488265211
  0
SOLID
  5
2A4
100
AcDbEntity
  8
0
100
AcDbTrace
 62
5
  6
CONTINUOUS
 10
272.8043139024
 20
264.4303080026
 11
273.9894990876
 21
264.9488265211
 12
274.1376472357
 22
264.3562339285
 13
274.1376472357
 23
264.3562339285
  0
SOLID
  5
2A5
100
AcDbEntity
  8
0
100
AcDbTrace
 62
5
  6
CONTINUOUS
 10
274.1376472357
 20
264.3562339285
 11
272.8783879764
 21
263.9858635581
 12
272.8043139024
 22
264.4303080026
 13
272.8043139024
 23
264.4303080026
  0
SOLID
  5
2A6
100
AcDbEntity
  8
0
100
AcDbTrace
 62
5
  6
CONTINUOUS
 10
272.8783879764
 20
263.9858635581
 11
274.1376472357
 21
264.3562339285
 12
274.2117213098
 22
263.6895672618
 13
274.2117213098
 23
263.6895672618
  0
SOLID
  5
2A7
100
AcDbEntity
  8
0
100
AcDbTrace
 62
5
  6
CONTINUOUS
 10
274.2117213098
 20
263.6895672618
 11
272.9524620505
 21
263.5414191137
 12
272.8783879764
 22
263.9858635581
 13
272.8783879764
 23
263.9858635581
  0
SOLID
  5
2A8
100
AcDbEntity
  8
0
100
AcDbTrace
 62
5
  6
CONTINUOUS
 10
272.8783879764
 20
263.0228997475
 11
272.9524620505
 21
263.5414191137
 12
274.2117213098
 22
263.6895672618
 13
274.2117213098
 23
263.6895672618
  0
SOLID
  5
2A9
100
AcDbEntity
  8
0
100
AcDbTrace
 62
5
  6
CONTINUOUS
 10
272.8783879764
 20
263.0228997475
 11
274.2117213098
 21
263.6895672618
 12
274.1376472357
 22
263.0228997475
 13
274.1376472357
 23
263.0228997475
  0
SOLID
  5
2AA
100
AcDbEntity
  8
0
100
AcDbTrace
 62
5
  6
CONTINUOUS
 10
267.7672768653
 20
262.9488265211
 11
269.0265361246
 21
263.0228997475
 12
269.1006101987
 22
262.5784598241
 13
269.1006101987
 23
262.5784598241
  0
SOLID
  5
2AB
100
AcDbEntity
  8
0
100
AcDbTrace
 62
5
  6
CONTINUOUS
 10
274.1376472357
 20
263.0228997475
 11
272.8043139024
 21
262.5784598241
 12
272.8783879764
 22
263.0228997475
 13
272.8783879764
 23
263.0228997475
  0
SOLID
  5
2AC
100
AcDbEntity
  8
0
100
AcDbTrace
 62
5
  6
CONTINUOUS
 10
272.8043139024
 20
262.5784598241
 11
274.1376472357
 21
263.0228997475
 12
273.9894990876
 22
262.4303080026
 13
273.9894990876
 23
262.4303080026
  0
SOLID
  5
2AD
100
AcDbEntity
  8
0
100
AcDbTrace
 62
5
  6
CONTINUOUS
 10
269.1006101987
 20
262.5784598241
 11
267.8413509394
 21
262.2821598544
 12
267.7672768653
 22
262.9488265211
 13
267.7672768653
 23
262.9488265211
  0
SOLID
  5
2AE
100
AcDbEntity
  8
0
100
AcDbTrace
 62
5
  6
CONTINUOUS
 10
267.8413509394
 20
262.2821598544
 11
269.1006101987
 21
262.5784598241
 12
269.2487583468
 22
262.2080857803
 13
269.2487583468
 23
262.2080857803
  0
SOLID
  5
2AF
100
AcDbEntity
  8
0
100
AcDbTrace
 62
5
  6
CONTINUOUS
 10
273.9894990876
 20
262.4303080026
 11
272.5820916801
 21
262.1340117063
 12
272.8043139024
 22
262.5784598241
 13
272.8043139024
 23
262.5784598241
  0
SOLID
  5
2B0
100
AcDbEntity
  8
0
100
AcDbTrace
 62
5
  6
CONTINUOUS
 10
272.5820916801
 20
262.1340117063
 11
273.9894990876
 21
262.4303080026
 12
273.7672768653
 22
261.8377197898
 13
273.7672768653
 23
261.8377197898
  0
SOLID
  5
2B1
100
AcDbEntity
  8
0
100
AcDbTrace
 62
5
  6
CONTINUOUS
 10
269.2487583468
 20
262.2080857803
 11
269.396906495
 21
261.8377197898
 12
268.0635731616
 22
261.7636399231
 13
268.0635731616
 23
261.7636399231
  0
SOLID
  5
2B2
100
AcDbEntity
  8
0
100
AcDbTrace
 62
5
  6
CONTINUOUS
 10
269.2487583468
 20
262.2080857803
 11
268.0635731616
 21
261.7636399231
 12
267.8413509394
 22
262.2821598544
 13
267.8413509394
 23
262.2821598544
  0
SOLID
  5
2B3
100
AcDbEntity
  8
0
100
AcDbTrace
 62
5
  6
CONTINUOUS
 10
273.7672768653
 20
261.8377197898
 11
272.3598694579
 21
261.7636399231
 12
272.5820916801
 22
262.1340117063
 13
272.5820916801
 23
262.1340117063
  0
SOLID
  5
2B4
100
AcDbEntity
  8
0
100
AcDbTrace
 62
5
  6
CONTINUOUS
 10
268.0635731616
 20
261.7636399231
 11
269.396906495
 21
261.8377197898
 12
269.6191287172
 22
261.6154931878
 13
269.6191287172
 23
261.6154931878
  0
SOLID
  5
2B5
100
AcDbEntity
  8
0
100
AcDbTrace
 62
5
  6
CONTINUOUS
 10
269.6191287172
 20
261.6154931878
 11
269.9154250135
 21
261.3932709655
 12
268.2857953838
 22
261.3191998584
 13
268.2857953838
 23
261.3191998584
  0
SOLID
  5
2B6
100
AcDbEntity
  8
0
100
AcDbTrace
 62
5
  6
CONTINUOUS
 10
269.6191287172
 20
261.6154931878
 11
268.2857953838
 21
261.3191998584
 12
268.0635731616
 22
261.7636399231
 13
268.0635731616
 23
261.7636399231
  0
SOLID
  5
2B7
100
AcDbEntity
  8
0
100
AcDbTrace
 62
5
  6
CONTINUOUS
 10
272.0635731616
 20
261.4673450396
 11
272.3598694579
 21
261.7636399231
 12
273.7672768653
 22
261.8377197898
 13
273.7672768653
 23
261.8377197898
  0
SOLID
  5
2B8
100
AcDbEntity
  8
0
100
AcDbTrace
 62
5
  6
CONTINUOUS
 10
271.6932027913
 20
261.3191998584
 11
272.0635731616
 21
261.4673450396
 12
273.7672768653
 22
261.8377197898
 13
273.7672768653
 23
261.8377197898
  0
SOLID
  5
2B9
100
AcDbEntity
  8
0
100
AcDbTrace
 62
5
  6
CONTINUOUS
 10
271.6932027913
 20
261.3191998584
 11
273.7672768653
 21
261.8377197898
 12
273.396906495
 22
261.3191998584
 13
273.396906495
 23
261.3191998584
  0
SOLID
  5
2BA
100
AcDbEntity
  8
0
100
AcDbTrace
 62
5
  6
CONTINUOUS
 10
268.2857953838
 20
261.3191998584
 11
269.9154250135
 21
261.3932709655
 12
270.1376472357
 22
261.2451228174
 13
270.1376472357
 23
261.2451228174
  0
SOLID
  5
2BB
100
AcDbEntity
  8
0
100
AcDbTrace
 62
5
  6
CONTINUOUS
 10
273.396906495
 20
261.3191998584
 11
271.3228324209
 21
261.1710498736
 12
271.6932027913
 22
261.3191998584
 13
271.6932027913
 23
261.3191998584
  0
SOLID
  5
2BC
100
AcDbEntity
  8
0
100
AcDbTrace
 62
5
  6
CONTINUOUS
 10
271.3228324209
 20
261.1710498736
 11
273.396906495
 21
261.3191998584
 12
273.1746842727
 22
261.0229005952
 13
273.1746842727
 23
261.0229005952
  0
SOLID
  5
2BD
100
AcDbEntity
  8
0
100
AcDbTrace
 62
5
  6
CONTINUOUS
 10
271.3228324209
 20
261.1710498736
 11
273.1746842727
 21
261.0229005952
 12
268.6561657542
 22
260.874752447
 13
268.6561657542
 23
260.874752447
  0
SOLID
  5
2BE
100
AcDbEntity
  8
0
100
AcDbTrace
 62
5
  6
CONTINUOUS
 10
270.8783879764
 20
261.1710498736
 11
271.3228324209
 21
261.1710498736
 12
268.6561657542
 22
260.874752447
 13
268.6561657542
 23
260.874752447
  0
SOLID
  5
2BF
100
AcDbEntity
  8
0
100
AcDbTrace
 62
5
  6
CONTINUOUS
 10
270.5080176061
 20
261.1710498736
 11
270.8783879764
 21
261.1710498736
 12
268.6561657542
 22
260.874752447
 13
268.6561657542
 23
260.874752447
  0
SOLID
  5
2C0
100
AcDbEntity
  8
0
100
AcDbTrace
 62
5
  6
CONTINUOUS
 10
270.1376472357
 20
261.2451228174
 11
270.5080176061
 21
261.1710498736
 12
268.6561657542
 22
260.874752447
 13
268.6561657542
 23
260.874752447
  0
SOLID
  5
2C1
100
AcDbEntity
  8
0
100
AcDbTrace
 62
5
  6
CONTINUOUS
 10
270.1376472357
 20
261.2451228174
 11
268.6561657542
 21
260.874752447
 12
268.2857953838
 22
261.3191998584
 13
268.2857953838
 23
261.3191998584
  0
SOLID
  5
2C2
100
AcDbEntity
  8
0
100
AcDbTrace
 62
5
  6
CONTINUOUS
 10
268.6561657542
 20
260.874752447
 11
273.1746842727
 21
261.0229005952
 12
272.8783879764
 22
260.8006783729
 13
272.8783879764
 23
260.8006783729
  0
SOLID
  5
2C3
100
AcDbEntity
  8
0
100
AcDbTrace
 62
5
  6
CONTINUOUS
 10
272.8783879764
 20
260.8006783729
 11
272.5820916801
 21
260.5784561507
 12
269.1746842727
 22
260.5043820766
 13
269.1746842727
 23
260.5043820766
  0
SOLID
  5
2C4
100
AcDbEntity
  8
0
100
AcDbTrace
 62
5
  6
CONTINUOUS
 10
272.8783879764
 20
260.8006783729
 11
269.1746842727
 21
260.5043820766
 12
268.6561657542
 22
260.874752447
 13
268.6561657542
 23
260.874752447
  0
SOLID
  5
2C5
100
AcDbEntity
  8
0
100
AcDbTrace
 62
5
  6
CONTINUOUS
 10
269.1746842727
 20
260.5043820766
 11
272.5820916801
 21
260.5784561507
 12
272.2857953838
 22
260.4303080026
 13
272.2857953838
 23
260.4303080026
  0
SOLID
  5
2C6
100
AcDbEntity
  8
0
100
AcDbTrace
 62
5
  6
CONTINUOUS
 10
272.2857953838
 20
260.4303080026
 11
269.6191287172
 21
260.2821598544
 12
269.1746842727
 22
260.5043820766
 13
269.1746842727
 23
260.5043820766
  0
SOLID
  5
2C7
100
AcDbEntity
  8
0
100
AcDbTrace
 62
5
  6
CONTINUOUS
 10
271.6191287172
 20
260.2821598544
 11
269.6191287172
 21
260.2821598544
 12
272.2857953838
 22
260.4303080026
 13
272.2857953838
 23
260.4303080026
  0
SOLID
  5
2C8
100
AcDbEntity
  8
0
100
AcDbTrace
 62
5
  6
CONTINUOUS
 10
271.6191287172
 20
260.2821598544
 11
272.2857953838
 21
260.4303080026
 12
271.9894990876
 22
260.2821598544
 13
271.9894990876
 23
260.2821598544
  0
SOLID
  5
2C9
100
AcDbEntity
  8
0
100
AcDbTrace
 62
5
  6
CONTINUOUS
 10
271.6191287172
 20
260.2821598544
 11
270.2117213098
 21
260.2080898555
 12
269.6191287172
 22
260.2821598544
 13
269.6191287172
 23
260.2821598544
  0
SOLID
  5
2CA
100
AcDbEntity
  8
0
100
AcDbTrace
 62
5
  6
CONTINUOUS
 10
270.2117213098
 20
260.2080898555
 11
271.6191287172
 21
260.2821598544
 12
271.2487583468
 22
260.2080898555
 13
271.2487583468
 23
260.2080898555
  0
SOLID
  5
2CB
100
AcDbEntity
  8
0
100
AcDbTrace
 62
5
  6
CONTINUOUS
 10
271.2487583468
 20
260.2080898555
 11
270.8783879764
 21
260.1340117063
 12
270.2117213098
 22
260.2080898555
 13
270.2117213098
 23
260.2080898555
  0
SOLID
  5
2CC
100
AcDbEntity
  8
0
100
AcDbTrace
 62
5
  6
CONTINUOUS
 10
278.1376472357
 20
270.2080835198
 11
278.6561657542
 21
270.2821598544
 12
279.0265361246
 22
270.2080835198
 13
279.0265361246
 23
270.2080835198
  0
SOLID
  5
2CD
100
AcDbEntity
  8
0
100
AcDbTrace
 62
5
  6
CONTINUOUS
 10
279.0265361246
 20
270.2080835198
 11
277.6932027913
 21
270.1340128366
 12
278.1376472357
 22
270.2080835198
 13
278.1376472357
 23
270.2080835198
  0
SOLID
  5
2CE
100
AcDbEntity
  8
0
100
AcDbTrace
 62
5
  6
CONTINUOUS
 10
277.6932027913
 20
270.1340128366
 11
279.0265361246
 21
270.2080835198
 12
279.396906495
 22
270.1340128366
 13
279.396906495
 23
270.1340128366
  0
SOLID
  5
2CF
100
AcDbEntity
  8
0
100
AcDbTrace
 62
5
  6
CONTINUOUS
 10
279.396906495
 20
270.1340128366
 11
279.7672768653
 21
270.0599376322
 12
277.2487583468
 22
269.9117883538
 13
277.2487583468
 23
269.9117883538
  0
SOLID
  5
2D0
100
AcDbEntity
  8
0
100
AcDbTrace
 62
5
  6
CONTINUOUS
 10
279.396906495
 20
270.1340128366
 11
277.2487583468
 21
269.9117883538
 12
277.6932027913
 22
270.1340128366
 13
277.6932027913
 23
270.1340128366
  0
SOLID
  5
2D1
100
AcDbEntity
  8
0
100
AcDbTrace
 62
5
  6
CONTINUOUS
 10
277.2487583468
 20
269.9117883538
 11
279.7672768653
 21
270.0599376322
 12
280.0635731616
 22
269.9117883538
 13
280.0635731616
 23
269.9117883538
  0
SOLID
  5
2D2
100
AcDbEntity
  8
0
100
AcDbTrace
 62
5
  6
CONTINUOUS
 10
280.0635731616
 20
269.9117883538
 11
280.3598694579
 21
269.7636413359
 12
276.8783879764
 22
269.6895672618
 13
276.8783879764
 23
269.6895672618
  0
SOLID
  5
2D3
100
AcDbEntity
  8
0
100
AcDbTrace
 62
5
  6
CONTINUOUS
 10
280.0635731616
 20
269.9117883538
 11
276.8783879764
 21
269.6895672618
 12
277.2487583468
 22
269.9117883538
 13
277.2487583468
 23
269.9117883538
  0
SOLID
  5
2D4
100
AcDbEntity
  8
0
100
AcDbTrace
 62
5
  6
CONTINUOUS
 10
276.8783879764
 20
269.6895672618
 11
280.3598694579
 21
269.7636413359
 12
280.6561657542
 22
269.5414191137
 13
280.6561657542
 23
269.5414191137
  0
SOLID
  5
2D5
100
AcDbEntity
  8
0
100
AcDbTrace
 62
5
  6
CONTINUOUS
 10
280.6561657542
 20
269.5414191137
 11
276.5080176061
 21
269.3932709655
 12
276.8783879764
 22
269.6895672618
 13
276.8783879764
 23
269.6895672618
  0
SOLID
  5
2D6
100
AcDbEntity
  8
0
100
AcDbTrace
 62
5
  6
CONTINUOUS
 10
278.6561657542
 20
269.2451262082
 11
276.5080176061
 21
269.3932709655
 12
280.6561657542
 22
269.5414191137
 13
280.6561657542
 23
269.5414191137
  0
SOLID
  5
2D7
100
AcDbEntity
  8
0
100
AcDbTrace
 62
5
  6
CONTINUOUS
 10
278.6561657542
 20
269.2451262082
 11
280.6561657542
 21
269.5414191137
 12
280.8783879764
 22
269.2451262082
 13
280.8783879764
 23
269.2451262082
  0
SOLID
  5
2D8
100
AcDbEntity
  8
0
100
AcDbTrace
 62
5
  6
CONTINUOUS
 10
280.8783879764
 20
269.2451262082
 11
279.0265361246
 21
269.1710447873
 12
278.6561657542
 22
269.2451262082
 13
278.6561657542
 23
269.2451262082
  0
SOLID
  5
2D9
100
AcDbEntity
  8
0
100
AcDbTrace
 62
5
  6
CONTINUOUS
 10
279.396906495
 20
269.0229017254
 11
279.0265361246
 21
269.1710447873
 12
280.8783879764
 22
269.2451262082
 13
280.8783879764
 23
269.2451262082
  0
SOLID
  5
2DA
100
AcDbEntity
  8
0
100
AcDbTrace
 62
5
  6
CONTINUOUS
 10
279.396906495
 20
269.0229017254
 11
280.8783879764
 21
269.2451262082
 12
281.0265361246
 22
269.0229017254
 13
281.0265361246
 23
269.0229017254
  0
SOLID
  5
2DB
100
AcDbEntity
  8
0
100
AcDbTrace
 62
5
  6
CONTINUOUS
 10
278.2117213098
 20
269.1710447873
 11
277.9154250135
 21
269.0229017254
 12
276.2117213098
 22
268.9488265211
 13
276.2117213098
 23
268.9488265211
  0
SOLID
  5
2DC
100
AcDbEntity
  8
0
100
AcDbTrace
 62
5
  6
CONTINUOUS
 10
278.6561657542
 20
269.2451262082
 11
278.2117213098
 21
269.1710447873
 12
276.2117213098
 22
268.9488265211
 13
276.2117213098
 23
268.9488265211
  0
SOLID
  5
2DD
100
AcDbEntity
  8
0
100
AcDbTrace
 62
5
  6
CONTINUOUS
 10
278.6561657542
 20
269.2451262082
 11
276.2117213098
 21
268.9488265211
 12
276.5080176061
 22
269.3932709655
 13
276.5080176061
 23
269.3932709655
  0
SOLID
  5
2DE
100
AcDbEntity
  8
0
100
AcDbTrace
 62
5
  6
CONTINUOUS
 10
276.2117213098
 20
268.9488265211
 11
277.9154250135
 21
269.0229017254
 12
277.5450546431
 22
268.8006783729
 13
277.5450546431
 23
268.8006783729
  0
SOLID
  5
2DF
100
AcDbEntity
  8
0
100
AcDbTrace
 62
5
  6
CONTINUOUS
 10
281.0265361246
 20
269.0229017254
 11
279.7672768653
 21
268.7266042989
 12
279.396906495
 22
269.0229017254
 13
279.396906495
 23
269.0229017254
  0
SOLID
  5
2E0
100
AcDbEntity
  8
0
100
AcDbTrace
 62
5
  6
CONTINUOUS
 10
279.7672768653
 20
268.7266042989
 11
281.0265361246
 21
269.0229017254
 12
281.2487583468
 22
268.6525302248
 13
281.2487583468
 23
268.6525302248
  0
SOLID
  5
2E1
100
AcDbEntity
  8
0
100
AcDbTrace
 62
5
  6
CONTINUOUS
 10
277.5450546431
 20
268.8006783729
 11
275.9894990876
 21
268.5043820766
 12
276.2117213098
 22
268.9488265211
 13
276.2117213098
 23
268.9488265211
  0
SOLID
  5
2E2
100
AcDbEntity
  8
0
100
AcDbTrace
 62
5
  6
CONTINUOUS
 10
275.9894990876
 20
268.5043820766
 11
277.5450546431
 21
268.8006783729
 12
277.3228324209
 22
268.5043820766
 13
277.3228324209
 23
268.5043820766
  0
SOLID
  5
2E3
100
AcDbEntity
  8
0
100
AcDbTrace
 62
5
  6
CONTINUOUS
 10
281.2487583468
 20
268.6525302248
 11
280.0635731616
 21
268.4303080026
 12
279.7672768653
 22
268.7266042989
 13
279.7672768653
 23
268.7266042989
  0
SOLID
  5
2E4
100
AcDbEntity
  8
0
100
AcDbTrace
 62
5
  6
CONTINUOUS
 10
280.0635731616
 20
268.4303080026
 11
281.2487583468
 21
268.6525302248
 12
281.396906495
 22
268.3562339285
 13
281.396906495
 23
268.3562339285
  0
SOLID
  5
2E5
100
AcDbEntity
  8
0
100
AcDbTrace
 62
5
  6
CONTINUOUS
 10
281.396906495
 20
268.3562339285
 11
280.2117213098
 21
268.2080857803
 12
280.0635731616
 22
268.4303080026
 13
280.0635731616
 23
268.4303080026
  0
SOLID
  5
2E6
100
AcDbEntity
  8
0
100
AcDbTrace
 62
5
  6
CONTINUOUS
 10
277.3228324209
 20
268.5043820766
 11
277.1746842727
 21
268.2821598544
 12
275.7672768653
 22
268.0599376322
 13
275.7672768653
 23
268.0599376322
  0
SOLID
  5
2E7
100
AcDbEntity
  8
0
100
AcDbTrace
 62
5
  6
CONTINUOUS
 10
277.3228324209
 20
268.5043820766
 11
275.7672768653
 21
268.0599376322
 12
275.9894990876
 22
268.5043820766
 13
275.9894990876
 23
268.5043820766
  0
SOLID
  5
2E8
100
AcDbEntity
  8
0
100
AcDbTrace
 62
5
  6
CONTINUOUS
 10
275.7672768653
 20
268.0599376322
 11
277.1746842727
 21
268.2821598544
 12
277.0265361246
 22
267.9858635581
 13
277.0265361246
 23
267.9858635581
  0
SOLID
  5
2E9
100
AcDbEntity
  8
0
100
AcDbTrace
 62
5
  6
CONTINUOUS
 10
280.2857953838
 20
267.9117911795
 11
280.2117213098
 21
268.2080857803
 12
281.396906495
 22
268.3562339285
 13
281.396906495
 23
268.3562339285
  0
SOLID
  5
2EA
100
AcDbEntity
  8
0
100
AcDbTrace
 62
5
  6
CONTINUOUS
 10
280.2857953838
 20
267.9117911795
 11
281.396906495
 21
268.3562339285
 12
281.5450546431
 22
267.9117911795
 13
281.5450546431
 23
267.9117911795
  0
SOLID
  5
2EB
100
AcDbEntity
  8
0
100
AcDbTrace
 62
5
  6
CONTINUOUS
 10
281.5450546431
 20
267.9117911795
 11
280.433943532
 21
267.5414145926
 12
280.2857953838
 22
267.9117911795
 13
280.2857953838
 23
267.9117911795
  0
SOLID
  5
2EC
100
AcDbEntity
  8
0
100
AcDbTrace
 62
5
  6
CONTINUOUS
 10
280.433943532
 20
267.5414145926
 11
281.5450546431
 21
267.9117911795
 12
281.6932027913
 22
267.5414145926
 13
281.6932027913
 23
267.5414145926
  0
SOLID
  5
2ED
100
AcDbEntity
  8
0
100
AcDbTrace
 62
5
  6
CONTINUOUS
 10
277.0265361246
 20
267.9858635581
 11
276.9524620505
 21
267.6154931878
 12
275.6191287172
 22
267.4673450396
 13
275.6191287172
 23
267.4673450396
  0
SOLID
  5
2EE
100
AcDbEntity
  8
0
100
AcDbTrace
 62
5
  6
CONTINUOUS
 10
277.0265361246
 20
267.9858635581
 11
275.6191287172
 21
267.4673450396
 12
275.7672768653
 22
268.0599376322
 13
275.7672768653
 23
268.0599376322
  0
SOLID
  5
2EF
100
AcDbEntity
  8
0
100
AcDbTrace
 62
5
  6
CONTINUOUS
 10
275.6191287172
 20
267.4673450396
 11
276.9524620505
 21
267.6154931878
 12
276.8783879764
 22
267.2451228174
 13
276.8783879764
 23
267.2451228174
  0
SOLID
  5
2F0
100
AcDbEntity
  8
0
100
AcDbTrace
 62
5
  6
CONTINUOUS
 10
281.6932027913
 20
267.5414145926
 11
280.5080176061
 21
267.1710487433
 12
280.433943532
 22
267.5414145926
 13
280.433943532
 23
267.5414145926
  0
SOLID
  5
2F1
100
AcDbEntity
  8
0
100
AcDbTrace
 62
5
  6
CONTINUOUS
 10
280.5080176061
 20
267.1710487433
 11
281.6932027913
 21
267.5414145926
 12
281.7672768653
 22
267.0229005952
 13
281.7672768653
 23
267.0229005952
  0
SOLID
  5
2F2
100
AcDbEntity
  8
0
100
AcDbTrace
 62
5
  6
CONTINUOUS
 10
276.8783879764
 20
267.2451228174
 11
275.5450546431
 21
266.8006806335
 12
275.6191287172
 22
267.4673450396
 13
275.6191287172
 23
267.4673450396
  0
SOLID
  5
2F3
100
AcDbEntity
  8
0
100
AcDbTrace
 62
5
  6
CONTINUOUS
 10
275.5450546431
 20
266.8006806335
 11
276.8783879764
 21
267.2451228174
 12
276.8043139024
 22
266.8006806335
 13
276.8043139024
 23
266.8006806335
  0
SOLID
  5
2F4
100
AcDbEntity
  8
0
100
AcDbTrace
 62
5
  6
CONTINUOUS
 10
281.7672768653
 20
267.0229005952
 11
280.5080176061
 21
266.8006806335
 12
280.5080176061
 22
267.1710487433
 13
280.5080176061
 23
267.1710487433
  0
SOLID
  5
2F5
100
AcDbEntity
  8
0
100
AcDbTrace
 62
5
  6
CONTINUOUS
 10
280.5080176061
 20
266.8006806335
 11
281.7672768653
 21
267.0229005952
 12
281.8413509394
 22
266.5043820766
 13
281.8413509394
 23
266.5043820766
  0
SOLID
  5
2F6
100
AcDbEntity
  8
0
100
AcDbTrace
 62
5
  6
CONTINUOUS
 10
281.8413509394
 20
266.5043820766
 11
280.5820916801
 21
266.2821609847
 12
280.5080176061
 22
266.8006806335
 13
280.5080176061
 23
266.8006806335
  0
SOLID
  5
2F7
100
AcDbEntity
  8
0
100
AcDbTrace
 62
5
  6
CONTINUOUS
 10
276.8043139024
 20
266.8006806335
 11
276.7302398283
 21
266.2821609847
 12
275.470980569
 22
265.9858635581
 13
275.470980569
 23
265.9858635581
  0
SOLID
  5
2F8
100
AcDbEntity
  8
0
100
AcDbTrace
 62
5
  6
CONTINUOUS
 10
276.8043139024
 20
266.8006806335
 11
275.470980569
 21
265.9858635581
 12
275.5450546431
 22
266.8006806335
 13
275.5450546431
 23
266.8006806335
  0
SOLID
  5
2F9
100
AcDbEntity
  8
0
100
AcDbTrace
 62
5
  6
CONTINUOUS
 10
280.5820916801
 20
266.2821609847
 11
281.8413509394
 21
266.5043820766
 12
281.8413509394
 22
265.83771541
 13
281.8413509394
 23
265.83771541
  0
SOLID
  5
2FA
100
AcDbEntity
  8
0
100
AcDbTrace
 62
5
  6
CONTINUOUS
 10
275.470980569
 20
265.9858635581
 11
276.7302398283
 21
266.2821609847
 12
276.7302398283
 22
265.7636413359
 13
276.7302398283
 23
265.7636413359
  0
SOLID
  5
2FB
100
AcDbEntity
  8
0
100
AcDbTrace
 62
5
  6
CONTINUOUS
 10
281.8413509394
 20
265.83771541
 11
280.5820916801
 21
265.7636413359
 12
280.5820916801
 22
266.2821609847
 13
280.5820916801
 23
266.2821609847
  0
SOLID
  5
2FC
100
AcDbEntity
  8
0
100
AcDbTrace
 62
5
  6
CONTINUOUS
 10
276.7302398283
 20
265.7636413359
 11
275.470980569
 21
265.1710504387
 12
275.470980569
 22
265.9858635581
 13
275.470980569
 23
265.9858635581
  0
SOLID
  5
2FD
100
AcDbEntity
  8
0
100
AcDbTrace
 62
5
  6
CONTINUOUS
 10
275.470980569
 20
265.1710504387
 11
276.7302398283
 21
265.7636413359
 12
276.7302398283
 22
265.1710504387
 13
276.7302398283
 23
265.1710504387
  0
SOLID
  5
2FE
100
AcDbEntity
  8
0
100
AcDbTrace
 62
5
  6
CONTINUOUS
 10
280.6561657542
 20
265.1710504387
 11
280.5820916801
 21
265.7636413359
 12
281.8413509394
 22
265.83771541
 13
281.8413509394
 23
265.83771541
  0
SOLID
  5
2FF
100
AcDbEntity
  8
0
100
AcDbTrace
 62
5
  6
CONTINUOUS
 10
280.6561657542
 20
265.1710504387
 11
281.8413509394
 21
265.83771541
 12
281.9154250135
 22
265.1710504387
 13
281.9154250135
 23
265.1710504387
  0
SOLID
  5
300
100
AcDbEntity
  8
0
100
AcDbTrace
 62
5
  6
CONTINUOUS
 10
281.9154250135
 20
265.1710504387
 11
280.5820916801
 21
264.5784595416
 12
280.6561657542
 22
265.1710504387
 13
280.6561657542
 23
265.1710504387
  0
SOLID
  5
301
100
AcDbEntity
  8
0
100
AcDbTrace
 62
5
  6
CONTINUOUS
 10
276.7302398283
 20
265.1710504387
 11
276.7302398283
 21
264.5784595416
 12
275.470980569
 22
264.5043820766
 13
275.470980569
 23
264.5043820766
  0
SOLID
  5
302
100
AcDbEntity
  8
0
100
AcDbTrace
 62
5
  6
CONTINUOUS
 10
276.7302398283
 20
265.1710504387
 11
275.470980569
 21
264.5043820766
 12
275.470980569
 22
265.1710504387
 13
275.470980569
 23
265.1710504387
  0
SOLID
  5
303
100
AcDbEntity
  8
0
100
AcDbTrace
 62
5
  6
CONTINUOUS
 10
280.5820916801
 20
264.5784595416
 11
281.9154250135
 21
265.1710504387
 12
281.8413509394
 22
264.3562339285
 13
281.8413509394
 23
264.3562339285
  0
SOLID
  5
304
100
AcDbEntity
  8
0
100
AcDbTrace
 62
5
  6
CONTINUOUS
 10
275.470980569
 20
264.5043820766
 11
276.7302398283
 21
264.5784595416
 12
276.7302398283
 22
264.0599398928
 13
276.7302398283
 23
264.0599398928
  0
SOLID
  5
305
100
AcDbEntity
  8
0
100
AcDbTrace
 62
5
  6
CONTINUOUS
 10
281.8413509394
 20
264.3562339285
 11
280.5820916801
 21
264.0599398928
 12
280.5820916801
 22
264.5784595416
 13
280.5820916801
 23
264.5784595416
  0
SOLID
  5
306
100
AcDbEntity
  8
0
100
AcDbTrace
 62
5
  6
CONTINUOUS
 10
276.7302398283
 20
264.0599398928
 11
275.470980569
 21
263.83771541
 12
275.470980569
 22
264.5043820766
 13
275.470980569
 23
264.5043820766
  0
SOLID
  5
307
100
AcDbEntity
  8
0
100
AcDbTrace
 62
5
  6
CONTINUOUS
 10
280.5820916801
 20
264.0599398928
 11
281.8413509394
 21
264.3562339285
 12
281.7672768653
 22
263.6154931878
 13
281.7672768653
 23
263.6154931878
  0
SOLID
  5
308
100
AcDbEntity
  8
0
100
AcDbTrace
 62
5
  6
CONTINUOUS
 10
275.470980569
 20
263.83771541
 11
276.7302398283
 21
264.0599398928
 12
276.8043139024
 22
263.541420244
 13
276.8043139024
 23
263.541420244
  0
SOLID
  5
309
100
AcDbEntity
  8
0
100
AcDbTrace
 62
5
  6
CONTINUOUS
 10
281.7672768653
 20
263.6154931878
 11
280.5080176061
 21
263.541420244
 12
280.5820916801
 22
264.0599398928
 13
280.5820916801
 23
264.0599398928
  0
SOLID
  5
30A
100
AcDbEntity
  8
0
100
AcDbTrace
 62
5
  6
CONTINUOUS
 10
276.8043139024
 20
263.541420244
 11
275.5450546431
 21
263.3191968915
 12
275.470980569
 22
263.83771541
 13
275.470980569
 23
263.83771541
  0
SOLID
  5
30B
100
AcDbEntity
  8
0
100
AcDbTrace
 62
5
  6
CONTINUOUS
 10
275.5450546431
 20
263.3191968915
 11
276.8043139024
 21
263.541420244
 12
276.8043139024
 22
263.0969721261
 13
276.8043139024
 23
263.0969721261
  0
SOLID
  5
30C
100
AcDbEntity
  8
0
100
AcDbTrace
 62
5
  6
CONTINUOUS
 10
280.5080176061
 20
263.0969721261
 11
280.5080176061
 21
263.541420244
 12
281.7672768653
 22
263.6154931878
 13
281.7672768653
 23
263.6154931878
  0
SOLID
  5
30D
100
AcDbEntity
  8
0
100
AcDbTrace
 62
5
  6
CONTINUOUS
 10
280.5080176061
 20
263.0969721261
 11
281.7672768653
 21
263.6154931878
 12
281.6932027913
 22
262.9488265211
 13
281.6932027913
 23
262.9488265211
  0
SOLID
  5
30E
100
AcDbEntity
  8
0
100
AcDbTrace
 62
5
  6
CONTINUOUS
 10
276.8043139024
 20
263.0969721261
 11
275.6932027913
 21
262.7266051466
 12
275.5450546431
 22
263.3191968915
 13
275.5450546431
 23
263.3191968915
  0
SOLID
  5
30F
100
AcDbEntity
  8
0
100
AcDbTrace
 62
5
  6
CONTINUOUS
 10
275.6932027913
 20
262.7266051466
 11
276.8043139024
 21
263.0969721261
 12
276.9524620505
 22
262.7266051466
 13
276.9524620505
 23
262.7266051466
  0
SOLID
  5
310
100
AcDbEntity
  8
0
100
AcDbTrace
 62
5
  6
CONTINUOUS
 10
281.6932027913
 20
262.9488265211
 11
280.433943532
 21
262.7266051466
 12
280.5080176061
 22
263.0969721261
 13
280.5080176061
 23
263.0969721261
  0
SOLID
  5
311
100
AcDbEntity
  8
0
100
AcDbTrace
 62
5
  6
CONTINUOUS
 10
280.2857953838
 20
262.430309698
 11
280.433943532
 21
262.7266051466
 12
281.6932027913
 22
262.9488265211
 13
281.6932027913
 23
262.9488265211
  0
SOLID
  5
312
100
AcDbEntity
  8
0
100
AcDbTrace
 62
5
  6
CONTINUOUS
 10
280.2857953838
 20
262.430309698
 11
281.6932027913
 21
262.9488265211
 12
281.5450546431
 22
262.3562339285
 13
281.5450546431
 23
262.3562339285
  0
SOLID
  5
313
100
AcDbEntity
  8
0
100
AcDbTrace
 62
5
  6
CONTINUOUS
 10
276.9524620505
 20
262.7266051466
 11
277.0265361246
 21
262.430309698
 12
275.8413509394
 22
262.2821598544
 13
275.8413509394
 23
262.2821598544
  0
SOLID
  5
314
100
AcDbEntity
  8
0
100
AcDbTrace
 62
5
  6
CONTINUOUS
 10
276.9524620505
 20
262.7266051466
 11
275.8413509394
 21
262.2821598544
 12
275.6932027913
 22
262.7266051466
 13
275.6932027913
 23
262.7266051466
  0
SOLID
  5
315
100
AcDbEntity
  8
0
100
AcDbTrace
 62
5
  6
CONTINUOUS
 10
275.8413509394
 20
262.2821598544
 11
277.0265361246
 21
262.430309698
 12
277.1006101987
 22
262.1340142494
 13
277.1006101987
 23
262.1340142494
  0
SOLID
  5
316
100
AcDbEntity
  8
0
100
AcDbTrace
 62
5
  6
CONTINUOUS
 10
281.5450546431
 20
262.3562339285
 11
280.2117213098
 21
262.1340142494
 12
280.2857953838
 22
262.430309698
 13
280.2857953838
 23
262.430309698
  0
SOLID
  5
317
100
AcDbEntity
  8
0
100
AcDbTrace
 62
5
  6
CONTINUOUS
 10
277.1006101987
 20
262.1340142494
 11
277.2487583468
 21
261.9117900492
 12
275.9894990876
 22
261.8377188008
 13
275.9894990876
 23
261.8377188008
  0
SOLID
  5
318
100
AcDbEntity
  8
0
100
AcDbTrace
 62
5
  6
CONTINUOUS
 10
277.1006101987
 20
262.1340142494
 11
275.9894990876
 21
261.8377188008
 12
275.8413509394
 22
262.2821598544
 13
275.8413509394
 23
262.2821598544
  0
SOLID
  5
319
100
AcDbEntity
  8
0
100
AcDbTrace
 62
5
  6
CONTINUOUS
 10
280.0635731616
 20
261.9117900492
 11
280.2117213098
 21
262.1340142494
 12
281.5450546431
 22
262.3562339285
 13
281.5450546431
 23
262.3562339285
  0
SOLID
  5
31A
100
AcDbEntity
  8
0
100
AcDbTrace
 62
5
  6
CONTINUOUS
 10
280.0635731616
 20
261.9117900492
 11
281.5450546431
 21
262.3562339285
 12
281.3228324209
 22
261.8377188008
 13
281.3228324209
 23
261.8377188008
  0
SOLID
  5
31B
100
AcDbEntity
  8
0
100
AcDbTrace
 62
5
  6
CONTINUOUS
 10
281.3228324209
 20
261.8377188008
 11
279.7672768653
 21
261.6154931878
 12
280.0635731616
 22
261.9117900492
 13
280.0635731616
 23
261.9117900492
  0
SOLID
  5
31C
100
AcDbEntity
  8
0
100
AcDbTrace
 62
5
  6
CONTINUOUS
 10
275.9894990876
 20
261.8377188008
 11
277.2487583468
 21
261.9117900492
 12
277.5450546431
 22
261.5414191137
 13
277.5450546431
 23
261.5414191137
  0
SOLID
  5
31D
100
AcDbEntity
  8
0
100
AcDbTrace
 62
5
  6
CONTINUOUS
 10
277.5450546431
 20
261.5414191137
 11
276.2117213098
 21
261.4673450396
 12
275.9894990876
 22
261.8377188008
 13
275.9894990876
 23
261.8377188008
  0
SOLID
  5
31E
100
AcDbEntity
  8
0
100
AcDbTrace
 62
5
  6
CONTINUOUS
 10
279.7672768653
 20
261.6154931878
 11
281.3228324209
 21
261.8377188008
 12
281.1006101987
 22
261.3932709655
 13
281.1006101987
 23
261.3932709655
  0
SOLID
  5
31F
100
AcDbEntity
  8
0
100
AcDbTrace
 62
5
  6
CONTINUOUS
 10
276.2117213098
 20
261.4673450396
 11
277.5450546431
 21
261.5414191137
 12
277.9154250135
 22
261.3191990814
 13
277.9154250135
 23
261.3191990814
  0
SOLID
  5
320
100
AcDbEntity
  8
0
100
AcDbTrace
 62
5
  6
CONTINUOUS
 10
281.1006101987
 20
261.3932709655
 11
279.396906495
 21
261.3191990814
 12
279.7672768653
 22
261.6154931878
 13
279.7672768653
 23
261.6154931878
  0
SOLID
  5
321
100
AcDbEntity
  8
0
100
AcDbTrace
 62
5
  6
CONTINUOUS
 10
278.6561657542
 20
261.1710462708
 11
279.0265361246
 21
261.1710462708
 12
276.433943532
 22
261.0969746692
 13
276.433943532
 23
261.0969746692
  0
SOLID
  5
322
100
AcDbEntity
  8
0
100
AcDbTrace
 62
5
  6
CONTINUOUS
 10
278.2857953838
 20
261.1710462708
 11
278.6561657542
 21
261.1710462708
 12
276.433943532
 22
261.0969746692
 13
276.433943532
 23
261.0969746692
  0
SOLID
  5
323
100
AcDbEntity
  8
0
100
AcDbTrace
 62
5
  6
CONTINUOUS
 10
277.9154250135
 20
261.3191990814
 11
278.2857953838
 21
261.1710462708
 12
276.433943532
 22
261.0969746692
 13
276.433943532
 23
261.0969746692
  0
SOLID
  5
324
100
AcDbEntity
  8
0
100
AcDbTrace
 62
5
  6
CONTINUOUS
 10
277.9154250135
 20
261.3191990814
 11
276.433943532
 21
261.0969746692
 12
276.2117213098
 22
261.4673450396
 13
276.2117213098
 23
261.4673450396
  0
SOLID
  5
325
100
AcDbEntity
  8
0
100
AcDbTrace
 62
5
  6
CONTINUOUS
 10
279.0265361246
 20
261.1710462708
 11
279.396906495
 21
261.3191990814
 12
281.1006101987
 22
261.3932709655
 13
281.1006101987
 23
261.3932709655
  0
SOLID
  5
326
100
AcDbEntity
  8
0
100
AcDbTrace
 62
5
  6
CONTINUOUS
 10
280.8043139024
 20
260.9488265211
 11
276.433943532
 21
261.0969746692
 12
279.0265361246
 22
261.1710462708
 13
279.0265361246
 23
261.1710462708
  0
SOLID
  5
327
100
AcDbEntity
  8
0
100
AcDbTrace
 62
5
  6
CONTINUOUS
 10
279.0265361246
 20
261.1710462708
 11
281.1006101987
 21
261.3932709655
 12
280.8043139024
 22
260.9488265211
 13
280.8043139024
 23
260.9488265211
  0
SOLID
  5
328
100
AcDbEntity
  8
0
100
AcDbTrace
 62
5
  6
CONTINUOUS
 10
280.8043139024
 20
260.9488265211
 11
276.6561657542
 21
260.874752447
 12
276.433943532
 22
261.0969746692
 13
276.433943532
 23
261.0969746692
  0
SOLID
  5
329
100
AcDbEntity
  8
0
100
AcDbTrace
 62
5
  6
CONTINUOUS
 10
276.8783879764
 20
260.6525266573
 11
276.6561657542
 21
260.874752447
 12
280.8043139024
 22
260.9488265211
 13
280.8043139024
 23
260.9488265211
  0
SOLID
  5
32A
100
AcDbEntity
  8
0
100
AcDbTrace
 62
5
  6
CONTINUOUS
 10
276.8783879764
 20
260.6525266573
 11
280.8043139024
 21
260.9488265211
 12
280.433943532
 22
260.6525266573
 13
280.433943532
 23
260.6525266573
  0
SOLID
  5
32B
100
AcDbEntity
  8
0
100
AcDbTrace
 62
5
  6
CONTINUOUS
 10
280.433943532
 20
260.6525266573
 11
277.1006101987
 21
260.5043820766
 12
276.8783879764
 22
260.6525266573
 13
276.8783879764
 23
260.6525266573
  0
SOLID
  5
32C
100
AcDbEntity
  8
0
100
AcDbTrace
 62
5
  6
CONTINUOUS
 10
277.1006101987
 20
260.5043820766
 11
280.433943532
 21
260.6525266573
 12
280.0635731616
 22
260.4303080026
 13
280.0635731616
 23
260.4303080026
  0
SOLID
  5
32D
100
AcDbEntity
  8
0
100
AcDbTrace
 62
5
  6
CONTINUOUS
 10
280.0635731616
 20
260.4303080026
 11
277.396906495
 21
260.3562339285
 12
277.1006101987
 22
260.5043820766
 13
277.1006101987
 23
260.5043820766
  0
SOLID
  5
32E
100
AcDbEntity
  8
0
100
AcDbTrace
 62
5
  6
CONTINUOUS
 10
277.6932027913
 20
260.2821598544
 11
277.396906495
 21
260.3562339285
 12
280.0635731616
 22
260.4303080026
 13
280.0635731616
 23
260.4303080026
  0
SOLID
  5
32F
100
AcDbEntity
  8
0
100
AcDbTrace
 62
5
  6
CONTINUOUS
 10
277.6932027913
 20
260.2821598544
 11
280.0635731616
 21
260.4303080026
 12
279.6191287172
 22
260.2821598544
 13
279.6191287172
 23
260.2821598544
  0
SOLID
  5
330
100
AcDbEntity
  8
0
100
AcDbTrace
 62
5
  6
CONTINUOUS
 10
279.6191287172
 20
260.2821598544
 11
277.9894990876
 21
260.2080885222
 12
277.6932027913
 22
260.2821598544
 13
277.6932027913
 23
260.2821598544
  0
SOLID
  5
331
100
AcDbEntity
  8
0
100
AcDbTrace
 62
5
  6
CONTINUOUS
 10
278.2857953838
 20
260.2080885222
 11
277.9894990876
 21
260.2080885222
 12
279.6191287172
 22
260.2821598544
 13
279.6191287172
 23
260.2821598544
  0
SOLID
  5
332
100
AcDbEntity
  8
0
100
AcDbTrace
 62
5
  6
CONTINUOUS
 10
278.2857953838
 20
260.2080885222
 11
279.6191287172
 21
260.2821598544
 12
279.1746842727
 22
260.2080885222
 13
279.1746842727
 23
260.2080885222
  0
SOLID
  5
333
100
AcDbEntity
  8
0
100
AcDbTrace
 62
5
  6
CONTINUOUS
 10
279.1746842727
 20
260.2080885222
 11
278.6561657542
 21
260.1340117063
 12
278.2857953838
 22
260.2080885222
 13
278.2857953838
 23
260.2080885222
  0
SOLID
  5
334
100
AcDbEntity
  8
0
100
AcDbTrace
 62
5
  6
CONTINUOUS
 10
286.7302398283
 20
264.4303080026
 11
282.8783879764
 21
263.2451228174
 12
282.8783879764
 22
264.4303080026
 13
282.8783879764
 23
264.4303080026
  0
SOLID
  5
335
100
AcDbEntity
  8
0
100
AcDbTrace
 62
5
  6
CONTINUOUS
 10
282.8783879764
 20
263.2451228174
 11
286.7302398283
 21
264.4303080026
 12
286.7302398283
 22
263.2451228174
 13
286.7302398283
 23
263.2451228174
  0
SOLID
  5
336
100
AcDbEntity
  8
0
100
AcDbTrace
 62
5
  6
CONTINUOUS
 10
290.8043139024
 20
270.2080835198
 11
291.1746842727
 21
270.2821598544
 12
291.7672768653
 22
270.2080835198
 13
291.7672768653
 23
270.2080835198
  0
SOLID
  5
337
100
AcDbEntity
  8
0
100
AcDbTrace
 62
5
  6
CONTINUOUS
 10
290.8043139024
 20
270.2080835198
 11
291.7672768653
 21
270.2080835198
 12
290.0635731616
 22
270.059941023
 13
290.0635731616
 23
270.059941023
  0
SOLID
  5
338
100
AcDbEntity
  8
0
100
AcDbTrace
 62
5
  6
CONTINUOUS
 10
290.8043139024
 20
270.2080835198
 11
290.0635731616
 21
270.059941023
 12
290.433943532
 22
270.2080835198
 13
290.433943532
 23
270.2080835198
  0
SOLID
  5
339
100
AcDbEntity
  8
0
100
AcDbTrace
 62
5
  6
CONTINUOUS
 10
290.0635731616
 20
270.059941023
 11
291.7672768653
 21
270.2080835198
 12
292.2857953838
 22
270.059941023
 13
292.2857953838
 23
270.059941023
  0
SOLID
  5
33A
100
AcDbEntity
  8
0
100
AcDbTrace
 62
5
  6
CONTINUOUS
 10
292.2857953838
 20
270.059941023
 11
289.7672768653
 21
269.9858635581
 12
290.0635731616
 22
270.059941023
 13
290.0635731616
 23
270.059941023
  0
SOLID
  5
33B
100
AcDbEntity
  8
0
100
AcDbTrace
 62
5
  6
CONTINUOUS
 10
289.470980569
 20
269.8377165403
 11
289.7672768653
 21
269.9858635581
 12
292.2857953838
 22
270.059941023
 13
292.2857953838
 23
270.059941023
  0
SOLID
  5
33C
100
AcDbEntity
  8
0
100
AcDbTrace
 62
5
  6
CONTINUOUS
 10
289.470980569
 20
269.8377165403
 11
292.2857953838
 21
270.059941023
 12
292.7302398283
 22
269.8377165403
 13
292.7302398283
 23
269.8377165403
  0
SOLID
  5
33D
100
AcDbEntity
  8
0
100
AcDbTrace
 62
5
  6
CONTINUOUS
 10
292.7302398283
 20
269.8377165403
 11
289.1746842727
 21
269.6154931878
 12
289.470980569
 22
269.8377165403
 13
289.470980569
 23
269.8377165403
  0
SOLID
  5
33E
100
AcDbEntity
  8
0
100
AcDbTrace
 62
5
  6
CONTINUOUS
 10
289.1746842727
 20
269.6154931878
 11
292.7302398283
 21
269.8377165403
 12
293.1006101987
 22
269.5414191137
 13
293.1006101987
 23
269.5414191137
  0
SOLID
  5
33F
100
AcDbEntity
  8
0
100
AcDbTrace
 62
5
  6
CONTINUOUS
 10
293.1006101987
 20
269.5414191137
 11
288.8783879764
 21
269.3932709655
 12
289.1746842727
 22
269.6154931878
 13
289.1746842727
 23
269.6154931878
  0
SOLID
  5
340
100
AcDbEntity
  8
0
100
AcDbTrace
 62
5
  6
CONTINUOUS
 10
291.1006101987
 20
269.2451262082
 11
288.8783879764
 21
269.3932709655
 12
293.1006101987
 22
269.5414191137
 13
293.1006101987
 23
269.5414191137
  0
SOLID
  5
341
100
AcDbEntity
  8
0
100
AcDbTrace
 62
5
  6
CONTINUOUS
 10
291.1006101987
 20
269.2451262082
 11
293.1006101987
 21
269.5414191137
 12
293.470980569
 22
269.2451262082
 13
293.470980569
 23
269.2451262082
  0
SOLID
  5
342
100
AcDbEntity
  8
0
100
AcDbTrace
 62
5
  6
CONTINUOUS
 10
293.470980569
 20
269.2451262082
 11
291.470980569
 21
269.1710447873
 12
291.1006101987
 22
269.2451262082
 13
291.1006101987
 23
269.2451262082
  0
SOLID
  5
343
100
AcDbEntity
  8
0
100
AcDbTrace
 62
5
  6
CONTINUOUS
 10
291.1006101987
 20
269.2451262082
 11
290.8043139024
 21
269.1710447873
 12
288.6561657542
 22
269.096973539
 13
288.6561657542
 23
269.096973539
  0
SOLID
  5
344
100
AcDbEntity
  8
0
100
AcDbTrace
 62
5
  6
CONTINUOUS
 10
291.1006101987
 20
269.2451262082
 11
288.6561657542
 21
269.096973539
 12
288.8783879764
 22
269.3932709655
 13
288.8783879764
 23
269.3932709655
  0
SOLID
  5
345
100
AcDbEntity
  8
0
100
AcDbTrace
 62
5
  6
CONTINUOUS
 10
288.6561657542
 20
269.096973539
 11
290.8043139024
 21
269.1710447873
 12
290.5820916801
 22
269.096973539
 13
290.5820916801
 23
269.096973539
  0
SOLID
  5
346
100
AcDbEntity
  8
0
100
AcDbTrace
 62
5
  6
CONTINUOUS
 10
291.7672768653
 20
269.096973539
 11
291.470980569
 21
269.1710447873
 12
293.470980569
 22
269.2451262082
 13
293.470980569
 23
269.2451262082
  0
SOLID
  5
347
100
AcDbEntity
  8
0
100
AcDbTrace
 62
5
  6
CONTINUOUS
 10
292.0635731616
 20
268.9488265211
 11
291.7672768653
 21
269.096973539
 12
293.470980569
 22
269.2451262082
 13
293.470980569
 23
269.2451262082
  0
SOLID
  5
348
100
AcDbEntity
  8
0
100
AcDbTrace
 62
5
  6
CONTINUOUS
 10
292.0635731616
 20
268.9488265211
 11
293.470980569
 21
269.2451262082
 12
293.6932027913
 22
268.8006783729
 13
293.6932027913
 23
268.8006783729
  0
SOLID
  5
349
100
AcDbEntity
  8
0
100
AcDbTrace
 62
5
  6
CONTINUOUS
 10
290.2857953838
 20
269.0229005952
 11
290.0635731616
 21
268.874752447
 12
288.433943532
 22
268.7266065594
 13
288.433943532
 23
268.7266065594
  0
SOLID
  5
34A
100
AcDbEntity
  8
0
100
AcDbTrace
 62
5
  6
CONTINUOUS
 10
290.5820916801
 20
269.096973539
 11
290.2857953838
 21
269.0229005952
 12
288.433943532
 22
268.7266065594
 13
288.433943532
 23
268.7266065594
  0
SOLID
  5
34B
100
AcDbEntity
  8
0
100
AcDbTrace
 62
5
  6
CONTINUOUS
 10
290.5820916801
 20
269.096973539
 11
288.433943532
 21
268.7266065594
 12
288.6561657542
 22
269.096973539
 13
288.6561657542
 23
269.096973539
  0
SOLID
  5
34C
100
AcDbEntity
  8
0
100
AcDbTrace
 62
5
  6
CONTINUOUS
 10
293.6932027913
 20
268.8006783729
 11
292.2857953838
 21
268.7266065594
 12
292.0635731616
 22
268.9488265211
 13
292.0635731616
 23
268.9488265211
  0
SOLID
  5
34D
100
AcDbEntity
  8
0
100
AcDbTrace
 62
5
  6
CONTINUOUS
 10
288.433943532
 20
268.7266065594
 11
290.0635731616
 21
268.874752447
 12
289.7672768653
 22
268.6525302248
 13
289.7672768653
 23
268.6525302248
  0
SOLID
  5
34E
100
AcDbEntity
  8
0
100
AcDbTrace
 62
5
  6
CONTINUOUS
 10
289.7672768653
 20
268.6525302248
 11
288.2117213098
 21
268.3562294074
 12
288.433943532
 22
268.7266065594
 13
288.433943532
 23
268.7266065594
  0
SOLID
  5
34F
100
AcDbEntity
  8
0
100
AcDbTrace
 62
5
  6
CONTINUOUS
 10
288.2117213098
 20
268.3562294074
 11
289.7672768653
 21
268.6525302248
 12
289.5450546431
 22
268.3562294074
 13
289.5450546431
 23
268.3562294074
  0
SOLID
  5
350
100
AcDbEntity
  8
0
100
AcDbTrace
 62
5
  6
CONTINUOUS
 10
292.433943532
 20
268.5043820766
 11
292.2857953838
 21
268.7266065594
 12
293.6932027913
 22
268.8006783729
 13
293.6932027913
 23
268.8006783729
  0
SOLID
  5
351
100
AcDbEntity
  8
0
100
AcDbTrace
 62
5
  6
CONTINUOUS
 10
292.5820916801
 20
268.282158159
 11
292.433943532
 21
268.5043820766
 12
293.6932027913
 22
268.8006783729
 13
293.6932027913
 23
268.8006783729
  0
SOLID
  5
352
100
AcDbEntity
  8
0
100
AcDbTrace
 62
5
  6
CONTINUOUS
 10
292.5820916801
 20
268.282158159
 11
293.6932027913
 21
268.8006783729
 12
293.9154250135
 22
268.282158159
 13
293.9154250135
 23
268.282158159
  0
SOLID
  5
353
100
AcDbEntity
  8
0
100
AcDbTrace
 62
5
  6
CONTINUOUS
 10
293.9154250135
 20
268.282158159
 11
292.6561657542
 21
267.9858635581
 12
292.5820916801
 22
268.282158159
 13
292.5820916801
 23
268.282158159
  0
SOLID
  5
354
100
AcDbEntity
  8
0
100
AcDbTrace
 62
5
  6
CONTINUOUS
 10
289.5450546431
 20
268.3562294074
 11
289.396906495
 21
268.0599376322
 12
287.9894990876
 22
267.9117894841
 13
287.9894990876
 23
267.9117894841
  0
SOLID
  5
355
100
AcDbEntity
  8
0
100
AcDbTrace
 62
5
  6
CONTINUOUS
 10
289.5450546431
 20
268.3562294074
 11
287.9894990876
 21
267.9117894841
 12
288.2117213098
 22
268.3562294074
 13
288.2117213098
 23
268.3562294074
  0
SOLID
  5
356
100
AcDbEntity
  8
0
100
AcDbTrace
 62
5
  6
CONTINUOUS
 10
292.6561657542
 20
267.9858635581
 11
293.9154250135
 21
268.282158159
 12
294.0635731616
 22
267.7636413359
 13
294.0635731616
 23
267.7636413359
  0
SOLID
  5
357
100
AcDbEntity
  8
0
100
AcDbTrace
 62
5
  6
CONTINUOUS
 10
287.9894990876
 20
267.9117894841
 11
289.396906495
 21
268.0599376322
 12
289.1746842727
 22
267.6895672618
 13
289.1746842727
 23
267.6895672618
  0
SOLID
  5
358
100
AcDbEntity
  8
0
100
AcDbTrace
 62
5
  6
CONTINUOUS
 10
294.0635731616
 20
267.7636413359
 11
292.8043139024
 21
267.6895672618
 12
292.6561657542
 22
267.9858635581
 13
292.6561657542
 23
267.9858635581
  0
SOLID
  5
359
100
AcDbEntity
  8
0
100
AcDbTrace
 62
5
  6
CONTINUOUS
 10
289.1746842727
 20
267.6895672618
 11
287.8413509394
 21
267.3932709655
 12
287.9894990876
 22
267.9117894841
 13
287.9894990876
 23
267.9117894841
  0
SOLID
  5
35A
100
AcDbEntity
  8
0
100
AcDbTrace
 62
5
  6
CONTINUOUS
 10
287.8413509394
 20
267.3932709655
 11
289.1746842727
 21
267.6895672618
 12
289.0265361246
 22
267.2451228174
 13
289.0265361246
 23
267.2451228174
  0
SOLID
  5
35B
100
AcDbEntity
  8
0
100
AcDbTrace
 62
5
  6
CONTINUOUS
 10
289.0265361246
 20
267.2451228174
 11
287.7672768653
 21
266.874752447
 12
287.8413509394
 22
267.3932709655
 13
287.8413509394
 23
267.3932709655
  0
SOLID
  5
35C
100
AcDbEntity
  8
0
100
AcDbTrace
 62
5
  6
CONTINUOUS
 10
287.7672768653
 20
266.874752447
 11
289.0265361246
 21
267.2451228174
 12
288.9524620505
 22
266.6525279642
 13
288.9524620505
 23
266.6525279642
  0
SOLID
  5
35D
100
AcDbEntity
  8
0
100
AcDbTrace
 62
5
  6
CONTINUOUS
 10
290.8783879764
 20
266.6525279642
 11
291.2487583468
 21
266.7266042989
 12
291.8413509394
 22
266.6525279642
 13
291.8413509394
 23
266.6525279642
  0
SOLID
  5
35E
100
AcDbEntity
  8
0
100
AcDbTrace
 62
5
  6
CONTINUOUS
 10
291.8413509394
 20
266.6525279642
 11
290.5820916801
 21
266.5784561507
 12
290.8783879764
 22
266.6525279642
 13
290.8783879764
 23
266.6525279642
  0
SOLID
  5
35F
100
AcDbEntity
  8
0
100
AcDbTrace
 62
5
  6
CONTINUOUS
 10
290.2117213098
 20
266.5043820766
 11
290.5820916801
 21
266.5784561507
 12
291.8413509394
 22
266.6525279642
 13
291.8413509394
 23
266.6525279642
  0
SOLID
  5
360
100
AcDbEntity
  8
0
100
AcDbTrace
 62
5
  6
CONTINUOUS
 10
290.2117213098
 20
266.5043820766
 11
291.8413509394
 21
266.6525279642
 12
292.3598694579
 22
266.4303080026
 13
292.3598694579
 23
266.4303080026
  0
SOLID
  5
361
100
AcDbEntity
  8
0
100
AcDbTrace
 62
5
  6
CONTINUOUS
 10
292.3598694579
 20
266.4303080026
 11
289.9154250135
 21
266.3562339285
 12
290.2117213098
 22
266.5043820766
 13
290.2117213098
 23
266.5043820766
  0
SOLID
  5
362
100
AcDbEntity
  8
0
100
AcDbTrace
 62
5
  6
CONTINUOUS
 10
288.9524620505
 20
266.6525279642
 11
287.6191287172
 21
266.2821598544
 12
287.7672768653
 22
266.874752447
 13
287.7672768653
 23
266.874752447
  0
SOLID
  5
363
100
AcDbEntity
  8
0
100
AcDbTrace
 62
5
  6
CONTINUOUS
 10
289.6191287172
 20
266.2080897363
 11
289.9154250135
 21
266.3562339285
 12
292.3598694579
 22
266.4303080026
 13
292.3598694579
 23
266.4303080026
  0
SOLID
  5
364
100
AcDbEntity
  8
0
100
AcDbTrace
 62
5
  6
CONTINUOUS
 10
289.6191287172
 20
266.2080897363
 11
292.3598694579
 21
266.4303080026
 12
292.8783879764
 22
266.2080897363
 13
292.8783879764
 23
266.2080897363
  0
SOLID
  5
365
100
AcDbEntity
  8
0
100
AcDbTrace
 62
5
  6
CONTINUOUS
 10
287.6191287172
 20
266.2821598544
 11
288.9524620505
 21
266.6525279642
 12
288.8783879764
 22
266.0599376322
 13
288.8783879764
 23
266.0599376322
  0
SOLID
  5
366
100
AcDbEntity
  8
0
100
AcDbTrace
 62
5
  6
CONTINUOUS
 10
292.8783879764
 20
266.2080897363
 11
289.3228324209
 21
265.9858635581
 12
289.6191287172
 22
266.2080897363
 13
289.6191287172
 23
266.2080897363
  0
SOLID
  5
367
100
AcDbEntity
  8
0
100
AcDbTrace
 62
5
  6
CONTINUOUS
 10
289.3228324209
 20
265.9858635581
 11
292.8783879764
 21
266.2080897363
 12
293.3228324209
 22
265.7636413359
 13
293.3228324209
 23
265.7636413359
  0
SOLID
  5
368
100
AcDbEntity
  8
0
100
AcDbTrace
 62
5
  6
CONTINUOUS
 10
293.3228324209
 20
265.7636413359
 11
289.1006101987
 21
265.6895672618
 12
289.3228324209
 22
265.9858635581
 13
289.3228324209
 23
265.9858635581
  0
SOLID
  5
369
100
AcDbEntity
  8
0
100
AcDbTrace
 62
5
  6
CONTINUOUS
 10
288.8783879764
 20
266.0599376322
 11
287.6191287172
 21
265.6154931878
 12
287.6191287172
 22
266.2821598544
 13
287.6191287172
 23
266.2821598544
  0
SOLID
  5
36A
100
AcDbEntity
  8
0
100
AcDbTrace
 62
5
  6
CONTINUOUS
 10
287.6191287172
 20
265.6154931878
 11
288.8783879764
 21
266.0599376322
 12
288.8783879764
 22
265.3932749215
 13
288.8783879764
 23
265.3932749215
  0
SOLID
  5
36B
100
AcDbEntity
  8
0
100
AcDbTrace
 62
5
  6
CONTINUOUS
 10
290.9524620505
 20
265.5414191137
 11
290.5080176061
 21
265.4673461699
 12
288.8783879764
 22
265.3932749215
 13
288.8783879764
 23
265.3932749215
  0
SOLID
  5
36C
100
AcDbEntity
  8
0
100
AcDbTrace
 62
5
  6
CONTINUOUS
 10
290.9524620505
 20
265.5414191137
 11
288.8783879764
 21
265.3932749215
 12
289.1006101987
 22
265.6895672618
 13
289.1006101987
 23
265.6895672618
  0
SOLID
  5
36D
100
AcDbEntity
  8
0
100
AcDbTrace
 62
5
  6
CONTINUOUS
 10
288.8783879764
 20
265.3932749215
 11
290.5080176061
 21
265.4673461699
 12
290.1376472357
 22
265.3932749215
 13
290.1376472357
 23
265.3932749215
  0
SOLID
  5
36E
100
AcDbEntity
  8
0
100
AcDbTrace
 62
5
  6
CONTINUOUS
 10
290.9524620505
 20
265.5414191137
 11
289.1006101987
 21
265.6895672618
 12
293.3228324209
 22
265.7636413359
 13
293.3228324209
 23
265.7636413359
  0
SOLID
  5
36F
100
AcDbEntity
  8
0
100
AcDbTrace
 62
5
  6
CONTINUOUS
 10
291.396906495
 20
265.4673461699
 11
290.9524620505
 21
265.5414191137
 12
293.3228324209
 22
265.7636413359
 13
293.3228324209
 23
265.7636413359
  0
SOLID
  5
370
100
AcDbEntity
  8
0
100
AcDbTrace
 62
5
  6
CONTINUOUS
 10
291.7672768653
 20
265.3932749215
 11
291.396906495
 21
265.4673461699
 12
293.3228324209
 22
265.7636413359
 13
293.3228324209
 23
265.7636413359
  0
SOLID
  5
371
100
AcDbEntity
  8
0
100
AcDbTrace
 62
5
  6
CONTINUOUS
 10
291.7672768653
 20
265.3932749215
 11
293.3228324209
 21
265.7636413359
 12
293.6932027913
 22
265.3191968915
 13
293.6932027913
 23
265.3191968915
  0
SOLID
  5
372
100
AcDbEntity
  8
0
100
AcDbTrace
 62
5
  6
CONTINUOUS
 10
293.6932027913
 20
265.3191968915
 11
292.0635731616
 21
265.1710504387
 12
291.7672768653
 22
265.3932749215
 13
291.7672768653
 23
265.3932749215
  0
SOLID
  5
373
100
AcDbEntity
  8
0
100
AcDbTrace
 62
5
  6
CONTINUOUS
 10
290.1376472357
 20
265.3932749215
 11
289.8413509394
 21
265.1710504387
 12
287.6191287172
 22
264.9488262385
 13
287.6191287172
 23
264.9488262385
  0
SOLID
  5
374
100
AcDbEntity
  8
0
100
AcDbTrace
 62
5
  6
CONTINUOUS
 10
288.8783879764
 20
265.3932749215
 11
290.1376472357
 21
265.3932749215
 12
287.6191287172
 22
264.9488262385
 13
287.6191287172
 23
264.9488262385
  0
SOLID
  5
375
100
AcDbEntity
  8
0
100
AcDbTrace
 62
5
  6
CONTINUOUS
 10
288.8783879764
 20
265.3932749215
 11
287.6191287172
 21
264.9488262385
 12
287.6191287172
 22
265.6154931878
 13
287.6191287172
 23
265.6154931878
  0
SOLID
  5
376
100
AcDbEntity
  8
0
100
AcDbTrace
 62
5
  6
CONTINUOUS
 10
287.6191287172
 20
264.9488262385
 11
289.8413509394
 21
265.1710504387
 12
289.470980569
 22
264.9488262385
 13
289.470980569
 23
264.9488262385
  0
SOLID
  5
377
100
AcDbEntity
  8
0
100
AcDbTrace
 62
5
  6
CONTINUOUS
 10
292.3598694579
 20
264.9488262385
 11
292.0635731616
 21
265.1710504387
 12
293.6932027913
 22
265.3191968915
 13
293.6932027913
 23
265.3191968915
  0
SOLID
  5
378
100
AcDbEntity
  8
0
100
AcDbTrace
 62
5
  6
CONTINUOUS
 10
292.3598694579
 20
264.9488262385
 11
293.6932027913
 21
265.3191968915
 12
293.9894990876
 22
264.8006783729
 13
293.9894990876
 23
264.8006783729
  0
SOLID
  5
379
100
AcDbEntity
  8
0
100
AcDbTrace
 62
5
  6
CONTINUOUS
 10
293.9894990876
 20
264.8006783729
 11
292.5820916801
 21
264.6525307899
 12
292.3598694579
 22
264.9488262385
 13
292.3598694579
 23
264.9488262385
  0
SOLID
  5
37A
100
AcDbEntity
  8
0
100
AcDbTrace
 62
5
  6
CONTINUOUS
 10
289.470980569
 20
264.9488262385
 11
289.2487583468
 21
264.6525307899
 12
287.6191287172
 22
264.282164093
 13
287.6191287172
 23
264.282164093
  0
SOLID
  5
37B
100
AcDbEntity
  8
0
100
AcDbTrace
 62
5
  6
CONTINUOUS
 10
289.470980569
 20
264.9488262385
 11
287.6191287172
 21
264.282164093
 12
287.6191287172
 22
264.9488262385
 13
287.6191287172
 23
264.9488262385
  0
SOLID
  5
37C
100
AcDbEntity
  8
0
100
AcDbTrace
 62
5
  6
CONTINUOUS
 10
287.6191287172
 20
264.282164093
 11
289.2487583468
 21
264.6525307899
 12
289.1006101987
 22
264.282164093
 13
289.1006101987
 23
264.282164093
  0
SOLID
  5
37D
100
AcDbEntity
  8
0
100
AcDbTrace
 62
5
  6
CONTINUOUS
 10
292.8043139024
 20
264.282164093
 11
292.5820916801
 21
264.6525307899
 12
293.9894990876
 22
264.8006783729
 13
293.9894990876
 23
264.8006783729
  0
SOLID
  5
37E
100
AcDbEntity
  8
0
100
AcDbTrace
 62
5
  6
CONTINUOUS
 10
292.8043139024
 20
264.282164093
 11
293.9894990876
 21
264.8006783729
 12
294.1376472357
 22
264.1340117063
 13
294.1376472357
 23
264.1340117063
  0
SOLID
  5
37F
100
AcDbEntity
  8
0
100
AcDbTrace
 62
5
  6
CONTINUOUS
 10
294.1376472357
 20
264.1340117063
 11
292.8783879764
 21
263.83771541
 12
292.8043139024
 22
264.282164093
 13
292.8043139024
 23
264.282164093
  0
SOLID
  5
380
100
AcDbEntity
  8
0
100
AcDbTrace
 62
5
  6
CONTINUOUS
 10
289.1006101987
 20
264.282164093
 11
288.9524620505
 21
263.9117894841
 12
287.6191287172
 22
263.6895672618
 13
287.6191287172
 23
263.6895672618
  0
SOLID
  5
381
100
AcDbEntity
  8
0
100
AcDbTrace
 62
5
  6
CONTINUOUS
 10
289.1006101987
 20
264.282164093
 11
287.6191287172
 21
263.6895672618
 12
287.6191287172
 22
264.282164093
 13
287.6191287172
 23
264.282164093
  0
SOLID
  5
382
100
AcDbEntity
  8
0
100
AcDbTrace
 62
5
  6
CONTINUOUS
 10
287.6191287172
 20
263.6895672618
 11
288.9524620505
 21
263.9117894841
 12
288.9524620505
 22
263.4673489956
 13
288.9524620505
 23
263.4673489956
  0
SOLID
  5
383
100
AcDbEntity
  8
0
100
AcDbTrace
 62
5
  6
CONTINUOUS
 10
292.8783879764
 20
263.83771541
 11
294.1376472357
 21
264.1340117063
 12
294.2117213098
 22
263.4673489956
 13
294.2117213098
 23
263.4673489956
  0
SOLID
  5
384
100
AcDbEntity
  8
0
100
AcDbTrace
 62
5
  6
CONTINUOUS
 10
294.2117213098
 20
263.4673489956
 11
292.9524620505
 21
263.3932709655
 12
292.8783879764
 22
263.83771541
 13
292.8783879764
 23
263.83771541
  0
SOLID
  5
385
100
AcDbEntity
  8
0
100
AcDbTrace
 62
5
  6
CONTINUOUS
 10
288.9524620505
 20
263.4673489956
 11
287.6932027913
 21
263.171053547
 12
287.6191287172
 22
263.6895672618
 13
287.6191287172
 23
263.6895672618
  0
SOLID
  5
386
100
AcDbEntity
  8
0
100
AcDbTrace
 62
5
  6
CONTINUOUS
 10
287.6932027913
 20
263.171053547
 11
288.9524620505
 21
263.4673489956
 12
288.9524620505
 22
263.171053547
 13
288.9524620505
 23
263.171053547
  0
SOLID
  5
387
100
AcDbEntity
  8
0
100
AcDbTrace
 62
5
  6
CONTINUOUS
 10
292.9524620505
 20
263.3932709655
 11
294.2117213098
 21
263.4673489956
 12
294.1376472357
 22
263.0229005952
 13
294.1376472357
 23
263.0229005952
  0
SOLID
  5
388
100
AcDbEntity
  8
0
100
AcDbTrace
 62
5
  6
CONTINUOUS
 10
294.1376472357
 20
263.0229005952
 11
292.8783879764
 21
262.8747479259
 12
292.9524620505
 22
263.3932709655
 13
292.9524620505
 23
263.3932709655
  0
SOLID
  5
389
100
AcDbEntity
  8
0
100
AcDbTrace
 62
5
  6
CONTINUOUS
 10
288.9524620505
 20
263.171053547
 11
288.9524620505
 21
262.8747479259
 12
287.8413509394
 22
262.7266042989
 13
287.8413509394
 23
262.7266042989
  0
SOLID
  5
38A
100
AcDbEntity
  8
0
100
AcDbTrace
 62
5
  6
CONTINUOUS
 10
288.9524620505
 20
263.171053547
 11
287.8413509394
 21
262.7266042989
 12
287.6932027913
 22
263.171053547
 13
287.6932027913
 23
263.171053547
  0
SOLID
  5
38B
100
AcDbEntity
  8
0
100
AcDbTrace
 62
5
  6
CONTINUOUS
 10
287.8413509394
 20
262.7266042989
 11
288.9524620505
 21
262.8747479259
 12
289.1006101987
 22
262.578452336
 13
289.1006101987
 23
262.578452336
  0
SOLID
  5
38C
100
AcDbEntity
  8
0
100
AcDbTrace
 62
5
  6
CONTINUOUS
 10
292.8783879764
 20
262.8747479259
 11
294.1376472357
 21
263.0229005952
 12
294.0635731616
 22
262.578452336
 13
294.0635731616
 23
262.578452336
  0
SOLID
  5
38D
100
AcDbEntity
  8
0
100
AcDbTrace
 62
5
  6
CONTINUOUS
 10
294.0635731616
 20
262.578452336
 11
292.8043139024
 21
262.4303080026
 12
292.8783879764
 22
262.8747479259
 13
292.8783879764
 23
262.8747479259
  0
SOLID
  5
38E
100
AcDbEntity
  8
0
100
AcDbTrace
 62
5
  6
CONTINUOUS
 10
289.1006101987
 20
262.578452336
 11
287.9894990876
 21
262.2821568874
 12
287.8413509394
 22
262.7266042989
 13
287.8413509394
 23
262.7266042989
  0
SOLID
  5
38F
100
AcDbEntity
  8
0
100
AcDbTrace
 62
5
  6
CONTINUOUS
 10
287.9894990876
 20
262.2821568874
 11
289.1006101987
 21
262.578452336
 12
289.1746842727
 22
262.2821568874
 13
289.1746842727
 23
262.2821568874
  0
SOLID
  5
390
100
AcDbEntity
  8
0
100
AcDbTrace
 62
5
  6
CONTINUOUS
 10
292.8043139024
 20
262.4303080026
 11
294.0635731616
 21
262.578452336
 12
293.9154250135
 22
262.1340117063
 13
293.9154250135
 23
262.1340117063
  0
SOLID
  5
391
100
AcDbEntity
  8
0
100
AcDbTrace
 62
5
  6
CONTINUOUS
 10
293.9154250135
 20
262.1340117063
 11
292.5820916801
 21
262.0599376322
 12
292.8043139024
 22
262.4303080026
 13
292.8043139024
 23
262.4303080026
  0
SOLID
  5
392
100
AcDbEntity
  8
0
100
AcDbTrace
 62
5
  6
CONTINUOUS
 10
289.1746842727
 20
262.2821568874
 11
289.3228324209
 21
261.9858635581
 12
288.1376472357
 22
261.83771541
 13
288.1376472357
 23
261.83771541
  0
SOLID
  5
393
100
AcDbEntity
  8
0
100
AcDbTrace
 62
5
  6
CONTINUOUS
 10
289.1746842727
 20
262.2821568874
 11
288.1376472357
 21
261.83771541
 12
287.9894990876
 22
262.2821568874
 13
287.9894990876
 23
262.2821568874
  0
SOLID
  5
394
100
AcDbEntity
  8
0
100
AcDbTrace
 62
5
  6
CONTINUOUS
 10
288.1376472357
 20
261.83771541
 11
289.3228324209
 21
261.9858635581
 12
289.5450546431
 22
261.7636372386
 13
289.5450546431
 23
261.7636372386
  0
SOLID
  5
395
100
AcDbEntity
  8
0
100
AcDbTrace
 62
5
  6
CONTINUOUS
 10
292.3598694579
 20
261.7636372386
 11
292.5820916801
 21
262.0599376322
 12
293.9154250135
 22
262.1340117063
 13
293.9154250135
 23
262.1340117063
  0
SOLID
  5
396
100
AcDbEntity
  8
0
100
AcDbTrace
 62
5
  6
CONTINUOUS
 10
292.3598694579
 20
261.7636372386
 11
293.9154250135
 21
262.1340117063
 12
293.7672768653
 22
261.7636372386
 13
293.7672768653
 23
261.7636372386
  0
SOLID
  5
397
100
AcDbEntity
  8
0
100
AcDbTrace
 62
5
  6
CONTINUOUS
 10
289.5450546431
 20
261.7636372386
 11
289.6932027913
 21
261.6154931878
 12
288.3598694579
 22
261.5414191137
 13
288.3598694579
 23
261.5414191137
  0
SOLID
  5
398
100
AcDbEntity
  8
0
100
AcDbTrace
 62
5
  6
CONTINUOUS
 10
289.5450546431
 20
261.7636372386
 11
288.3598694579
 21
261.5414191137
 12
288.1376472357
 22
261.83771541
 13
288.1376472357
 23
261.83771541
  0
SOLID
  5
399
100
AcDbEntity
  8
0
100
AcDbTrace
 62
5
  6
CONTINUOUS
 10
293.7672768653
 20
261.7636372386
 11
292.0635731616
 21
261.4673450396
 12
292.3598694579
 22
261.7636372386
 13
292.3598694579
 23
261.7636372386
  0
SOLID
  5
39A
100
AcDbEntity
  8
0
100
AcDbTrace
 62
5
  6
CONTINUOUS
 10
288.3598694579
 20
261.5414191137
 11
289.6932027913
 21
261.6154931878
 12
289.9154250135
 22
261.393270471
 13
289.9154250135
 23
261.393270471
  0
SOLID
  5
39B
100
AcDbEntity
  8
0
100
AcDbTrace
 62
5
  6
CONTINUOUS
 10
292.0635731616
 20
261.4673450396
 11
293.7672768653
 21
261.7636372386
 12
293.5450546431
 22
261.393270471
 13
293.5450546431
 23
261.393270471
  0
SOLID
  5
39C
100
AcDbEntity
  8
0
100
AcDbTrace
 62
5
  6
CONTINUOUS
 10
293.5450546431
 20
261.393270471
 11
291.7672768653
 21
261.3191990814
 12
292.0635731616
 22
261.4673450396
 13
292.0635731616
 23
261.4673450396
  0
SOLID
  5
39D
100
AcDbEntity
  8
0
100
AcDbTrace
 62
5
  6
CONTINUOUS
 10
289.9154250135
 20
261.393270471
 11
290.2117213098
 21
261.3191990814
 12
288.5820916801
 22
261.2451228174
 13
288.5820916801
 23
261.2451228174
  0
SOLID
  5
39E
100
AcDbEntity
  8
0
100
AcDbTrace
 62
5
  6
CONTINUOUS
 10
289.9154250135
 20
261.393270471
 11
288.5820916801
 21
261.2451228174
 12
288.3598694579
 22
261.5414191137
 13
288.3598694579
 23
261.5414191137
  0
SOLID
  5
39F
100
AcDbEntity
  8
0
100
AcDbTrace
 62
5
  6
CONTINUOUS
 10
288.5820916801
 20
261.2451228174
 11
290.2117213098
 21
261.3191990814
 12
290.433943532
 22
261.1710462708
 13
290.433943532
 23
261.1710462708
  0
SOLID
  5
3A0
100
AcDbEntity
  8
0
100
AcDbTrace
 62
5
  6
CONTINUOUS
 10
291.396906495
 20
261.1710462708
 11
291.7672768653
 21
261.3191990814
 12
293.5450546431
 22
261.393270471
 13
293.5450546431
 23
261.393270471
  0
SOLID
  5
3A1
100
AcDbEntity
  8
0
100
AcDbTrace
 62
5
  6
CONTINUOUS
 10
291.396906495
 20
261.1710462708
 11
293.5450546431
 21
261.393270471
 12
293.3228324209
 22
261.0229005952
 13
293.3228324209
 23
261.0229005952
  0
SOLID
  5
3A2
100
AcDbEntity
  8
0
100
AcDbTrace
 62
5
  6
CONTINUOUS
 10
291.396906495
 20
261.1710462708
 11
293.3228324209
 21
261.0229005952
 12
288.8043139024
 22
260.9488265211
 13
288.8043139024
 23
260.9488265211
  0
SOLID
  5
3A3
100
AcDbEntity
  8
0
100
AcDbTrace
 62
5
  6
CONTINUOUS
 10
290.9524620505
 20
261.1710462708
 11
291.396906495
 21
261.1710462708
 12
288.8043139024
 22
260.9488265211
 13
288.8043139024
 23
260.9488265211
  0
SOLID
  5
3A4
100
AcDbEntity
  8
0
100
AcDbTrace
 62
5
  6
CONTINUOUS
 10
290.7302398283
 20
261.1710462708
 11
290.9524620505
 21
261.1710462708
 12
288.8043139024
 22
260.9488265211
 13
288.8043139024
 23
260.9488265211
  0
SOLID
  5
3A5
100
AcDbEntity
  8
0
100
AcDbTrace
 62
5
  6
CONTINUOUS
 10
290.433943532
 20
261.1710462708
 11
290.7302398283
 21
261.1710462708
 12
288.8043139024
 22
260.9488265211
 13
288.8043139024
 23
260.9488265211
  0
SOLID
  5
3A6
100
AcDbEntity
  8
0
100
AcDbTrace
 62
5
  6
CONTINUOUS
 10
290.433943532
 20
261.1710462708
 11
288.8043139024
 21
260.9488265211
 12
288.5820916801
 22
261.2451228174
 13
288.5820916801
 23
261.2451228174
  0
SOLID
  5
3A7
100
AcDbEntity
  8
0
100
AcDbTrace
 62
5
  6
CONTINUOUS
 10
289.1006101987
 20
260.7266081489
 11
288.8043139024
 21
260.9488265211
 12
293.3228324209
 22
261.0229005952
 13
293.3228324209
 23
261.0229005952
  0
SOLID
  5
3A8
100
AcDbEntity
  8
0
100
AcDbTrace
 62
5
  6
CONTINUOUS
 10
289.1006101987
 20
260.7266081489
 11
293.3228324209
 21
261.0229005952
 12
293.0265361246
 22
260.7266081489
 13
293.0265361246
 23
260.7266081489
  0
SOLID
  5
3A9
100
AcDbEntity
  8
0
100
AcDbTrace
 62
5
  6
CONTINUOUS
 10
293.0265361246
 20
260.7266081489
 11
289.3228324209
 21
260.5043840017
 12
289.1006101987
 22
260.7266081489
 13
289.1006101987
 23
260.7266081489
  0
SOLID
  5
3AA
100
AcDbEntity
  8
0
100
AcDbTrace
 62
5
  6
CONTINUOUS
 10
289.3228324209
 20
260.5043840017
 11
293.0265361246
 21
260.7266081489
 12
292.6561657542
 22
260.5043840017
 13
292.6561657542
 23
260.5043840017
  0
SOLID
  5
3AB
100
AcDbEntity
  8
0
100
AcDbTrace
 62
5
  6
CONTINUOUS
 10
292.6561657542
 20
260.5043840017
 11
289.6932027913
 21
260.3562311867
 12
289.3228324209
 22
260.5043840017
 13
289.3228324209
 23
260.5043840017
  0
SOLID
  5
3AC
100
AcDbEntity
  8
0
100
AcDbTrace
 62
5
  6
CONTINUOUS
 10
289.6932027913
 20
260.3562311867
 11
292.6561657542
 21
260.5043840017
 12
292.2857953838
 22
260.3562311867
 13
292.2857953838
 23
260.3562311867
  0
SOLID
  5
3AD
100
AcDbEntity
  8
0
100
AcDbTrace
 62
5
  6
CONTINUOUS
 10
292.2857953838
 20
260.3562311867
 11
289.9894990876
 21
260.2821598544
 12
289.6932027913
 22
260.3562311867
 13
289.6932027913
 23
260.3562311867
  0
SOLID
  5
3AE
100
AcDbEntity
  8
0
100
AcDbTrace
 62
5
  6
CONTINUOUS
 10
289.9894990876
 20
260.2821598544
 11
292.2857953838
 21
260.3562311867
 12
291.9154250135
 22
260.2821598544
 13
291.9154250135
 23
260.2821598544
  0
SOLID
  5
3AF
100
AcDbEntity
  8
0
100
AcDbTrace
 62
5
  6
CONTINUOUS
 10
291.9154250135
 20
260.2821598544
 11
290.2857953838
 21
260.2080885222
 12
289.9894990876
 22
260.2821598544
 13
289.9894990876
 23
260.2821598544
  0
SOLID
  5
3B0
100
AcDbEntity
  8
0
100
AcDbTrace
 62
5
  6
CONTINUOUS
 10
290.6561657542
 20
260.2080885222
 11
290.2857953838
 21
260.2080885222
 12
291.9154250135
 22
260.2821598544
 13
291.9154250135
 23
260.2821598544
  0
SOLID
  5
3B1
100
AcDbEntity
  8
0
100
AcDbTrace
 62
5
  6
CONTINUOUS
 10
290.6561657542
 20
260.2080885222
 11
291.9154250135
 21
260.2821598544
 12
291.470980569
 22
260.2080885222
 13
291.470980569
 23
260.2080885222
  0
SOLID
  5
3B2
100
AcDbEntity
  8
0
100
AcDbTrace
 62
5
  6
CONTINUOUS
 10
291.470980569
 20
260.2080885222
 11
291.0265361246
 21
260.1340117063
 12
290.6561657542
 22
260.2080885222
 13
290.6561657542
 23
260.2080885222
  0
SOLID
  5
3B3
100
AcDbEntity
  8
0
100
AcDbTrace
 62
5
  6
CONTINUOUS
 10
297.5450546431
 20
268.8747496213
 11
301.396906495
 21
270.1340094457
 12
301.396906495
 22
268.8747496213
 13
301.396906495
 23
268.8747496213
  0
SOLID
  5
3B4
100
AcDbEntity
  8
0
100
AcDbTrace
 62
5
  6
CONTINUOUS
 10
298.3598694579
 20
266.8747496213
 11
298.8783879764
 21
266.9488265211
 12
299.470980569
 22
266.8747496213
 13
299.470980569
 23
266.8747496213
  0
SOLID
  5
3B5
100
AcDbEntity
  8
0
100
AcDbTrace
 62
5
  6
CONTINUOUS
 10
299.470980569
 20
266.8747496213
 11
297.9154250135
 21
266.7266042989
 12
298.3598694579
 22
266.8747496213
 13
298.3598694579
 23
266.8747496213
  0
SOLID
  5
3B6
100
AcDbEntity
  8
0
100
AcDbTrace
 62
5
  6
CONTINUOUS
 10
297.9154250135
 20
266.7266042989
 11
299.470980569
 21
266.8747496213
 12
300.0635731616
 22
266.6525302248
 13
300.0635731616
 23
266.6525302248
  0
SOLID
  5
3B7
100
AcDbEntity
  8
0
100
AcDbTrace
 62
5
  6
CONTINUOUS
 10
300.0635731616
 20
266.6525302248
 11
297.470980569
 21
266.5043820766
 12
297.9154250135
 22
266.7266042989
 13
297.9154250135
 23
266.7266042989
  0
SOLID
  5
3B8
100
AcDbEntity
  8
0
100
AcDbTrace
 62
5
  6
CONTINUOUS
 10
297.470980569
 20
266.5043820766
 11
300.0635731616
 21
266.6525302248
 12
300.5080176061
 22
266.4303080026
 13
300.5080176061
 23
266.4303080026
  0
SOLID
  5
3B9
100
AcDbEntity
  8
0
100
AcDbTrace
 62
5
  6
CONTINUOUS
 10
300.5080176061
 20
266.4303080026
 11
297.0265361246
 21
266.2080857803
 12
297.470980569
 22
266.5043820766
 13
297.470980569
 23
266.5043820766
  0
SOLID
  5
3BA
100
AcDbEntity
  8
0
100
AcDbTrace
 62
5
  6
CONTINUOUS
 10
297.0265361246
 20
266.2080857803
 11
300.5080176061
 21
266.4303080026
 12
301.0265361246
 22
265.9858635581
 13
301.0265361246
 23
265.9858635581
  0
SOLID
  5
3BB
100
AcDbEntity
  8
0
100
AcDbTrace
 62
5
  6
CONTINUOUS
 10
297.9894990876
 20
265.6895700875
 11
298.5820916801
 21
265.7636413359
 12
298.2857953838
 22
265.6895700875
 13
298.2857953838
 23
265.6895700875
  0
SOLID
  5
3BC
100
AcDbEntity
  8
0
100
AcDbTrace
 62
5
  6
CONTINUOUS
 10
299.0265361246
 20
265.6895700875
 11
298.5820916801
 21
265.7636413359
 12
301.0265361246
 22
265.9858635581
 13
301.0265361246
 23
265.9858635581
  0
SOLID
  5
3BD
100
AcDbEntity
  8
0
100
AcDbTrace
 62
5
  6
CONTINUOUS
 10
299.470980569
 20
265.6154897969
 11
299.0265361246
 21
265.6895700875
 12
301.0265361246
 22
265.9858635581
 13
301.0265361246
 23
265.9858635581
  0
SOLID
  5
3BE
100
AcDbEntity
  8
0
100
AcDbTrace
 62
5
  6
CONTINUOUS
 10
299.470980569
 20
265.6154897969
 11
301.0265361246
 21
265.9858635581
 12
301.396906495
 22
265.5414191137
 13
301.396906495
 23
265.5414191137
  0
SOLID
  5
3BF
100
AcDbEntity
  8
0
100
AcDbTrace
 62
5
  6
CONTINUOUS
 10
301.396906495
 20
265.5414191137
 11
299.7672768653
 21
265.3932709655
 12
299.470980569
 22
265.6154897969
 13
299.470980569
 23
265.6154897969
  0
SOLID
  5
3C0
100
AcDbEntity
  8
0
100
AcDbTrace
 62
5
  6
CONTINUOUS
 10
297.5450546431
 20
265.4673450396
 11
297.1746842727
 21
265.1710498736
 12
295.6191287172
 22
265.0229005952
 13
295.6191287172
 23
265.0229005952
  0
SOLID
  5
3C1
100
AcDbEntity
  8
0
100
AcDbTrace
 62
5
  6
CONTINUOUS
 10
297.7672768653
 20
265.6154897969
 11
297.5450546431
 21
265.4673450396
 12
295.6191287172
 22
265.0229005952
 13
295.6191287172
 23
265.0229005952
  0
SOLID
  5
3C2
100
AcDbEntity
  8
0
100
AcDbTrace
 62
5
  6
CONTINUOUS
 10
297.9894990876
 20
265.6895700875
 11
297.7672768653
 21
265.6154897969
 12
295.6191287172
 22
265.0229005952
 13
295.6191287172
 23
265.0229005952
  0
SOLID
  5
3C3
100
AcDbEntity
  8
0
100
AcDbTrace
 62
5
  6
CONTINUOUS
 10
297.0265361246
 20
266.2080857803
 11
301.0265361246
 21
265.9858635581
 12
298.5820916801
 22
265.7636413359
 13
298.5820916801
 23
265.7636413359
  0
SOLID
  5
3C4
100
AcDbEntity
  8
0
100
AcDbTrace
 62
5
  6
CONTINUOUS
 10
297.0265361246
 20
266.2080857803
 11
298.5820916801
 21
265.7636413359
 12
297.9894990876
 22
265.6895700875
 13
297.9894990876
 23
265.6895700875
  0
SOLID
  5
3C5
100
AcDbEntity
  8
0
100
AcDbTrace
 62
5
  6
CONTINUOUS
 10
297.0265361246
 20
266.2080857803
 11
297.9894990876
 21
265.6895700875
 12
295.6191287172
 22
265.0229005952
 13
295.6191287172
 23
265.0229005952
  0
SOLID
  5
3C6
100
AcDbEntity
  8
0
100
AcDbTrace
 62
5
  6
CONTINUOUS
 10
297.5450546431
 20
268.8747496213
 11
297.0265361246
 21
266.2080857803
 12
295.6191287172
 22
265.0229005952
 13
295.6191287172
 23
265.0229005952
  0
SOLID
  5
3C7
100
AcDbEntity
  8
0
100
AcDbTrace
 62
5
  6
CONTINUOUS
 10
296.6561657542
 20
270.1340094457
 11
301.396906495
 21
270.1340094457
 12
297.5450546431
 22
268.8747496213
 13
297.5450546431
 23
268.8747496213
  0
SOLID
  5
3C8
100
AcDbEntity
  8
0
100
AcDbTrace
 62
5
  6
CONTINUOUS
 10
297.5450546431
 20
268.8747496213
 11
295.6191287172
 21
265.0229005952
 12
296.6561657542
 22
270.1340094457
 13
296.6561657542
 23
270.1340094457
  0
SOLID
  5
3C9
100
AcDbEntity
  8
0
100
AcDbTrace
 62
5
  6
CONTINUOUS
 10
300.0635731616
 20
265.1710498736
 11
299.7672768653
 21
265.3932709655
 12
301.396906495
 22
265.5414191137
 13
301.396906495
 23
265.5414191137
  0
SOLID
  5
3CA
100
AcDbEntity
  8
0
100
AcDbTrace
 62
5
  6
CONTINUOUS
 10
300.0635731616
 20
265.1710498736
 11
301.396906495
 21
265.5414191137
 12
301.6932027913
 22
264.9488265211
 13
301.6932027913
 23
264.9488265211
  0
SOLID
  5
3CB
100
AcDbEntity
  8
0
100
AcDbTrace
 62
5
  6
CONTINUOUS
 10
295.6191287172
 20
265.0229005952
 11
297.1746842727
 21
265.1710498736
 12
296.8783879764
 22
264.874752447
 13
296.8783879764
 23
264.874752447
  0
SOLID
  5
3CC
100
AcDbEntity
  8
0
100
AcDbTrace
 62
5
  6
CONTINUOUS
 10
301.6932027913
 20
264.9488265211
 11
300.2857953838
 21
264.8006783729
 12
300.0635731616
 22
265.1710498736
 13
300.0635731616
 23
265.1710498736
  0
SOLID
  5
3CD
100
AcDbEntity
  8
0
100
AcDbTrace
 62
5
  6
CONTINUOUS
 10
300.5080176061
 20
264.4303080026
 11
300.2857953838
 21
264.8006783729
 12
301.6932027913
 22
264.9488265211
 13
301.6932027913
 23
264.9488265211
  0
SOLID
  5
3CE
100
AcDbEntity
  8
0
100
AcDbTrace
 62
5
  6
CONTINUOUS
 10
300.5080176061
 20
264.4303080026
 11
301.6932027913
 21
264.9488265211
 12
301.8413509394
 22
264.3562339285
 13
301.8413509394
 23
264.3562339285
  0
SOLID
  5
3CF
100
AcDbEntity
  8
0
100
AcDbTrace
 62
5
  6
CONTINUOUS
 10
301.8413509394
 20
264.3562339285
 11
300.5820916801
 21
263.9858635581
 12
300.5080176061
 22
264.4303080026
 13
300.5080176061
 23
264.4303080026
  0
SOLID
  5
3D0
100
AcDbEntity
  8
0
100
AcDbTrace
 62
5
  6
CONTINUOUS
 10
300.5820916801
 20
263.9858635581
 11
301.8413509394
 21
264.3562339285
 12
301.9154250135
 22
263.6895672618
 13
301.9154250135
 23
263.6895672618
  0
SOLID
  5
3D1
100
AcDbEntity
  8
0
100
AcDbTrace
 62
5
  6
CONTINUOUS
 10
301.9154250135
 20
263.6895672618
 11
300.6561657542
 21
263.5414191137
 12
300.5820916801
 22
263.9858635581
 13
300.5820916801
 23
263.9858635581
  0
SOLID
  5
3D2
100
AcDbEntity
  8
0
100
AcDbTrace
 62
5
  6
CONTINUOUS
 10
300.5820916801
 20
263.0228997475
 11
300.6561657542
 21
263.5414191137
 12
301.9154250135
 22
263.6895672618
 13
301.9154250135
 23
263.6895672618
  0
SOLID
  5
3D3
100
AcDbEntity
  8
0
100
AcDbTrace
 62
5
  6
CONTINUOUS
 10
300.5820916801
 20
263.0228997475
 11
301.9154250135
 21
263.6895672618
 12
301.8413509394
 22
263.0228997475
 13
301.8413509394
 23
263.0228997475
  0
SOLID
  5
3D4
100
AcDbEntity
  8
0
100
AcDbTrace
 62
5
  6
CONTINUOUS
 10
295.470980569
 20
262.9488265211
 11
296.7302398283
 21
263.0228997475
 12
296.8043139024
 22
262.5784598241
 13
296.8043139024
 23
262.5784598241
  0
SOLID
  5
3D5
100
AcDbEntity
  8
0
100
AcDbTrace
 62
5
  6
CONTINUOUS
 10
301.8413509394
 20
263.0228997475
 11
300.5080176061
 21
262.5784598241
 12
300.5820916801
 22
263.0228997475
 13
300.5820916801
 23
263.0228997475
  0
SOLID
  5
3D6
100
AcDbEntity
  8
0
100
AcDbTrace
 62
5
  6
CONTINUOUS
 10
300.5080176061
 20
262.5784598241
 11
301.8413509394
 21
263.0228997475
 12
301.6932027913
 22
262.4303080026
 13
301.6932027913
 23
262.4303080026
  0
SOLID
  5
3D7
100
AcDbEntity
  8
0
100
AcDbTrace
 62
5
  6
CONTINUOUS
 10
296.8043139024
 20
262.5784598241
 11
295.5450546431
 21
262.2821598544
 12
295.470980569
 22
262.9488265211
 13
295.470980569
 23
262.9488265211
  0
SOLID
  5
3D8
100
AcDbEntity
  8
0
100
AcDbTrace
 62
5
  6
CONTINUOUS
 10
295.5450546431
 20
262.2821598544
 11
296.8043139024
 21
262.5784598241
 12
296.9524620505
 22
262.2080857803
 13
296.9524620505
 23
262.2080857803
  0
SOLID
  5
3D9
100
AcDbEntity
  8
0
100
AcDbTrace
 62
5
  6
CONTINUOUS
 10
301.6932027913
 20
262.4303080026
 11
300.2857953838
 21
262.1340117063
 12
300.5080176061
 22
262.5784598241
 13
300.5080176061
 23
262.5784598241
  0
SOLID
  5
3DA
100
AcDbEntity
  8
0
100
AcDbTrace
 62
5
  6
CONTINUOUS
 10
300.2857953838
 20
262.1340117063
 11
301.6932027913
 21
262.4303080026
 12
301.470980569
 22
261.8377197898
 13
301.470980569
 23
261.8377197898
  0
SOLID
  5
3DB
100
AcDbEntity
  8
0
100
AcDbTrace
 62
5
  6
CONTINUOUS
 10
296.9524620505
 20
262.2080857803
 11
297.1006101987
 21
261.8377197898
 12
295.7672768653
 22
261.7636399231
 13
295.7672768653
 23
261.7636399231
  0
SOLID
  5
3DC
100
AcDbEntity
  8
0
100
AcDbTrace
 62
5
  6
CONTINUOUS
 10
296.9524620505
 20
262.2080857803
 11
295.7672768653
 21
261.7636399231
 12
295.5450546431
 22
262.2821598544
 13
295.5450546431
 23
262.2821598544
  0
SOLID
  5
3DD
100
AcDbEntity
  8
0
100
AcDbTrace
 62
5
  6
CONTINUOUS
 10
301.470980569
 20
261.8377197898
 11
300.0635731616
 21
261.7636399231
 12
300.2857953838
 22
262.1340117063
 13
300.2857953838
 23
262.1340117063
  0
SOLID
  5
3DE
100
AcDbEntity
  8
0
100
AcDbTrace
 62
5
  6
CONTINUOUS
 10
295.7672768653
 20
261.7636399231
 11
297.1006101987
 21
261.8377197898
 12
297.3228324209
 22
261.6154931878
 13
297.3228324209
 23
261.6154931878
  0
SOLID
  5
3DF
100
AcDbEntity
  8
0
100
AcDbTrace
 62
5
  6
CONTINUOUS
 10
297.3228324209
 20
261.6154931878
 11
297.6191287172
 21
261.3932709655
 12
295.9894990876
 22
261.3191998584
 13
295.9894990876
 23
261.3191998584
  0
SOLID
  5
3E0
100
AcDbEntity
  8
0
100
AcDbTrace
 62
5
  6
CONTINUOUS
 10
297.3228324209
 20
261.6154931878
 11
295.9894990876
 21
261.3191998584
 12
295.7672768653
 22
261.7636399231
 13
295.7672768653
 23
261.7636399231
  0
SOLID
  5
3E1
100
AcDbEntity
  8
0
100
AcDbTrace
 62
5
  6
CONTINUOUS
 10
299.7672768653
 20
261.4673450396
 11
300.0635731616
 21
261.7636399231
 12
301.470980569
 22
261.8377197898
 13
301.470980569
 23
261.8377197898
  0
SOLID
  5
3E2
100
AcDbEntity
  8
0
100
AcDbTrace
 62
5
  6
CONTINUOUS
 10
299.396906495
 20
261.3191998584
 11
299.7672768653
 21
261.4673450396
 12
301.470980569
 22
261.8377197898
 13
301.470980569
 23
261.8377197898
  0
SOLID
  5
3E3
100
AcDbEntity
  8
0
100
AcDbTrace
 62
5
  6
CONTINUOUS
 10
299.396906495
 20
261.3191998584
 11
301.470980569
 21
261.8377197898
 12
301.1006101987
 22
261.3191998584
 13
301.1006101987
 23
261.3191998584
  0
SOLID
  5
3E4
100
AcDbEntity
  8
0
100
AcDbTrace
 62
5
  6
CONTINUOUS
 10
295.9894990876
 20
261.3191998584
 11
297.6191287172
 21
261.3932709655
 12
297.8413509394
 22
261.2451228174
 13
297.8413509394
 23
261.2451228174
  0
SOLID
  5
3E5
100
AcDbEntity
  8
0
100
AcDbTrace
 62
5
  6
CONTINUOUS
 10
301.1006101987
 20
261.3191998584
 11
299.0265361246
 21
261.1710498736
 12
299.396906495
 22
261.3191998584
 13
299.396906495
 23
261.3191998584
  0
SOLID
  5
3E6
100
AcDbEntity
  8
0
100
AcDbTrace
 62
5
  6
CONTINUOUS
 10
299.0265361246
 20
261.1710498736
 11
301.1006101987
 21
261.3191998584
 12
300.8783879764
 22
261.0229005952
 13
300.8783879764
 23
261.0229005952
  0
SOLID
  5
3E7
100
AcDbEntity
  8
0
100
AcDbTrace
 62
5
  6
CONTINUOUS
 10
299.0265361246
 20
261.1710498736
 11
300.8783879764
 21
261.0229005952
 12
296.3598694579
 22
260.874752447
 13
296.3598694579
 23
260.874752447
  0
SOLID
  5
3E8
100
AcDbEntity
  8
0
100
AcDbTrace
 62
5
  6
CONTINUOUS
 10
298.5820916801
 20
261.1710498736
 11
299.0265361246
 21
261.1710498736
 12
296.3598694579
 22
260.874752447
 13
296.3598694579
 23
260.874752447
  0
SOLID
  5
3E9
100
AcDbEntity
  8
0
100
AcDbTrace
 62
5
  6
CONTINUOUS
 10
298.2117213098
 20
261.1710498736
 11
298.5820916801
 21
261.1710498736
 12
296.3598694579
 22
260.874752447
 13
296.3598694579
 23
260.874752447
  0
SOLID
  5
3EA
100
AcDbEntity
  8
0
100
AcDbTrace
 62
5
  6
CONTINUOUS
 10
297.8413509394
 20
261.2451228174
 11
298.2117213098
 21
261.1710498736
 12
296.3598694579
 22
260.874752447
 13
296.3598694579
 23
260.874752447
  0
SOLID
  5
3EB
100
AcDbEntity
  8
0
100
AcDbTrace
 62
5
  6
CONTINUOUS
 10
297.8413509394
 20
261.2451228174
 11
296.3598694579
 21
260.874752447
 12
295.9894990876
 22
261.3191998584
 13
295.9894990876
 23
261.3191998584
  0
SOLID
  5
3EC
100
AcDbEntity
  8
0
100
AcDbTrace
 62
5
  6
CONTINUOUS
 10
296.3598694579
 20
260.874752447
 11
300.8783879764
 21
261.0229005952
 12
300.5820916801
 22
260.8006783729
 13
300.5820916801
 23
260.8006783729
  0
SOLID
  5
3ED
100
AcDbEntity
  8
0
100
AcDbTrace
 62
5
  6
CONTINUOUS
 10
300.5820916801
 20
260.8006783729
 11
300.2857953838
 21
260.5784561507
 12
296.8783879764
 22
260.5043820766
 13
296.8783879764
 23
260.5043820766
  0
SOLID
  5
3EE
100
AcDbEntity
  8
0
100
AcDbTrace
 62
5
  6
CONTINUOUS
 10
300.5820916801
 20
260.8006783729
 11
296.8783879764
 21
260.5043820766
 12
296.3598694579
 22
260.874752447
 13
296.3598694579
 23
260.874752447
  0
SOLID
  5
3EF
100
AcDbEntity
  8
0
100
AcDbTrace
 62
5
  6
CONTINUOUS
 10
296.8783879764
 20
260.5043820766
 11
300.2857953838
 21
260.5784561507
 12
299.9894990876
 22
260.4303080026
 13
299.9894990876
 23
260.4303080026
  0
SOLID
  5
3F0
100
AcDbEntity
  8
0
100
AcDbTrace
 62
5
  6
CONTINUOUS
 10
299.9894990876
 20
260.4303080026
 11
297.3228324209
 21
260.2821598544
 12
296.8783879764
 22
260.5043820766
 13
296.8783879764
 23
260.5043820766
  0
SOLID
  5
3F1
100
AcDbEntity
  8
0
100
AcDbTrace
 62
5
  6
CONTINUOUS
 10
299.3228324209
 20
260.2821598544
 11
297.3228324209
 21
260.2821598544
 12
299.9894990876
 22
260.4303080026
 13
299.9894990876
 23
260.4303080026
  0
SOLID
  5
3F2
100
AcDbEntity
  8
0
100
AcDbTrace
 62
5
  6
CONTINUOUS
 10
299.3228324209
 20
260.2821598544
 11
299.9894990876
 21
260.4303080026
 12
299.6932027913
 22
260.2821598544
 13
299.6932027913
 23
260.2821598544
  0
SOLID
  5
3F3
100
AcDbEntity
  8
0
100
AcDbTrace
 62
5
  6
CONTINUOUS
 10
299.3228324209
 20
260.2821598544
 11
297.9154250135
 21
260.2080898555
 12
297.3228324209
 22
260.2821598544
 13
297.3228324209
 23
260.2821598544
  0
SOLID
  5
3F4
100
AcDbEntity
  8
0
100
AcDbTrace
 62
5
  6
CONTINUOUS
 10
297.9154250135
 20
260.2080898555
 11
299.3228324209
 21
260.2821598544
 12
298.9524620505
 22
260.2080898555
 13
298.9524620505
 23
260.2080898555
  0
SOLID
  5
3F5
100
AcDbEntity
  8
0
100
AcDbTrace
 62
5
  6
CONTINUOUS
 10
298.9524620505
 20
260.2080898555
 11
298.5820916801
 21
260.1340117063
 12
297.9154250135
 22
260.2080898555
 13
297.9154250135
 23
260.2080898555
  0
SOLID
  5
3F6
100
AcDbEntity
  8
0
100
AcDbTrace
 62
5
  6
CONTINUOUS
 10
305.8413509394
 20
270.2080835198
 11
306.3598694579
 21
270.2821598544
 12
306.7302398283
 22
270.2080835198
 13
306.7302398283
 23
270.2080835198
  0
SOLID
  5
3F7
100
AcDbEntity
  8
0
100
AcDbTrace
 62
5
  6
CONTINUOUS
 10
306.7302398283
 20
270.2080835198
 11
305.396906495
 21
270.1340128366
 12
305.8413509394
 22
270.2080835198
 13
305.8413509394
 23
270.2080835198
  0
SOLID
  5
3F8
100
AcDbEntity
  8
0
100
AcDbTrace
 62
5
  6
CONTINUOUS
 10
305.396906495
 20
270.1340128366
 11
306.7302398283
 21
270.2080835198
 12
307.1006101987
 22
270.1340128366
 13
307.1006101987
 23
270.1340128366
  0
SOLID
  5
3F9
100
AcDbEntity
  8
0
100
AcDbTrace
 62
5
  6
CONTINUOUS
 10
307.1006101987
 20
270.1340128366
 11
307.470980569
 21
270.0599376322
 12
304.9524620505
 22
269.9117883538
 13
304.9524620505
 23
269.9117883538
  0
SOLID
  5
3FA
100
AcDbEntity
  8
0
100
AcDbTrace
 62
5
  6
CONTINUOUS
 10
307.1006101987
 20
270.1340128366
 11
304.9524620505
 21
269.9117883538
 12
305.396906495
 22
270.1340128366
 13
305.396906495
 23
270.1340128366
  0
SOLID
  5
3FB
100
AcDbEntity
  8
0
100
AcDbTrace
 62
5
  6
CONTINUOUS
 10
304.9524620505
 20
269.9117883538
 11
307.470980569
 21
270.0599376322
 12
307.7672768653
 22
269.9117883538
 13
307.7672768653
 23
269.9117883538
  0
SOLID
  5
3FC
100
AcDbEntity
  8
0
100
AcDbTrace
 62
5
  6
CONTINUOUS
 10
307.7672768653
 20
269.9117883538
 11
308.0635731616
 21
269.7636413359
 12
304.5820916801
 22
269.6895672618
 13
304.5820916801
 23
269.6895672618
  0
SOLID
  5
3FD
100
AcDbEntity
  8
0
100
AcDbTrace
 62
5
  6
CONTINUOUS
 10
307.7672768653
 20
269.9117883538
 11
304.5820916801
 21
269.6895672618
 12
304.9524620505
 22
269.9117883538
 13
304.9524620505
 23
269.9117883538
  0
SOLID
  5
3FE
100
AcDbEntity
  8
0
100
AcDbTrace
 62
5
  6
CONTINUOUS
 10
304.5820916801
 20
269.6895672618
 11
308.0635731616
 21
269.7636413359
 12
308.3598694579
 22
269.5414191137
 13
308.3598694579
 23
269.5414191137
  0
SOLID
  5
3FF
100
AcDbEntity
  8
0
100
AcDbTrace
 62
5
  6
CONTINUOUS
 10
308.3598694579
 20
269.5414191137
 11
304.2117213098
 21
269.3932709655
 12
304.5820916801
 22
269.6895672618
 13
304.5820916801
 23
269.6895672618
  0
SOLID
  5
400
100
AcDbEntity
  8
0
100
AcDbTrace
 62
5
  6
CONTINUOUS
 10
306.3598694579
 20
269.2451262082
 11
304.2117213098
 21
269.3932709655
 12
308.3598694579
 22
269.5414191137
 13
308.3598694579
 23
269.5414191137
  0
SOLID
  5
401
100
AcDbEntity
  8
0
100
AcDbTrace
 62
5
  6
CONTINUOUS
 10
306.3598694579
 20
269.2451262082
 11
308.3598694579
 21
269.5414191137
 12
308.5820916801
 22
269.2451262082
 13
308.5820916801
 23
269.2451262082
  0
SOLID
  5
402
100
AcDbEntity
  8
0
100
AcDbTrace
 62
5
  6
CONTINUOUS
 10
308.5820916801
 20
269.2451262082
 11
306.7302398283
 21
269.1710447873
 12
306.3598694579
 22
269.2451262082
 13
306.3598694579
 23
269.2451262082
  0
SOLID
  5
403
100
AcDbEntity
  8
0
100
AcDbTrace
 62
5
  6
CONTINUOUS
 10
307.1006101987
 20
269.0229017254
 11
306.7302398283
 21
269.1710447873
 12
308.5820916801
 22
269.2451262082
 13
308.5820916801
 23
269.2451262082
  0
SOLID
  5
404
100
AcDbEntity
  8
0
100
AcDbTrace
 62
5
  6
CONTINUOUS
 10
307.1006101987
 20
269.0229017254
 11
308.5820916801
 21
269.2451262082
 12
308.7302398283
 22
269.0229017254
 13
308.7302398283
 23
269.0229017254
  0
SOLID
  5
405
100
AcDbEntity
  8
0
100
AcDbTrace
 62
5
  6
CONTINUOUS
 10
305.9154250135
 20
269.1710447873
 11
305.6191287172
 21
269.0229017254
 12
303.9154250135
 22
268.9488265211
 13
303.9154250135
 23
268.9488265211
  0
SOLID
  5
406
100
AcDbEntity
  8
0
100
AcDbTrace
 62
5
  6
CONTINUOUS
 10
306.3598694579
 20
269.2451262082
 11
305.9154250135
 21
269.1710447873
 12
303.9154250135
 22
268.9488265211
 13
303.9154250135
 23
268.9488265211
  0
SOLID
  5
407
100
AcDbEntity
  8
0
100
AcDbTrace
 62
5
  6
CONTINUOUS
 10
306.3598694579
 20
269.2451262082
 11
303.9154250135
 21
268.9488265211
 12
304.2117213098
 22
269.3932709655
 13
304.2117213098
 23
269.3932709655
  0
SOLID
  5
408
100
AcDbEntity
  8
0
100
AcDbTrace
 62
5
  6
CONTINUOUS
 10
303.9154250135
 20
268.9488265211
 11
305.6191287172
 21
269.0229017254
 12
305.2487583468
 22
268.8006783729
 13
305.2487583468
 23
268.8006783729
  0
SOLID
  5
409
100
AcDbEntity
  8
0
100
AcDbTrace
 62
5
  6
CONTINUOUS
 10
308.7302398283
 20
269.0229017254
 11
307.470980569
 21
268.7266042989
 12
307.1006101987
 22
269.0229017254
 13
307.1006101987
 23
269.0229017254
  0
SOLID
  5
40A
100
AcDbEntity
  8
0
100
AcDbTrace
 62
5
  6
CONTINUOUS
 10
307.470980569
 20
268.7266042989
 11
308.7302398283
 21
269.0229017254
 12
308.9524620505
 22
268.6525302248
 13
308.9524620505
 23
268.6525302248
  0
SOLID
  5
40B
100
AcDbEntity
  8
0
100
AcDbTrace
 62
5
  6
CONTINUOUS
 10
305.2487583468
 20
268.8006783729
 11
303.6932027913
 21
268.5043820766
 12
303.9154250135
 22
268.9488265211
 13
303.9154250135
 23
268.9488265211
  0
SOLID
  5
40C
100
AcDbEntity
  8
0
100
AcDbTrace
 62
5
  6
CONTINUOUS
 10
303.6932027913
 20
268.5043820766
 11
305.2487583468
 21
268.8006783729
 12
305.0265361246
 22
268.5043820766
 13
305.0265361246
 23
268.5043820766
  0
SOLID
  5
40D
100
AcDbEntity
  8
0
100
AcDbTrace
 62
5
  6
CONTINUOUS
 10
308.9524620505
 20
268.6525302248
 11
307.7672768653
 21
268.4303080026
 12
307.470980569
 22
268.7266042989
 13
307.470980569
 23
268.7266042989
  0
SOLID
  5
40E
100
AcDbEntity
  8
0
100
AcDbTrace
 62
5
  6
CONTINUOUS
 10
307.7672768653
 20
268.4303080026
 11
308.9524620505
 21
268.6525302248
 12
309.1006101987
 22
268.3562339285
 13
309.1006101987
 23
268.3562339285
  0
SOLID
  5
40F
100
AcDbEntity
  8
0
100
AcDbTrace
 62
5
  6
CONTINUOUS
 10
309.1006101987
 20
268.3562339285
 11
307.9154250135
 21
268.2080857803
 12
307.7672768653
 22
268.4303080026
 13
307.7672768653
 23
268.4303080026
  0
SOLID
  5
410
100
AcDbEntity
  8
0
100
AcDbTrace
 62
5
  6
CONTINUOUS
 10
305.0265361246
 20
268.5043820766
 11
304.8783879764
 21
268.2821598544
 12
303.470980569
 22
268.0599376322
 13
303.470980569
 23
268.0599376322
  0
SOLID
  5
411
100
AcDbEntity
  8
0
100
AcDbTrace
 62
5
  6
CONTINUOUS
 10
305.0265361246
 20
268.5043820766
 11
303.470980569
 21
268.0599376322
 12
303.6932027913
 22
268.5043820766
 13
303.6932027913
 23
268.5043820766
  0
SOLID
  5
412
100
AcDbEntity
  8
0
100
AcDbTrace
 62
5
  6
CONTINUOUS
 10
303.470980569
 20
268.0599376322
 11
304.8783879764
 21
268.2821598544
 12
304.7302398283
 22
267.9858635581
 13
304.7302398283
 23
267.9858635581
  0
SOLID
  5
413
100
AcDbEntity
  8
0
100
AcDbTrace
 62
5
  6
CONTINUOUS
 10
307.9894990876
 20
267.9117911795
 11
307.9154250135
 21
268.2080857803
 12
309.1006101987
 22
268.3562339285
 13
309.1006101987
 23
268.3562339285
  0
SOLID
  5
414
100
AcDbEntity
  8
0
100
AcDbTrace
 62
5
  6
CONTINUOUS
 10
307.9894990876
 20
267.9117911795
 11
309.1006101987
 21
268.3562339285
 12
309.2487583468
 22
267.9117911795
 13
309.2487583468
 23
267.9117911795
  0
SOLID
  5
415
100
AcDbEntity
  8
0
100
AcDbTrace
 62
5
  6
CONTINUOUS
 10
309.2487583468
 20
267.9117911795
 11
308.1376472357
 21
267.5414145926
 12
307.9894990876
 22
267.9117911795
 13
307.9894990876
 23
267.9117911795
  0
SOLID
  5
416
100
AcDbEntity
  8
0
100
AcDbTrace
 62
5
  6
CONTINUOUS
 10
308.1376472357
 20
267.5414145926
 11
309.2487583468
 21
267.9117911795
 12
309.396906495
 22
267.5414145926
 13
309.396906495
 23
267.5414145926
  0
SOLID
  5
417
100
AcDbEntity
  8
0
100
AcDbTrace
 62
5
  6
CONTINUOUS
 10
304.7302398283
 20
267.9858635581
 11
304.6561657542
 21
267.6154931878
 12
303.3228324209
 22
267.4673450396
 13
303.3228324209
 23
267.4673450396
  0
SOLID
  5
418
100
AcDbEntity
  8
0
100
AcDbTrace
 62
5
  6
CONTINUOUS
 10
304.7302398283
 20
267.9858635581
 11
303.3228324209
 21
267.4673450396
 12
303.470980569
 22
268.0599376322
 13
303.470980569
 23
268.0599376322
  0
SOLID
  5
419
100
AcDbEntity
  8
0
100
AcDbTrace
 62
5
  6
CONTINUOUS
 10
303.3228324209
 20
267.4673450396
 11
304.6561657542
 21
267.6154931878
 12
304.5820916801
 22
267.2451228174
 13
304.5820916801
 23
267.2451228174
  0
SOLID
  5
41A
100
AcDbEntity
  8
0
100
AcDbTrace
 62
5
  6
CONTINUOUS
 10
309.396906495
 20
267.5414145926
 11
308.2117213098
 21
267.1710487433
 12
308.1376472357
 22
267.5414145926
 13
308.1376472357
 23
267.5414145926
  0
SOLID
  5
41B
100
AcDbEntity
  8
0
100
AcDbTrace
 62
5
  6
CONTINUOUS
 10
308.2117213098
 20
267.1710487433
 11
309.396906495
 21
267.5414145926
 12
309.470980569
 22
267.0229005952
 13
309.470980569
 23
267.0229005952
  0
SOLID
  5
41C
100
AcDbEntity
  8
0
100
AcDbTrace
 62
5
  6
CONTINUOUS
 10
304.5820916801
 20
267.2451228174
 11
303.2487583468
 21
266.8006806335
 12
303.3228324209
 22
267.4673450396
 13
303.3228324209
 23
267.4673450396
  0
SOLID
  5
41D
100
AcDbEntity
  8
0
100
AcDbTrace
 62
5
  6
CONTINUOUS
 10
303.2487583468
 20
266.8006806335
 11
304.5820916801
 21
267.2451228174
 12
304.5080176061
 22
266.8006806335
 13
304.5080176061
 23
266.8006806335
  0
SOLID
  5
41E
100
AcDbEntity
  8
0
100
AcDbTrace
 62
5
  6
CONTINUOUS
 10
309.470980569
 20
267.0229005952
 11
308.2117213098
 21
266.8006806335
 12
308.2117213098
 22
267.1710487433
 13
308.2117213098
 23
267.1710487433
  0
SOLID
  5
41F
100
AcDbEntity
  8
0
100
AcDbTrace
 62
5
  6
CONTINUOUS
 10
308.2117213098
 20
266.8006806335
 11
309.470980569
 21
267.0229005952
 12
309.5450546431
 22
266.5043820766
 13
309.5450546431
 23
266.5043820766
  0
SOLID
  5
420
100
AcDbEntity
  8
0
100
AcDbTrace
 62
5
  6
CONTINUOUS
 10
309.5450546431
 20
266.5043820766
 11
308.2857953838
 21
266.2821609847
 12
308.2117213098
 22
266.8006806335
 13
308.2117213098
 23
266.8006806335
  0
SOLID
  5
421
100
AcDbEntity
  8
0
100
AcDbTrace
 62
5
  6
CONTINUOUS
 10
304.5080176061
 20
266.8006806335
 11
304.433943532
 21
266.2821609847
 12
303.1746842727
 22
265.9858635581
 13
303.1746842727
 23
265.9858635581
  0
SOLID
  5
422
100
AcDbEntity
  8
0
100
AcDbTrace
 62
5
  6
CONTINUOUS
 10
304.5080176061
 20
266.8006806335
 11
303.1746842727
 21
265.9858635581
 12
303.2487583468
 22
266.8006806335
 13
303.2487583468
 23
266.8006806335
  0
SOLID
  5
423
100
AcDbEntity
  8
0
100
AcDbTrace
 62
5
  6
CONTINUOUS
 10
308.2857953838
 20
266.2821609847
 11
309.5450546431
 21
266.5043820766
 12
309.5450546431
 22
265.83771541
 13
309.5450546431
 23
265.83771541
  0
SOLID
  5
424
100
AcDbEntity
  8
0
100
AcDbTrace
 62
5
  6
CONTINUOUS
 10
303.1746842727
 20
265.9858635581
 11
304.433943532
 21
266.2821609847
 12
304.433943532
 22
265.7636413359
 13
304.433943532
 23
265.7636413359
  0
SOLID
  5
425
100
AcDbEntity
  8
0
100
AcDbTrace
 62
5
  6
CONTINUOUS
 10
309.5450546431
 20
265.83771541
 11
308.2857953838
 21
265.7636413359
 12
308.2857953838
 22
266.2821609847
 13
308.2857953838
 23
266.2821609847
  0
SOLID
  5
426
100
AcDbEntity
  8
0
100
AcDbTrace
 62
5
  6
CONTINUOUS
 10
304.433943532
 20
265.7636413359
 11
303.1746842727
 21
265.1710504387
 12
303.1746842727
 22
265.9858635581
 13
303.1746842727
 23
265.9858635581
  0
SOLID
  5
427
100
AcDbEntity
  8
0
100
AcDbTrace
 62
5
  6
CONTINUOUS
 10
303.1746842727
 20
265.1710504387
 11
304.433943532
 21
265.7636413359
 12
304.433943532
 22
265.1710504387
 13
304.433943532
 23
265.1710504387
  0
SOLID
  5
428
100
AcDbEntity
  8
0
100
AcDbTrace
 62
5
  6
CONTINUOUS
 10
308.3598694579
 20
265.1710504387
 11
308.2857953838
 21
265.7636413359
 12
309.5450546431
 22
265.83771541
 13
309.5450546431
 23
265.83771541
  0
SOLID
  5
429
100
AcDbEntity
  8
0
100
AcDbTrace
 62
5
  6
CONTINUOUS
 10
308.3598694579
 20
265.1710504387
 11
309.5450546431
 21
265.83771541
 12
309.6191287172
 22
265.1710504387
 13
309.6191287172
 23
265.1710504387
  0
SOLID
  5
42A
100
AcDbEntity
  8
0
100
AcDbTrace
 62
5
  6
CONTINUOUS
 10
309.6191287172
 20
265.1710504387
 11
308.2857953838
 21
264.5784595416
 12
308.3598694579
 22
265.1710504387
 13
308.3598694579
 23
265.1710504387
  0
SOLID
  5
42B
100
AcDbEntity
  8
0
100
AcDbTrace
 62
5
  6
CONTINUOUS
 10
304.433943532
 20
265.1710504387
 11
304.433943532
 21
264.5784595416
 12
303.1746842727
 22
264.5043820766
 13
303.1746842727
 23
264.5043820766
  0
SOLID
  5
42C
100
AcDbEntity
  8
0
100
AcDbTrace
 62
5
  6
CONTINUOUS
 10
304.433943532
 20
265.1710504387
 11
303.1746842727
 21
264.5043820766
 12
303.1746842727
 22
265.1710504387
 13
303.1746842727
 23
265.1710504387
  0
SOLID
  5
42D
100
AcDbEntity
  8
0
100
AcDbTrace
 62
5
  6
CONTINUOUS
 10
308.2857953838
 20
264.5784595416
 11
309.6191287172
 21
265.1710504387
 12
309.5450546431
 22
264.3562339285
 13
309.5450546431
 23
264.3562339285
  0
SOLID
  5
42E
100
AcDbEntity
  8
0
100
AcDbTrace
 62
5
  6
CONTINUOUS
 10
303.1746842727
 20
264.5043820766
 11
304.433943532
 21
264.5784595416
 12
304.433943532
 22
264.0599398928
 13
304.433943532
 23
264.0599398928
  0
SOLID
  5
42F
100
AcDbEntity
  8
0
100
AcDbTrace
 62
5
  6
CONTINUOUS
 10
309.5450546431
 20
264.3562339285
 11
308.2857953838
 21
264.0599398928
 12
308.2857953838
 22
264.5784595416
 13
308.2857953838
 23
264.5784595416
  0
SOLID
  5
430
100
AcDbEntity
  8
0
100
AcDbTrace
 62
5
  6
CONTINUOUS
 10
304.433943532
 20
264.0599398928
 11
303.1746842727
 21
263.83771541
 12
303.1746842727
 22
264.5043820766
 13
303.1746842727
 23
264.5043820766
  0
SOLID
  5
431
100
AcDbEntity
  8
0
100
AcDbTrace
 62
5
  6
CONTINUOUS
 10
308.2857953838
 20
264.0599398928
 11
309.5450546431
 21
264.3562339285
 12
309.470980569
 22
263.6154931878
 13
309.470980569
 23
263.6154931878
  0
SOLID
  5
432
100
AcDbEntity
  8
0
100
AcDbTrace
 62
5
  6
CONTINUOUS
 10
303.1746842727
 20
263.83771541
 11
304.433943532
 21
264.0599398928
 12
304.5080176061
 22
263.541420244
 13
304.5080176061
 23
263.541420244
  0
SOLID
  5
433
100
AcDbEntity
  8
0
100
AcDbTrace
 62
5
  6
CONTINUOUS
 10
309.470980569
 20
263.6154931878
 11
308.2117213098
 21
263.541420244
 12
308.2857953838
 22
264.0599398928
 13
308.2857953838
 23
264.0599398928
  0
SOLID
  5
434
100
AcDbEntity
  8
0
100
AcDbTrace
 62
5
  6
CONTINUOUS
 10
304.5080176061
 20
263.541420244
 11
303.2487583468
 21
263.3191968915
 12
303.1746842727
 22
263.83771541
 13
303.1746842727
 23
263.83771541
  0
SOLID
  5
435
100
AcDbEntity
  8
0
100
AcDbTrace
 62
5
  6
CONTINUOUS
 10
303.2487583468
 20
263.3191968915
 11
304.5080176061
 21
263.541420244
 12
304.5080176061
 22
263.0969721261
 13
304.5080176061
 23
263.0969721261
  0
SOLID
  5
436
100
AcDbEntity
  8
0
100
AcDbTrace
 62
5
  6
CONTINUOUS
 10
308.2117213098
 20
263.0969721261
 11
308.2117213098
 21
263.541420244
 12
309.470980569
 22
263.6154931878
 13
309.470980569
 23
263.6154931878
  0
SOLID
  5
437
100
AcDbEntity
  8
0
100
AcDbTrace
 62
5
  6
CONTINUOUS
 10
308.2117213098
 20
263.0969721261
 11
309.470980569
 21
263.6154931878
 12
309.396906495
 22
262.9488265211
 13
309.396906495
 23
262.9488265211
  0
SOLID
  5
438
100
AcDbEntity
  8
0
100
AcDbTrace
 62
5
  6
CONTINUOUS
 10
304.5080176061
 20
263.0969721261
 11
303.396906495
 21
262.7266051466
 12
303.2487583468
 22
263.3191968915
 13
303.2487583468
 23
263.3191968915
  0
SOLID
  5
439
100
AcDbEntity
  8
0
100
AcDbTrace
 62
5
  6
CONTINUOUS
 10
303.396906495
 20
262.7266051466
 11
304.5080176061
 21
263.0969721261
 12
304.6561657542
 22
262.7266051466
 13
304.6561657542
 23
262.7266051466
  0
SOLID
  5
43A
100
AcDbEntity
  8
0
100
AcDbTrace
 62
5
  6
CONTINUOUS
 10
309.396906495
 20
262.9488265211
 11
308.1376472357
 21
262.7266051466
 12
308.2117213098
 22
263.0969721261
 13
308.2117213098
 23
263.0969721261
  0
SOLID
  5
43B
100
AcDbEntity
  8
0
100
AcDbTrace
 62
5
  6
CONTINUOUS
 10
307.9894990876
 20
262.430309698
 11
308.1376472357
 21
262.7266051466
 12
309.396906495
 22
262.9488265211
 13
309.396906495
 23
262.9488265211
  0
SOLID
  5
43C
100
AcDbEntity
  8
0
100
AcDbTrace
 62
5
  6
CONTINUOUS
 10
307.9894990876
 20
262.430309698
 11
309.396906495
 21
262.9488265211
 12
309.2487583468
 22
262.3562339285
 13
309.2487583468
 23
262.3562339285
  0
SOLID
  5
43D
100
AcDbEntity
  8
0
100
AcDbTrace
 62
5
  6
CONTINUOUS
 10
304.6561657542
 20
262.7266051466
 11
304.7302398283
 21
262.430309698
 12
303.5450546431
 22
262.2821598544
 13
303.5450546431
 23
262.2821598544
  0
SOLID
  5
43E
100
AcDbEntity
  8
0
100
AcDbTrace
 62
5
  6
CONTINUOUS
 10
304.6561657542
 20
262.7266051466
 11
303.5450546431
 21
262.2821598544
 12
303.396906495
 22
262.7266051466
 13
303.396906495
 23
262.7266051466
  0
SOLID
  5
43F
100
AcDbEntity
  8
0
100
AcDbTrace
 62
5
  6
CONTINUOUS
 10
303.5450546431
 20
262.2821598544
 11
304.7302398283
 21
262.430309698
 12
304.8043139024
 22
262.1340142494
 13
304.8043139024
 23
262.1340142494
  0
SOLID
  5
440
100
AcDbEntity
  8
0
100
AcDbTrace
 62
5
  6
CONTINUOUS
 10
309.2487583468
 20
262.3562339285
 11
307.9154250135
 21
262.1340142494
 12
307.9894990876
 22
262.430309698
 13
307.9894990876
 23
262.430309698
  0
SOLID
  5
441
100
AcDbEntity
  8
0
100
AcDbTrace
 62
5
  6
CONTINUOUS
 10
304.8043139024
 20
262.1340142494
 11
304.9524620505
 21
261.9117900492
 12
303.6932027913
 22
261.8377188008
 13
303.6932027913
 23
261.8377188008
  0
SOLID
  5
442
100
AcDbEntity
  8
0
100
AcDbTrace
 62
5
  6
CONTINUOUS
 10
304.8043139024
 20
262.1340142494
 11
303.6932027913
 21
261.8377188008
 12
303.5450546431
 22
262.2821598544
 13
303.5450546431
 23
262.2821598544
  0
SOLID
  5
443
100
AcDbEntity
  8
0
100
AcDbTrace
 62
5
  6
CONTINUOUS
 10
307.7672768653
 20
261.9117900492
 11
307.9154250135
 21
262.1340142494
 12
309.2487583468
 22
262.3562339285
 13
309.2487583468
 23
262.3562339285
  0
SOLID
  5
444
100
AcDbEntity
  8
0
100
AcDbTrace
 62
5
  6
CONTINUOUS
 10
307.7672768653
 20
261.9117900492
 11
309.2487583468
 21
262.3562339285
 12
309.0265361246
 22
261.8377188008
 13
309.0265361246
 23
261.8377188008
  0
SOLID
  5
445
100
AcDbEntity
  8
0
100
AcDbTrace
 62
5
  6
CONTINUOUS
 10
309.0265361246
 20
261.8377188008
 11
307.470980569
 21
261.6154931878
 12
307.7672768653
 22
261.9117900492
 13
307.7672768653
 23
261.9117900492
  0
SOLID
  5
446
100
AcDbEntity
  8
0
100
AcDbTrace
 62
5
  6
CONTINUOUS
 10
303.6932027913
 20
261.8377188008
 11
304.9524620505
 21
261.9117900492
 12
305.2487583468
 22
261.5414191137
 13
305.2487583468
 23
261.5414191137
  0
SOLID
  5
447
100
AcDbEntity
  8
0
100
AcDbTrace
 62
5
  6
CONTINUOUS
 10
305.2487583468
 20
261.5414191137
 11
303.9154250135
 21
261.4673450396
 12
303.6932027913
 22
261.8377188008
 13
303.6932027913
 23
261.8377188008
  0
SOLID
  5
448
100
AcDbEntity
  8
0
100
AcDbTrace
 62
5
  6
CONTINUOUS
 10
307.470980569
 20
261.6154931878
 11
309.0265361246
 21
261.8377188008
 12
308.8043139024
 22
261.3932709655
 13
308.8043139024
 23
261.3932709655
  0
SOLID
  5
449
100
AcDbEntity
  8
0
100
AcDbTrace
 62
5
  6
CONTINUOUS
 10
303.9154250135
 20
261.4673450396
 11
305.2487583468
 21
261.5414191137
 12
305.6191287172
 22
261.3191990814
 13
305.6191287172
 23
261.3191990814
  0
SOLID
  5
44A
100
AcDbEntity
  8
0
100
AcDbTrace
 62
5
  6
CONTINUOUS
 10
308.8043139024
 20
261.3932709655
 11
307.1006101987
 21
261.3191990814
 12
307.470980569
 22
261.6154931878
 13
307.470980569
 23
261.6154931878
  0
SOLID
  5
44B
100
AcDbEntity
  8
0
100
AcDbTrace
 62
5
  6
CONTINUOUS
 10
306.3598694579
 20
261.1710462708
 11
306.7302398283
 21
261.1710462708
 12
304.1376472357
 22
261.0969746692
 13
304.1376472357
 23
261.0969746692
  0
SOLID
  5
44C
100
AcDbEntity
  8
0
100
AcDbTrace
 62
5
  6
CONTINUOUS
 10
305.9894990876
 20
261.1710462708
 11
306.3598694579
 21
261.1710462708
 12
304.1376472357
 22
261.0969746692
 13
304.1376472357
 23
261.0969746692
  0
SOLID
  5
44D
100
AcDbEntity
  8
0
100
AcDbTrace
 62
5
  6
CONTINUOUS
 10
305.6191287172
 20
261.3191990814
 11
305.9894990876
 21
261.1710462708
 12
304.1376472357
 22
261.0969746692
 13
304.1376472357
 23
261.0969746692
  0
SOLID
  5
44E
100
AcDbEntity
  8
0
100
AcDbTrace
 62
5
  6
CONTINUOUS
 10
305.6191287172
 20
261.3191990814
 11
304.1376472357
 21
261.0969746692
 12
303.9154250135
 22
261.4673450396
 13
303.9154250135
 23
261.4673450396
  0
SOLID
  5
44F
100
AcDbEntity
  8
0
100
AcDbTrace
 62
5
  6
CONTINUOUS
 10
306.7302398283
 20
261.1710462708
 11
307.1006101987
 21
261.3191990814
 12
308.8043139024
 22
261.3932709655
 13
308.8043139024
 23
261.3932709655
  0
SOLID
  5
450
100
AcDbEntity
  8
0
100
AcDbTrace
 62
5
  6
CONTINUOUS
 10
308.5080176061
 20
260.9488265211
 11
304.1376472357
 21
261.0969746692
 12
306.7302398283
 22
261.1710462708
 13
306.7302398283
 23
261.1710462708
  0
SOLID
  5
451
100
AcDbEntity
  8
0
100
AcDbTrace
 62
5
  6
CONTINUOUS
 10
306.7302398283
 20
261.1710462708
 11
308.8043139024
 21
261.3932709655
 12
308.5080176061
 22
260.9488265211
 13
308.5080176061
 23
260.9488265211
  0
SOLID
  5
452
100
AcDbEntity
  8
0
100
AcDbTrace
 62
5
  6
CONTINUOUS
 10
308.5080176061
 20
260.9488265211
 11
304.3598694579
 21
260.874752447
 12
304.1376472357
 22
261.0969746692
 13
304.1376472357
 23
261.0969746692
  0
SOLID
  5
453
100
AcDbEntity
  8
0
100
AcDbTrace
 62
5
  6
CONTINUOUS
 10
304.5820916801
 20
260.6525266573
 11
304.3598694579
 21
260.874752447
 12
308.5080176061
 22
260.9488265211
 13
308.5080176061
 23
260.9488265211
  0
SOLID
  5
454
100
AcDbEntity
  8
0
100
AcDbTrace
 62
5
  6
CONTINUOUS
 10
304.5820916801
 20
260.6525266573
 11
308.5080176061
 21
260.9488265211
 12
308.1376472357
 22
260.6525266573
 13
308.1376472357
 23
260.6525266573
  0
SOLID
  5
455
100
AcDbEntity
  8
0
100
AcDbTrace
 62
5
  6
CONTINUOUS
 10
308.1376472357
 20
260.6525266573
 11
304.8043139024
 21
260.5043820766
 12
304.5820916801
 22
260.6525266573
 13
304.5820916801
 23
260.6525266573
  0
SOLID
  5
456
100
AcDbEntity
  8
0
100
AcDbTrace
 62
5
  6
CONTINUOUS
 10
304.8043139024
 20
260.5043820766
 11
308.1376472357
 21
260.6525266573
 12
307.7672768653
 22
260.4303080026
 13
307.7672768653
 23
260.4303080026
  0
SOLID
  5
457
100
AcDbEntity
  8
0
100
AcDbTrace
 62
5
  6
CONTINUOUS
 10
307.7672768653
 20
260.4303080026
 11
305.1006101987
 21
260.3562339285
 12
304.8043139024
 22
260.5043820766
 13
304.8043139024
 23
260.5043820766
  0
SOLID
  5
458
100
AcDbEntity
  8
0
100
AcDbTrace
 62
5
  6
CONTINUOUS
 10
305.396906495
 20
260.2821598544
 11
305.1006101987
 21
260.3562339285
 12
307.7672768653
 22
260.4303080026
 13
307.7672768653
 23
260.4303080026
  0
SOLID
  5
459
100
AcDbEntity
  8
0
100
AcDbTrace
 62
5
  6
CONTINUOUS
 10
305.396906495
 20
260.2821598544
 11
307.7672768653
 21
260.4303080026
 12
307.3228324209
 22
260.2821598544
 13
307.3228324209
 23
260.2821598544
  0
SOLID
  5
45A
100
AcDbEntity
  8
0
100
AcDbTrace
 62
5
  6
CONTINUOUS
 10
307.3228324209
 20
260.2821598544
 11
305.6932027913
 21
260.2080885222
 12
305.396906495
 22
260.2821598544
 13
305.396906495
 23
260.2821598544
  0
SOLID
  5
45B
100
AcDbEntity
  8
0
100
AcDbTrace
 62
5
  6
CONTINUOUS
 10
305.9894990876
 20
260.2080885222
 11
305.6932027913
 21
260.2080885222
 12
307.3228324209
 22
260.2821598544
 13
307.3228324209
 23
260.2821598544
  0
SOLID
  5
45C
100
AcDbEntity
  8
0
100
AcDbTrace
 62
5
  6
CONTINUOUS
 10
305.9894990876
 20
260.2080885222
 11
307.3228324209
 21
260.2821598544
 12
306.8783879764
 22
260.2080885222
 13
306.8783879764
 23
260.2080885222
  0
SOLID
  5
45D
100
AcDbEntity
  8
0
100
AcDbTrace
 62
5
  6
CONTINUOUS
 10
306.8783879764
 20
260.2080885222
 11
306.3598694579
 21
260.1340117063
 12
305.9894990876
 22
260.2080885222
 13
305.9894990876
 23
260.2080885222
  0
LINE
  5
45E
100
AcDbEntity
  8
0
100
AcDbLine
 62
7
  6
CONTINUOUS
 10
76.3364361702
 20
312.0961296193
 11
76.3364361702
 21
331.0961296193
  0
LINE
  5
45F
100
AcDbEntity
  8
0
100
AcDbLine
 62
7
  6
CONTINUOUS
 10
76.3364361702
 20
312.0961296193
 11
496.3364361702
 21
312.0961296193
  0
LINE
  5
460
100
AcDbEntity
  8
0
100
AcDbLine
 62
7
  6
CONTINUOUS
 10
76.3364361702
 20
331.0961296193
 11
496.3364361702
 21
331.0961296193
  0
LINE
  5
461
100
AcDbEntity
  8
0
100
AcDbLine
 62
7
  6
CONTINUOUS
 10
496.3364361702
 20
312.0961296193
 11
496.3364361702
 21
331.0961296193
  0
HATCH
  5
462
100
AcDbEntity
  8
0
100
AcDbHatch
 62
2
  6
CONTINUOUS
 10
0.0
 20
0.0
 30
0.0
210
0.0
220
0.0
230
1.0
  2
b
 70
0
 71
1
 91
1
 92
1
 93
4
 72
1
 10
76.3364361702
 20
331.0961296193
 11
496.3364361702
 21
331.0961296193
 72
1
 10
496.3364361702
 20
312.0961296193
 11
496.3364361702
 21
331.0961296193
 72
1
 10
76.3364361702
 20
312.0961296193
 11
496.3364361702
 21
312.0961296193
 72
1
 10
76.3364361702
 20
312.0961296193
 11
76.3364361702
 21
331.0961296193
 97
4
330
45E
330
45F
330
460
330
461
 75
0
 76
0
 52
45.0
 41
32.0
 77
0
 78
1
 53
45.0
 43
0.0
 44
0.0
 45
-22.627416998
 46
22.627416998
 79
0
 98
1
 10
0.0
 20
0.0
  0
LINE
  5
463
100
AcDbEntity
  8
0
100
AcDbLine
 62
7
  6
CONTINUOUS
 10
76.3364361702
 20
31.0961296193
 11
76.3364361702
 21
331.0961296193
  0
LINE
  5
464
100
AcDbEntity
  8
0
100
AcDbLine
 62
7
  6
CONTINUOUS
 10
86.3364361702
 20
31.0961296193
 11
86.3364361702
 21
312.0961296193
  0
LINE
  5
465
100
AcDbEntity
  8
0
100
AcDbLine
 62
7
  6
CONTINUOUS
 10
97.3364361702
 20
31.0961296193
 11
97.3364361702
 21
212.0961296193
  0
LINE
  5
466
100
AcDbEntity
  8
0
100
AcDbLine
 62
7
  6
CONTINUOUS
 10
76.3364361702
 20
31.0961296193
 11
496.3364361702
 21
31.0961296193
  0
LINE
  5
467
100
AcDbEntity
  8
DIMENSIONS
100
AcDbLine
 62
5
  6
CONTINUOUS
 10
509.8805145264
 20
324.5425528564
 11
511.130510376
 21
325.0782550049
  0
LWPOLYLINE
  5
468
100
AcDbEntity
  8
DIMENSIONS
100
AcDbPolyline
 62
5
  6
CONTINUOUS
 90
3
 70
0
 10
90.4078677063
 20
18.074490509
 10
91.1221523438
 20
18.7887796783
 10
91.1221523438
 20
16.2887789154
  0
LWPOLYLINE
  5
469
100
AcDbEntity
  8
DIMENSIONS
100
AcDbPolyline
 62
5
  6
CONTINUOUS
 90
3
 70
0
 10
91.8364369812
 20
18.074490509
 10
92.5507216187
 20
18.7887796783
 10
92.5507216187
 20
16.2887789154
  0
LINE
  5
46A
100
AcDbEntity
  8
0
100
AcDbLine
 62
7
  6
CONTINUOUS
 10
97.3364361702
 20
212.0961296193
 11
496.3364361702
 21
212.0961296193
  0
LWPOLYLINE
  5
46B
100
AcDbEntity
  8
DIMENSIONS
100
AcDbPolyline
 62
5
  6
CONTINUOUS
 90
12
 70
0
 10
510.9519550781
 20
315.6139903564
 10
511.130510376
 20
315.7925456543
 10
511.130510376
 20
316.5068393555
 10
510.9519550781
 20
316.6854309082
 10
510.4162166748
 20
316.6854309082
 10
510.2971918945
 20
316.5068393555
 10
510.1781308594
 20
315.7925456543
 10
510.0590698242
 20
315.6139903564
 10
509.5233676758
 20
315.6139903564
 10
509.3448123779
 20
315.7925456543
 10
509.3448123779
 20
316.5068393555
 10
509.5233676758
 20
316.6854309082
  0
LWPOLYLINE
  5
46C
100
AcDbEntity
  8
DIMENSIONS
100
AcDbPolyline
 62
5
  6
CONTINUOUS
 90
13
 70
0
 10
506.6519447021
 20
260.8461317139
 10
505.5805404053
 20
260.8461317139
 10
505.2233935547
 20
261.0247051392
 10
504.8662467041
 20
261.3818519897
 10
504.8662467041
 20
261.5604072876
 10
505.2233935547
 20
261.9175541382
 10
505.5805404053
 20
262.0961275635
 10
506.6519447021
 20
262.0961275635
 10
507.0090915527
 20
261.9175541382
 10
507.3662384033
 20
261.5604072876
 10
507.3662384033
 20
261.3818519897
 10
507.0090915527
 20
261.0247051392
 10
506.6519447021
 20
260.8461317139
  0
LWPOLYLINE
  5
46D
100
AcDbEntity
  8
DIMENSIONS
100
AcDbPolyline
 62
5
  6
CONTINUOUS
 90
13
 70
0
 10
506.6519447021
 20
262.8104212646
 10
505.5805404053
 20
262.8104212646
 10
505.2233935547
 20
262.9889946899
 10
504.8662467041
 20
263.3461234131
 10
504.8662467041
 20
263.5246968384
 10
505.2233935547
 20
263.8818618164
 10
505.5805404053
 20
264.0604171143
 10
506.6519447021
 20
264.0604171143
 10
507.0090915527
 20
263.8818618164
 10
507.3662384033
 20
263.5246968384
 10
507.3662384033
 20
263.3461234131
 10
507.0090915527
 20
262.9889946899
 10
506.6519447021
 20
262.8104212646
  0
LWPOLYLINE
  5
46E
100
AcDbEntity
  8
DIMENSIONS
100
AcDbPolyline
 62
5
  6
CONTINUOUS
 90
7
 70
0
 10
507.3805228271
 20
317.1318372803
 10
504.8805311279
 20
317.1318372803
 10
504.8805311279
 20
317.6675756836
 10
504.9400253906
 20
317.8461309814
 10
505.2376417236
 20
318.203277832
 10
505.773380127
 20
318.203277832
 10
506.1305269775
 20
317.8461309814
  0
LINE
  5
46F
100
AcDbEntity
  8
DIMENSIONS
100
AcDbLine
 62
5
  6
CONTINUOUS
 10
511.130510376
 20
317.6973046875
 11
508.6305186768
 21
317.6973046875
  0
LWPOLYLINE
  5
470
100
AcDbEntity
  8
DIMENSIONS
100
AcDbPolyline
 62
5
  6
CONTINUOUS
 90
9
 70
0
 10
507.0233759766
 20
319.0961268311
 10
505.9519354248
 20
319.0961268311
 10
505.5947885742
 20
319.4532736816
 10
505.5947885742
 20
319.8104205322
 10
505.9519354248
 20
320.1675673828
 10
507.0233759766
 20
320.1675673828
 10
507.3805228271
 20
319.8104205322
 10
507.3805228271
 20
319.4532736816
 10
507.0233759766
 20
319.0961268311
  0
LWPOLYLINE
  5
471
100
AcDbEntity
  8
DIMENSIONS
100
AcDbPolyline
 62
5
  6
CONTINUOUS
 90
4
 70
0
 10
511.130510376
 20
319.8997163086
 10
509.7019592285
 20
319.8997163086
 10
509.3448123779
 20
319.7211247559
 10
509.3448123779
 20
318.8282757568
  0
LWPOLYLINE
  5
472
100
AcDbEntity
  8
DIMENSIONS
100
AcDbPolyline
 62
5
  6
CONTINUOUS
 90
7
 70
0
 10
504.8805311279
 20
321.9532653809
 10
507.3805228271
 20
321.9532653809
 10
507.3805228271
 20
321.2389716797
 10
507.2019312744
 20
320.881861084
 10
505.773380127
 20
320.881861084
 10
505.5947885742
 20
321.2389716797
 10
505.5947885742
 20
321.9532653809
  0
LWPOLYLINE
  5
473
100
AcDbEntity
  8
DIMENSIONS
100
AcDbPolyline
 62
5
  6
CONTINUOUS
 90
5
 70
0
 10
511.130510376
 20
322.3997080078
 10
509.3448123779
 20
322.3997080078
 10
509.3448123779
 20
323.114001709
 10
509.5233676758
 20
323.2330264893
 10
509.8805145264
 20
323.2330264893
  0
LINE
  5
474
100
AcDbEntity
  8
DIMENSIONS
100
AcDbLine
 62
5
  6
CONTINUOUS
 10
511.130510376
 20
324.006850708
 11
508.6305186768
 21
324.006850708
  0
LWPOLYLINE
  5
475
100
AcDbEntity
  8
DIMENSIONS
100
AcDbPolyline
 62
5
  6
CONTINUOUS
 90
5
 70
0
 10
507.3805228271
 20
324.4532570801
 10
505.5947885742
 20
324.4532570801
 10
505.5947885742
 20
325.346142334
 10
505.773380127
 20
325.5246976318
 10
507.3805228271
 20
325.5246976318
  0
LINE
  5
476
100
AcDbEntity
  8
0
100
AcDbLine
 62
7
  6
CONTINUOUS
 10
496.3364361702
 20
312.0961296193
 11
496.3364361702
 21
31.0961296193
  0
LWPOLYLINE
  5
477
100
AcDbEntity
  8
DIMENSIONS
100
AcDbPolyline
 62
5
  6
CONTINUOUS
 90
6
 70
0
 10
506.1305269775
 20
317.1318372803
 10
506.1305269775
 20
318.0246862793
 10
506.4876738281
 20
318.3818331299
 10
507.0233759766
 20
318.3818331299
 10
507.3805228271
 20
318.0246862793
 10
507.3805228271
 20
317.1318372803
  0
LINE
  5
478
100
AcDbEntity
  8
DIMENSIONS
100
AcDbLine
 62
5
  6
CONTINUOUS
 10
506.4876738281
 20
326.238991333
 11
506.4876738281
 21
327.3104318848
  0
LWPOLYLINE
  5
479
100
AcDbEntity
  8
DIMENSIONS
100
AcDbPolyline
 62
5
  6
CONTINUOUS
 90
9
 70
0
 10
507.3805228271
 20
323.7389996338
 10
507.3805228271
 20
323.0247059326
 10
507.0233759766
 20
322.667559082
 10
505.9519354248
 20
322.667559082
 10
505.5947885742
 20
323.0247059326
 10
505.5947885742
 20
323.3818527832
 10
505.9519354248
 20
323.7389996338
 10
506.4876738281
 20
323.7389996338
 10
506.4876738281
 20
322.667559082
  0
LINE
  5
47A
100
AcDbEntity
  8
DIMENSIONS
100
AcDbLine
 62
5
  6
CONTINUOUS
 10
509.3448123779
 20
317.3996883545
 11
509.3448123779
 21
318.1139820557
  0
LWPOLYLINE
  5
47B
100
AcDbEntity
  8
DIMENSIONS
100
AcDbPolyline
 62
5
  6
CONTINUOUS
 90
9
 70
0
 10
511.130510376
 20
326.8639892578
 10
511.130510376
 20
326.1496955566
 10
510.7733635254
 20
325.7925487061
 10
509.7019592285
 20
325.7925487061
 10
509.3448123779
 20
326.1496955566
 10
509.3448123779
 20
326.5068424072
 10
509.7019592285
 20
326.8639892578
 10
510.237661377
 20
326.8639892578
 10
510.237661377
 20
325.7925487061
  0
LWPOLYLINE
  5
47C
100
AcDbEntity
  8
DIMENSIONS
100
AcDbPolyline
 62
5
  6
CONTINUOUS
 90
9
 70
0
 10
511.130510376
 20
321.6854143066
 10
511.130510376
 20
320.9711206055
 10
510.7733635254
 20
320.6139737549
 10
509.7019592285
 20
320.6139737549
 10
509.3448123779
 20
320.9711206055
 10
509.3448123779
 20
321.3282674561
 10
509.7019592285
 20
321.6854143066
 10
510.237661377
 20
321.6854143066
 10
510.237661377
 20
320.6139737549
  0
LWPOLYLINE
  5
47D
100
AcDbEntity
  8
DIMENSIONS
100
AcDbPolyline
 62
5
  6
CONTINUOUS
 90
6
 70
0
 10
511.130510376
 20
319.8997163086
 10
511.130510376
 20
319.1854226074
 10
510.9519550781
 20
318.8282757568
 10
510.4162166748
 20
318.8282757568
 10
510.237661377
 20
319.1854226074
 10
510.237661377
 20
319.8997163086
  0
LWPOLYLINE
  5
47E
100
AcDbEntity
  8
DIMENSIONS
100
AcDbPolyline
 62
5
  6
CONTINUOUS
 90
3
 70
0
 10
505.5805404053
 20
259.417562439
 10
504.8662467041
 20
260.1318380127
 10
507.3662384033
 20
260.1318380127
  0
LINE
  5
47F
100
AcDbEntity
  8
DIMENSIONS
100
AcDbLine
 62
5
  6
CONTINUOUS
 10
510.237661377
 20
324.006850708
 11
509.3448123779
 21
325.0782550049
  0
LINE
  5
480
100
AcDbEntity
  8
0
100
AcDbLine
 62
7
  6
CONTINUOUS
 10
22.021093498
 20
31.0961296193
 11
41.021093498
 21
31.0961296193
  0
LWPOLYLINE
  5
481
100
AcDbEntity
  8
DIMENSIONS
100
AcDbPolyline
 62
5
  6
CONTINUOUS
 90
10
 70
0
 10
25.8960923767
 20
341.5818764648
 10
26.6103792801
 20
342.296170166
 10
26.7889504395
 20
343.0104276123
 10
26.7889504395
 20
343.7247213135
 10
26.4318081207
 20
344.0818681641
 10
25.8960923767
 20
344.0818681641
 10
25.538950058
 20
343.7247213135
 10
25.538950058
 20
343.0104276123
 10
25.8960923767
 20
342.6532807617
 10
26.6699029999
 20
342.6532807617
  0
LINE
  5
482
100
AcDbEntity
  8
0
100
AcDbLine
 62
7
  6
CONTINUOUS
 10
22.021093498
 20
31.0961296193
 11
22.021093498
 21
331.0961296193
  0
LINE
  5
483
100
AcDbEntity
  8
0
100
AcDbLine
 62
7
  6
CONTINUOUS
 10
31.021093498
 20
312.0961296193
 11
31.021093498
 21
212.0961296193
  0
LINE
  5
484
100
AcDbEntity
  8
DEFAULT_2
100
AcDbLine
 62
8
  6
HIDDEN
 10
31.021093498
 20
31.0961296193
 11
31.021093498
 21
212.0961296193
  0
LINE
  5
485
100
AcDbEntity
  8
ACHSEN
100
AcDbLine
 62
8
  6
HIDDEN
 10
31.021093498
 20
312.0961296193
 11
31.021093498
 21
317.5961296193
  0
LINE
  5
486
100
AcDbEntity
  8
0
100
AcDbLine
 62
7
  6
CONTINUOUS
 10
41.021093498
 20
331.0961296193
 11
41.021093498
 21
31.0961296193
  0
LINE
  5
487
100
AcDbEntity
  8
0
100
AcDbLine
 62
7
  6
CONTINUOUS
 10
31.021093498
 20
212.0961296193
 11
22.021093498
 21
212.0961296193
  0
LINE
  5
488
100
AcDbEntity
  8
0
100
AcDbLine
 62
7
  6
CONTINUOUS
 10
22.021093498
 20
312.0961296193
 11
31.021093498
 21
312.0961296193
  0
LINE
  5
489
100
AcDbEntity
  8
ACHSEN
100
AcDbLine
 62
8
  6
HIDDEN
 10
31.021093498
 20
317.5961296193
 11
22.021093498
 21
317.5961296193
  0
LINE
  5
48A
100
AcDbEntity
  8
0
100
AcDbLine
 62
7
  6
CONTINUOUS
 10
22.021093498
 20
331.0961296193
 11
41.021093498
 21
331.0961296193
  0
ARC
  5
48B
100
AcDbEntity
  8
0
100
AcDbCircle
 62
7
  6
CONTINUOUS
 10
91.8364361702
 20
312.0961296193
 40
5.5
100
AcDbArc
 50
0.0
 51
180.0
  0
ENDSEC
  0
SECTION
  2
OBJECTS
  0
DICTIONARY
  5
C
100
AcDbDictionary
280
0
281
1
  3
ACAD_GROUP
350
D
  3
ACAD_MLINESTYLE
350
17
  3
ACAD_LAYOUT
350
1A
  3
ACAD_PLOTSETTINGS
350
19
  3
ACAD_PLOTSTYLENAME
350
E
  0
DICTIONARY
  5
D
102
{ACAD_REACTORS
330
C
102
}
100
AcDbDictionary
280
0
281
1
  0
ACDBDICTIONARYWDFLT
  5
E
102
{ACAD_REACTORS
330
C
102
}
100
AcDbDictionary
281
1
  3
Normal
350
F
100
AcDbDictionaryWithDefault
340
F
  0
DICTIONARY
  5
17
102
{ACAD_REACTORS
330
C
102
}
100
AcDbDictionary
280
0
281
1
  3
Standard
350
18
  0
DICTIONARY
  5
19
102
{ACAD_REACTORS
330
C
102
}
100
AcDbDictionary
281
1
  0
DICTIONARY
  5
1A
102
{ACAD_REACTORS
330
C
102
}
100
AcDbDictionary
281
1
  3
Layout1
350
1E
  3
Model
350
22
  0
ACDBPLACEHOLDER
  5
F
102
{ACAD_REACTORS
330
E
102
}
  0
MLINESTYLE
  5
18
102
{ACAD_REACTORS
330
17
102
}
100
AcDbMlineStyle
  2
STANDARD
 70
0
  3

 62
256
 51
90.0
 52
90.0
 71
2
 49
0.5
 62
256
  6
BYLAYER
 49
-0.5
 62
256
  6
BYLAYER
  0
LAYOUT
  5
1E
102
{ACAD_REACTORS
330
1A
102
}
100
AcDbPlotSettings
  1

  2

  4

  6

 40
0.0
 41
0.0
 42
0.0
 43
0.0
 44
0.0
 45
0.0
 46
0.0
 47
0.0
 48
0.0
 49
0.0
140
0.0
141
0.0
142
1.0
143
1.0
 70
0
 72
0
 73
0
 74
0
  7

 75
0
147
1.0
148
0.0
149
0.0
100
AcDbLayout
  1
Layout1
 70
0
 71
0
 10
0.0
 20
0.0
 11
0.0
 21
0.0
 12
0.0
 22
0.0
 32
0.0
 14
0.0
 24
0.0
 34
0.0
 15
0.0
 25
0.0
 35
0.0
146
0.0
 13
0.0
 23
0.0
 33
0.0
 16
0.0
 26
0.0
 36
0.0
 17
0.0
 27
0.0
 37
0.0
 76
0
330
1B
331
0
345
0
346
0
  0
LAYOUT
  5
22
102
{ACAD_REACTORS
330
1A
102
}
100
AcDbPlotSettings
  1

  2

  4

  6

 40
0.0
 41
0.0
 42
0.0
 43
0.0
 44
0.0
 45
0.0
 46
0.0
 47
0.0
 48
0.0
 49
0.0
140
0.0
141
0.0
142
1.0
143
1.0
 70
1024
 72
0
 73
0
 74
0
  7

 75
0
147
1.0
148
0.0
149
0.0
100
AcDbLayout
  1
Model
 70
0
 71
0
 10
0.0
 20
0.0
 11
0.0
 21
0.0
 12
0.0
 22
0.0
 32
0.0
 14
0.0
 24
0.0
 34
0.0
 15
0.0
 25
0.0
 35
0.0
146
0.0
 13
0.0
 23
0.0
 33
0.0
 16
0.0
 26
0.0
 36
0.0
 17
0.0
 27
0.0
 37
0.0
 76
0
330
1F
331
0
345
0
346
0
  0
ENDSEC
  0
EOF
