999
DXF file: korpus_classic_1.dxf
999
Pro/ENGINEER 2009400 by Parametric Technology Corporation
  0
SECTION
  2
HEADER
  9
$ACADVER
  1
AC1015
  9
$DWGCODEPAGE
  3
ANSI_1252
  9
$EXTMAX
 10
594.0
 20
420.0
 30
0.0
  9
$EXTMIN
 10
0.0
 20
0.0
 30
0.0
  9
$LIMMIN
 10
0.0
 20
0.0
  9
$LIMMAX
 10
594.0
 20
420.0
  9
$VIEWCTR
 10
297.0
 20
210.0
  9
$VIEWSIZE
 40
420.0
  9
$CLAYER
  8
0
  9
$LTSCALE
 40
32.67
  9
$CELTYPE
  6
BYLAYER
  9
$DIMSCALE
 40
1.0
  9
$DIMASZ
 40
2.5
  9
$DIMEXO
 40
3.7125
  9
$DIMDLI
 40
22.572
  9
$DIMEXE
 40
10.692
  9
$DIMCEN
 40
5.346
  9
$DIMLFAC
 40
1.0
  9
$DIMBLK
  1
_FILLED
  9
$DIMTXT
 40
2.5
  9
$DIMTOL
 70
1
  9
$DIMLIM
 70
0
  9
$DIMTFAC
 40
1.0
  9
$DIMTP
 40
0.01
  9
$DIMTM
 40
0.01
  9
$PDMODE
 70
3
  9
$PDSIZE
 40
0.5
  9
$HANDSEED
  5
463
  9
$MEASUREMENT
 70
1
  9
$INSUNITS
 70
4
  0
ENDSEC
  0
SECTION
  2
CLASSES
  0
CLASS
  1
ACDBDICTIONARYWDFLT
  2
AcDbDictionaryWithDefault
  3
AutoCAD 2000
 90
0
280
0
281
0
  0
CLASS
  1
ACDBPLACEHOLDER
  2
AcDbPlaceHolder
  3
AutoCAD 2000
 90
0
280
0
281
0
  0
CLASS
  1
LAYOUT
  2
AcDbLayout
  3
AutoCAD 2000
 90
0
280
0
281
0
  0
ENDSEC
  0
SECTION
  2
TABLES
  0
TABLE
  2
VPORT
  5
8
100
AcDbSymbolTable
 70
2
  0
VPORT
  5
1F4
100
AcDbSymbolTableRecord
100
AcDbViewportTableRecord
  2
*ACTIVE
 70
0
 10
0.0
 20
0.0
 11
1.0
 21
1.0
 12
297.0
 22
210.0
 13
0.0
 23
0.0
 14
1.0
 24
1.0
 15
0.0
 25
0.0
 16
0.0
 26
0.0
 36
1.0
 17
0.0
 27
0.0
 37
0.0
 40
420.0
 41
1.4142857143
 42
50.0
 43
0.0
 44
0.0
 50
0.0
 51
0.0
 71
0
 72
100
 73
1
 74
1
 75
0
 76
0
 77
0
 78
0
  0
ENDTAB
  0
TABLE
  2
LTYPE
  5
5
100
AcDbSymbolTable
 70
6
  0
LTYPE
  5
14
100
AcDbSymbolTableRecord
100
AcDbLinetypeTableRecord
  2
BYBLOCK
 70
0
  3

 72
65
 73
0
 40
0.0
  0
LTYPE
  5
15
100
AcDbSymbolTableRecord
100
AcDbLinetypeTableRecord
  2
BYLAYER
 70
0
  3

 72
65
 73
0
 40
0.0
  0
LTYPE
  5
16
100
AcDbSymbolTableRecord
100
AcDbLinetypeTableRecord
  2
CONTINUOUS
 70
64
  3
Solid line
 72
65
 73
0
 40
0.0
  0
LTYPE
  5
1F5
100
AcDbSymbolTableRecord
100
AcDbLinetypeTableRecord
  2
CENTER
 70
64
  3
____ _ ____ _ ____ _ ____ _ ____ _ ____ _ ____
 72
65
 73
4
 40
0.6
 49
0.375
 74
0
 49
-0.075
 74
0
 49
0.075
 74
0
 49
-0.075
 74
0
  0
LTYPE
  5
1F6
100
AcDbSymbolTableRecord
100
AcDbLinetypeTableRecord
  2
HIDDEN
 70
64
  3
- - - - - - - - - - - - - - - - - - - -
 72
65
 73
2
 40
0.2
 49
0.1
 74
0
 49
-0.1
 74
0
  0
LTYPE
  5
1F7
100
AcDbSymbolTableRecord
100
AcDbLinetypeTableRecord
  2
PHANTOM
 70
64
  3
_____ _ _ _____ _ _ _____ _ _ _____
 72
65
 73
6
 40
0.8
 49
0.45
 74
0
 49
-0.05
 74
0
 49
0.1
 74
0
 49
-0.05
 74
0
 49
0.1
 74
0
 49
-0.05
 74
0
  0
LTYPE
  5
1F8
100
AcDbSymbolTableRecord
100
AcDbLinetypeTableRecord
  2
DOT
 70
64
  3
. . . . . . . . . . . . . . . . . . . .
 72
65
 73
2
 40
0.2
 49
0.1
 74
0
 49
-0.1
 74
0
  0
LTYPE
  5
1F9
100
AcDbSymbolTableRecord
100
AcDbLinetypeTableRecord
  2
DASHED
 70
64
  3
- - - - - - - - - - - - - - - - - - - -
 72
65
 73
2
 40
0.2
 49
0.1
 74
0
 49
-0.1
 74
0
  0
ENDTAB
  0
TABLE
  2
LAYER
  5
2
100
AcDbSymbolTable
 70
36
  0
LAYER
  5
10
100
AcDbSymbolTableRecord
100
AcDbLayerTableRecord
  2
0
 70
0
 62
7
  6
CONTINUOUS
370
-3
390
F
  0
LAYER
  5
1FA
100
AcDbSymbolTableRecord
100
AcDbLayerTableRecord
  2
DEFAULT_1
 70
0
 62
7
  6
CENTER
370
-3
390
F
  0
LAYER
  5
1FB
100
AcDbSymbolTableRecord
100
AcDbLayerTableRecord
  2
DEFAULT_2
 70
0
 62
8
  6
HIDDEN
370
-3
390
F
  0
LAYER
  5
1FC
100
AcDbSymbolTableRecord
100
AcDbLayerTableRecord
  2
DEFAULT_3
 70
0
 62
7
  6
PHANTOM
370
-3
390
F
  0
LAYER
  5
1FD
100
AcDbSymbolTableRecord
100
AcDbLayerTableRecord
  2
_2D_DELETED_OBJS
 70
0
 62
7
  6
CONTINUOUS
370
-3
390
F
  0
LAYER
  5
1FE
100
AcDbSymbolTableRecord
100
AcDbLayerTableRecord
  2
_BLACK_HOLE
 70
0
 62
7
  6
CONTINUOUS
370
-3
390
F
  0
LAYER
  5
1FF
100
AcDbSymbolTableRecord
100
AcDbLayerTableRecord
  2
ACHSEN
 70
0
 62
7
  6
CONTINUOUS
370
-3
390
F
  0
LAYER
  5
200
100
AcDbSymbolTableRecord
100
AcDbLayerTableRecord
  2
AXIS
 70
0
 62
7
  6
CONTINUOUS
370
-3
390
F
  0
LAYER
  5
201
100
AcDbSymbolTableRecord
100
AcDbLayerTableRecord
  2
DIMENSIONS
 70
0
 62
7
  6
CONTINUOUS
370
-3
390
F
  0
LAYER
  5
202
100
AcDbSymbolTableRecord
100
AcDbLayerTableRecord
  2
EBENEN
 70
0
 62
7
  6
CONTINUOUS
370
-3
390
F
  0
LAYER
  5
203
100
AcDbSymbolTableRecord
100
AcDbLayerTableRecord
  2
FASEN
 70
0
 62
7
  6
CONTINUOUS
370
-3
390
F
  0
LAYER
  5
204
100
AcDbSymbolTableRecord
100
AcDbLayerTableRecord
  2
FLAECHEN
 70
0
 62
7
  6
CONTINUOUS
370
-3
390
F
  0
LAYER
  5
205
100
AcDbSymbolTableRecord
100
AcDbLayerTableRecord
  2
HOLES
 70
0
 62
7
  6
CONTINUOUS
370
-3
390
F
  0
LAYER
  5
206
100
AcDbSymbolTableRecord
100
AcDbLayerTableRecord
  2
KOERPER
 70
0
 62
7
  6
CONTINUOUS
370
-3
390
F
  0
LAYER
  5
207
100
AcDbSymbolTableRecord
100
AcDbLayerTableRecord
  2
KURVEN
 70
0
 62
7
  6
CONTINUOUS
370
-3
390
F
  0
LAYER
  5
208
100
AcDbSymbolTableRecord
100
AcDbLayerTableRecord
  2
ORI_FL
 70
0
 62
7
  6
CONTINUOUS
370
-3
390
F
  0
LAYER
  5
209
100
AcDbSymbolTableRecord
100
AcDbLayerTableRecord
  2
PUNKTE
 70
0
 62
7
  6
CONTINUOUS
370
-3
390
F
  0
LAYER
  5
20A
100
AcDbSymbolTableRecord
100
AcDbLayerTableRecord
  2
QUILTS
 70
0
 62
7
  6
CONTINUOUS
370
-3
390
F
  0
LAYER
  5
20B
100
AcDbSymbolTableRecord
100
AcDbLayerTableRecord
  2
ROUNDS
 70
0
 62
7
  6
CONTINUOUS
370
-3
390
F
  0
LAYER
  5
20C
100
AcDbSymbolTableRecord
100
AcDbLayerTableRecord
  2
SAMMELFLAECHEN
 70
0
 62
7
  6
CONTINUOUS
370
-3
390
F
  0
LAYER
  5
20D
100
AcDbSymbolTableRecord
100
AcDbLayerTableRecord
  2
SKETCH
 70
0
 62
7
  6
CONTINUOUS
370
-3
390
F
  0
LAYER
  5
20E
100
AcDbSymbolTableRecord
100
AcDbLayerTableRecord
  2
SOLIDS
 70
0
 62
7
  6
CONTINUOUS
370
-3
390
F
  0
ENDTAB
  0
TABLE
  2
STYLE
  5
3
100
AcDbSymbolTable
 70
1
  0
STYLE
  5
11
100
AcDbSymbolTableRecord
100
AcDbTextStyleTableRecord
  2
STANDARD
 70
0
 40
0.0
 41
0.8
 50
0.0
 71
0
 42
0.2
  3
txt
  4

  0
ENDTAB
  0
TABLE
  2
VIEW
  5
6
100
AcDbSymbolTable
 70
0
  0
ENDTAB
  0
TABLE
  2
UCS
  5
7
100
AcDbSymbolTable
 70
0
  0
ENDTAB
  0
TABLE
  2
APPID
  5
9
100
AcDbSymbolTable
 70
1
  0
APPID
  5
20F
100
AcDbSymbolTableRecord
100
AcDbRegAppTableRecord
  2
ACAD
 70
0
  0
ENDTAB
  0
TABLE
  2
BLOCK_RECORD
  5
1
100
AcDbSymbolTable
 70
0
  0
BLOCK_RECORD
  5
1F
100
AcDbSymbolTableRecord
100
AcDbBlockTableRecord
  2
*MODEL_SPACE
  0
BLOCK_RECORD
  5
1B
100
AcDbSymbolTableRecord
100
AcDbBlockTableRecord
  2
*PAPER_SPACE
  0
BLOCK_RECORD
  5
210
100
AcDbSymbolTableRecord
100
AcDbBlockTableRecord
  2
_FILLED
  0
BLOCK_RECORD
  5
211
100
AcDbSymbolTableRecord
100
AcDbBlockTableRecord
  2
*D0
  0
BLOCK_RECORD
  5
212
100
AcDbSymbolTableRecord
100
AcDbBlockTableRecord
  2
*D1
  0
BLOCK_RECORD
  5
213
100
AcDbSymbolTableRecord
100
AcDbBlockTableRecord
  2
*D2
  0
BLOCK_RECORD
  5
214
100
AcDbSymbolTableRecord
100
AcDbBlockTableRecord
  2
*D3
  0
ENDTAB
  0
TABLE
  2
DIMSTYLE
  5
A
100
AcDbSymbolTable
 70
1
100
AcDbDimStyleTable
 71
0
  0
DIMSTYLE
105
215
100
AcDbSymbolTableRecord
100
AcDbDimStyleTableRecord
  2
STANDARD
 70
0
  3

  4

 40
1.0
 41
2.5
 42
0.0625
 43
0.38
 44
0.18
 45
0.0
 46
0.0
 47
0.01
 48
0.01
140
2.5
141
0.09
142
0.0
143
25.4
144
1.0
145
0.0
146
1.0
147
0.09
 71
1.0
 72
0.0
 73
0
 74
0
 75
0
 76
0
 77
1
 78
8
170
0
171
2
172
0
173
0
174
0
175
0
176
0
177
0
178
5
270
2
271
2
272
2
273
2
274
2
275
0
280
0
281
0
282
0
283
1
284
8
285
0
286
0
287
3
288
0
340
11
341
210
342
210
343
210
344
210
  0
DIMSTYLE
105
216
100
AcDbSymbolTableRecord
100
AcDbDimStyleTableRecord
  2
DIMSTYLE_1
 70
0
  3

  4

 40
1.0
 41
2.5
 42
0.0625
 43
0.38
 44
0.18
 45
0.0
 46
0.0
 47
0.2
 48
0.2
140
2.5
141
0.09
142
0.0
143
25.4
144
1.0
145
0.0
146
1.0
147
0.09
 71
0.0
 72
0.0
 73
0
 74
0
 75
0
 76
0
 77
1
 78
8
170
0
171
2
172
0
173
0
174
0
175
0
176
0
177
0
178
5
270
2
271
2
272
2
273
2
274
2
275
0
280
0
281
0
282
0
283
1
284
8
285
0
286
0
287
3
288
0
340
11
341
210
342
210
343
210
344
210
  0
DIMSTYLE
105
217
100
AcDbSymbolTableRecord
100
AcDbDimStyleTableRecord
  2
DIMSTYLE_2
 70
0
  3

  4

 40
1.0
 41
2.5
 42
0.0625
 43
0.38
 44
0.18
 45
0.0
 46
0.0
 47
0.3
 48
0.3
140
2.5
141
0.09
142
0.0
143
25.4
144
1.0
145
0.0
146
1.0
147
0.09
 71
0.0
 72
0.0
 73
0
 74
0
 75
0
 76
0
 77
1
 78
8
170
0
171
2
172
0
173
0
174
0
175
0
176
0
177
0
178
5
270
2
271
2
272
2
273
2
274
2
275
0
280
0
281
0
282
0
283
1
284
8
285
0
286
0
287
3
288
0
340
11
341
210
342
210
343
210
344
210
  0
ENDTAB
  0
ENDSEC
  0
SECTION
  2
BLOCKS
  0
BLOCK
  5
20
100
AcDbEntity
  8
0
100
AcDbBlockBegin
  2
*MODEL_SPACE
 70
0
 10
0.0
 20
0.0
 30
0.0
  3
*MODEL_SPACE
  1

  0
ENDBLK
  5
21
100
AcDbEntity
  8
0
100
AcDbBlockEnd
  0
BLOCK
  5
1C
100
AcDbEntity
  8
0
100
AcDbBlockBegin
  2
*PAPER_SPACE
 70
0
 10
0.0
 20
0.0
 30
0.0
  3
*PAPER_SPACE
  1

  0
ENDBLK
  5
1D
100
AcDbEntity
  8
0
100
AcDbBlockEnd
  0
BLOCK
  5
218
100
AcDbEntity
  8
DIMENSIONS
100
AcDbBlockBegin
 62
2
  6
CONTINUOUS
  2
*D0
 70
65
 10
0.0
 20
0.0
  3
*D0
  1

  0
LINE
  5
219
100
AcDbEntity
  8
DIMENSIONS
100
AcDbLine
 62
2
  6
CONTINUOUS
 10
130.9581079183
 20
81.5848855987
 11
130.9581079183
 21
71.5848855987
  0
LINE
  5
21A
100
AcDbEntity
  8
DIMENSIONS
100
AcDbLine
 62
2
  6
CONTINUOUS
 10
141.9581079183
 20
81.5848855987
 11
141.9581079183
 21
71.5848855987
  0
LINE
  5
21B
100
AcDbEntity
  8
DIMENSIONS
100
AcDbLine
 62
2
  6
CONTINUOUS
 10
130.9581079183
 20
72.5848855987
 11
136.4581079183
 21
72.5848855987
  0
LINE
  5
21C
100
AcDbEntity
  8
DIMENSIONS
100
AcDbLine
 62
2
  6
CONTINUOUS
 10
141.9581079183
 20
72.5848855987
 11
136.4581079183
 21
72.5848855987
  0
INSERT
  5
21D
100
AcDbEntity
  8
DIMENSIONS
100
AcDbBlockReference
 62
2
  6
CONTINUOUS
  2
_FILLED
 10
130.9581079183
 20
72.5848855987
 41
2.5
 42
2.5
 43
2.5
 50
180.0
  0
INSERT
  5
21E
100
AcDbEntity
  8
DIMENSIONS
100
AcDbBlockReference
 62
2
  6
CONTINUOUS
  2
_FILLED
 10
141.9581079183
 20
72.5848855987
 41
2.5
 42
2.5
 43
2.5
  0
ENDBLK
  5
21F
100
AcDbEntity
  8
0
  6
BYBLOCK
 62
0
100
AcDbBlockEnd
  0
BLOCK
  5
220
100
AcDbEntity
  8
DIMENSIONS
100
AcDbBlockBegin
 62
2
  6
CONTINUOUS
  2
*D1
 70
65
 10
0.0
 20
0.0
  3
*D1
  1

  0
LINE
  5
221
100
AcDbEntity
  8
DIMENSIONS
100
AcDbLine
 62
2
  6
CONTINUOUS
 10
75.3393516944
 20
364.5848855987
 11
75.3393516944
 21
393.5848855987
  0
LINE
  5
222
100
AcDbEntity
  8
DIMENSIONS
100
AcDbLine
 62
2
  6
CONTINUOUS
 10
66.3393516944
 20
383.5872840202
 11
66.3393516944
 21
393.5848855987
  0
LINE
  5
223
100
AcDbEntity
  8
DIMENSIONS
100
AcDbLine
 62
2
  6
CONTINUOUS
 10
75.3393516944
 20
392.5848855987
 11
70.8393516944
 21
392.5848855987
  0
LINE
  5
224
100
AcDbEntity
  8
DIMENSIONS
100
AcDbLine
 62
2
  6
CONTINUOUS
 10
66.3393516944
 20
392.5848855987
 11
70.8393516944
 21
392.5848855987
  0
INSERT
  5
225
100
AcDbEntity
  8
DIMENSIONS
100
AcDbBlockReference
 62
2
  6
CONTINUOUS
  2
_FILLED
 10
75.3393516944
 20
392.5848855987
 41
2.5
 42
2.5
 43
2.5
  0
INSERT
  5
226
100
AcDbEntity
  8
DIMENSIONS
100
AcDbBlockReference
 62
2
  6
CONTINUOUS
  2
_FILLED
 10
66.3393516944
 20
392.5848855987
 41
2.5
 42
2.5
 43
2.5
 50
180.0
  0
ENDBLK
  5
227
100
AcDbEntity
  8
0
  6
BYBLOCK
 62
0
100
AcDbBlockEnd
  0
BLOCK
  5
228
100
AcDbEntity
  8
DIMENSIONS
100
AcDbBlockBegin
 62
2
  6
CONTINUOUS
  2
*D2
 70
65
 10
0.0
 20
0.0
  3
*D2
  1

  0
LINE
  5
229
100
AcDbEntity
  8
DIMENSIONS
100
AcDbLine
 62
2
  6
CONTINUOUS
 10
541.9581079183
 20
363.5848855987
 11
551.9581079183
 21
363.5848855987
  0
LINE
  5
22A
100
AcDbEntity
  8
DIMENSIONS
100
AcDbLine
 62
2
  6
CONTINUOUS
 10
541.9581079183
 20
243.5848855987
 11
551.9581079183
 21
243.5848855987
  0
LINE
  5
22B
100
AcDbEntity
  8
DIMENSIONS
100
AcDbLine
 62
2
  6
CONTINUOUS
 10
550.9581079183
 20
363.5848855987
 11
550.9581079183
 21
303.5848855987
  0
LINE
  5
22C
100
AcDbEntity
  8
DIMENSIONS
100
AcDbLine
 62
2
  6
CONTINUOUS
 10
550.9581079183
 20
243.5848855987
 11
550.9581079183
 21
303.5848855987
  0
INSERT
  5
22D
100
AcDbEntity
  8
DIMENSIONS
100
AcDbBlockReference
 62
2
  6
CONTINUOUS
  2
_FILLED
 10
550.9581079183
 20
363.5848855987
 41
2.5
 42
2.5
 43
2.5
 50
90.0
  0
INSERT
  5
22E
100
AcDbEntity
  8
DIMENSIONS
100
AcDbBlockReference
 62
2
  6
CONTINUOUS
  2
_FILLED
 10
550.9581079183
 20
243.5848855987
 41
2.5
 42
2.5
 43
2.5
 50
270.0
  0
ENDBLK
  5
22F
100
AcDbEntity
  8
0
  6
BYBLOCK
 62
0
100
AcDbBlockEnd
  0
BLOCK
  5
230
100
AcDbEntity
  8
DIMENSIONS
100
AcDbBlockBegin
 62
2
  6
CONTINUOUS
  2
*D3
 70
65
 10
0.0
 20
0.0
  3
*D3
  1

  0
LINE
  5
231
100
AcDbEntity
  8
DIMENSIONS
100
AcDbLine
 62
2
  6
CONTINUOUS
 10
541.9581079183
 20
382.5848855987
 11
551.9581079183
 21
382.5848855987
  0
LINE
  5
232
100
AcDbEntity
  8
DIMENSIONS
100
AcDbLine
 62
2
  6
CONTINUOUS
 10
541.9581079183
 20
363.5848855987
 11
551.9581079183
 21
363.5848855987
  0
LINE
  5
233
100
AcDbEntity
  8
DIMENSIONS
100
AcDbLine
 62
2
  6
CONTINUOUS
 10
550.9581079183
 20
382.5848855987
 11
550.9581079183
 21
373.0848855987
  0
LINE
  5
234
100
AcDbEntity
  8
DIMENSIONS
100
AcDbLine
 62
2
  6
CONTINUOUS
 10
550.9581079183
 20
363.5848855987
 11
550.9581079183
 21
373.0848855987
  0
INSERT
  5
235
100
AcDbEntity
  8
DIMENSIONS
100
AcDbBlockReference
 62
2
  6
CONTINUOUS
  2
_FILLED
 10
550.9581079183
 20
382.5848855987
 41
2.5
 42
2.5
 43
2.5
 50
90.0
  0
INSERT
  5
236
100
AcDbEntity
  8
DIMENSIONS
100
AcDbBlockReference
 62
2
  6
CONTINUOUS
  2
_FILLED
 10
550.9581079183
 20
363.5848855987
 41
2.5
 42
2.5
 43
2.5
 50
270.0
  0
ENDBLK
  5
237
100
AcDbEntity
  8
0
  6
BYBLOCK
 62
0
100
AcDbBlockEnd
  0
BLOCK
  5
238
100
AcDbEntity
  8
0
100
AcDbBlockBegin
  2
_FILLED
 70
64
 10
0.0
 20
0.0
  3
_FILLED
  1

  0
SOLID
  5
239
100
AcDbEntity
  8
0
  6
BYBLOCK
 62
0
100
AcDbTrace
 10
0.0
 20
0.0
 11
-1.0
 21
0.15
 12
-1.0
 22
-0.15
 13
-1.0
 23
-0.15
  0
ENDBLK
  5
23A
100
AcDbEntity
  8
0
  6
BYBLOCK
 62
0
100
AcDbBlockEnd
  0
ENDSEC
  0
SECTION
  2
ENTITIES
  0
DIMENSION
  5
23B
100
AcDbEntity
  8
DIMENSIONS
100
AcDbDimension
 62
2
  6
CONTINUOUS
  2
*D0
 10
141.9581079183
 20
72.5848855987
 11
135.0295364898
 21
73.2098855987
 70
160
 42
11.0
  3
DIMSTYLE_1
100
AcDbAlignedDimension
 13
130.9581079183
 23
81.5848855987
 14
141.9581079183
 24
81.5848855987
100
AcDbRotatedDimension
  0
DIMENSION
  5
23C
100
AcDbEntity
  8
DIMENSIONS
100
AcDbDimension
 62
2
  6
CONTINUOUS
  2
*D1
 10
66.3393516944
 20
392.5848855987
 11
69.8572088372
 21
393.2098855987
 70
160
 42
9.0
  3
DIMSTYLE_1
100
AcDbAlignedDimension
 13
75.3393516944
 23
364.5848855987
 14
66.3393516944
 24
383.5872840202
 50
180.0
100
AcDbRotatedDimension
  0
DIMENSION
  5
23D
100
AcDbEntity
  8
DIMENSIONS
100
AcDbDimension
 62
2
  6
CONTINUOUS
  2
*D2
 10
550.9581079183
 20
243.5848855987
 11
550.3331079183
 21
300.9063141701
 70
160
 42
120.0
  3
DIMSTYLE_2
100
AcDbAlignedDimension
 13
541.9581079183
 23
363.5848855987
 14
541.9581079183
 24
243.5848855987
 50
270.0
100
AcDbRotatedDimension
  0
DIMENSION
  5
23E
100
AcDbEntity
  8
DIMENSIONS
100
AcDbDimension
 62
2
  6
CONTINUOUS
  2
*D3
 10
550.9581079183
 20
363.5848855987
 11
550.3331079183
 21
366.6563141701
 70
160
 42
19.0
  1
 Boden-\Pstaerke
  3
DIMSTYLE_1
100
AcDbAlignedDimension
 13
541.9581079183
 23
382.5848855987
 14
541.9581079183
 24
363.5848855987
 50
270.0
100
AcDbRotatedDimension
  0
SOLID
  5
23F
100
AcDbEntity
  8
0
100
AcDbTrace
 62
5
  6
CONTINUOUS
 10
308.0515502211
 20
308.0437549644
 11
308.4219205914
 21
308.117831299
 12
309.014513184
 22
308.0437549644
 13
309.014513184
 23
308.0437549644
  0
SOLID
  5
240
100
AcDbEntity
  8
0
100
AcDbTrace
 62
5
  6
CONTINUOUS
 10
308.0515502211
 20
308.0437549644
 11
309.014513184
 21
308.0437549644
 12
307.3108094803
 22
307.8956124676
 13
307.3108094803
 23
307.8956124676
  0
SOLID
  5
241
100
AcDbEntity
  8
0
100
AcDbTrace
 62
5
  6
CONTINUOUS
 10
308.0515502211
 20
308.0437549644
 11
307.3108094803
 21
307.8956124676
 12
307.6811798507
 22
308.0437549644
 13
307.6811798507
 23
308.0437549644
  0
SOLID
  5
242
100
AcDbEntity
  8
0
100
AcDbTrace
 62
5
  6
CONTINUOUS
 10
307.3108094803
 20
307.8956124676
 11
309.014513184
 21
308.0437549644
 12
309.5330317025
 22
307.8956124676
 13
309.5330317025
 23
307.8956124676
  0
SOLID
  5
243
100
AcDbEntity
  8
0
100
AcDbTrace
 62
5
  6
CONTINUOUS
 10
309.5330317025
 20
307.8956124676
 11
307.014513184
 21
307.8215350027
 12
307.3108094803
 22
307.8956124676
 13
307.3108094803
 23
307.8956124676
  0
SOLID
  5
244
100
AcDbEntity
  8
0
100
AcDbTrace
 62
5
  6
CONTINUOUS
 10
306.7182168877
 20
307.6733879848
 11
307.014513184
 21
307.8215350027
 12
309.5330317025
 22
307.8956124676
 13
309.5330317025
 23
307.8956124676
  0
SOLID
  5
245
100
AcDbEntity
  8
0
100
AcDbTrace
 62
5
  6
CONTINUOUS
 10
306.7182168877
 20
307.6733879848
 11
309.5330317025
 21
307.8956124676
 12
309.977476147
 22
307.6733879848
 13
309.977476147
 23
307.6733879848
  0
SOLID
  5
246
100
AcDbEntity
  8
0
100
AcDbTrace
 62
5
  6
CONTINUOUS
 10
309.977476147
 20
307.6733879848
 11
306.4219205914
 21
307.4511646323
 12
306.7182168877
 22
307.6733879848
 13
306.7182168877
 23
307.6733879848
  0
SOLID
  5
247
100
AcDbEntity
  8
0
100
AcDbTrace
 62
5
  6
CONTINUOUS
 10
306.4219205914
 20
307.4511646323
 11
309.977476147
 21
307.6733879848
 12
310.3478465174
 22
307.3770905583
 13
310.3478465174
 23
307.3770905583
  0
SOLID
  5
248
100
AcDbEntity
  8
0
100
AcDbTrace
 62
5
  6
CONTINUOUS
 10
310.3478465174
 20
307.3770905583
 11
306.1256242951
 21
307.2289424101
 12
306.4219205914
 22
307.4511646323
 13
306.4219205914
 23
307.4511646323
  0
SOLID
  5
249
100
AcDbEntity
  8
0
100
AcDbTrace
 62
5
  6
CONTINUOUS
 10
308.3478465174
 20
307.0807976528
 11
306.1256242951
 21
307.2289424101
 12
310.3478465174
 22
307.3770905583
 13
310.3478465174
 23
307.3770905583
  0
SOLID
  5
24A
100
AcDbEntity
  8
0
100
AcDbTrace
 62
5
  6
CONTINUOUS
 10
308.3478465174
 20
307.0807976528
 11
310.3478465174
 21
307.3770905583
 12
310.7182168877
 22
307.0807976528
 13
310.7182168877
 23
307.0807976528
  0
SOLID
  5
24B
100
AcDbEntity
  8
0
100
AcDbTrace
 62
5
  6
CONTINUOUS
 10
310.7182168877
 20
307.0807976528
 11
308.7182168877
 21
307.0067162319
 12
308.3478465174
 22
307.0807976528
 13
308.3478465174
 23
307.0807976528
  0
SOLID
  5
24C
100
AcDbEntity
  8
0
100
AcDbTrace
 62
5
  6
CONTINUOUS
 10
308.3478465174
 20
307.0807976528
 11
308.0515502211
 21
307.0067162319
 12
305.9034020729
 22
306.9326449835
 13
305.9034020729
 23
306.9326449835
  0
SOLID
  5
24D
100
AcDbEntity
  8
0
100
AcDbTrace
 62
5
  6
CONTINUOUS
 10
308.3478465174
 20
307.0807976528
 11
305.9034020729
 21
306.9326449835
 12
306.1256242951
 22
307.2289424101
 13
306.1256242951
 23
307.2289424101
  0
SOLID
  5
24E
100
AcDbEntity
  8
0
100
AcDbTrace
 62
5
  6
CONTINUOUS
 10
305.9034020729
 20
306.9326449835
 11
308.0515502211
 21
307.0067162319
 12
307.8293279988
 22
306.9326449835
 13
307.8293279988
 23
306.9326449835
  0
SOLID
  5
24F
100
AcDbEntity
  8
0
100
AcDbTrace
 62
5
  6
CONTINUOUS
 10
309.014513184
 20
306.9326449835
 11
308.7182168877
 21
307.0067162319
 12
310.7182168877
 22
307.0807976528
 13
310.7182168877
 23
307.0807976528
  0
SOLID
  5
250
100
AcDbEntity
  8
0
100
AcDbTrace
 62
5
  6
CONTINUOUS
 10
309.3108094803
 20
306.7844979657
 11
309.014513184
 21
306.9326449835
 12
310.7182168877
 22
307.0807976528
 13
310.7182168877
 23
307.0807976528
  0
SOLID
  5
251
100
AcDbEntity
  8
0
100
AcDbTrace
 62
5
  6
CONTINUOUS
 10
309.3108094803
 20
306.7844979657
 11
310.7182168877
 21
307.0807976528
 12
310.9404391099
 22
306.6363498175
 13
310.9404391099
 23
306.6363498175
  0
SOLID
  5
252
100
AcDbEntity
  8
0
100
AcDbTrace
 62
5
  6
CONTINUOUS
 10
307.5330317025
 20
306.8585720397
 11
307.3108094803
 21
306.7104238916
 12
305.6811798507
 22
306.562278004
 13
305.6811798507
 23
306.562278004
  0
SOLID
  5
253
100
AcDbEntity
  8
0
100
AcDbTrace
 62
5
  6
CONTINUOUS
 10
307.8293279988
 20
306.9326449835
 11
307.5330317025
 21
306.8585720397
 12
305.6811798507
 22
306.562278004
 13
305.6811798507
 23
306.562278004
  0
SOLID
  5
254
100
AcDbEntity
  8
0
100
AcDbTrace
 62
5
  6
CONTINUOUS
 10
307.8293279988
 20
306.9326449835
 11
305.6811798507
 21
306.562278004
 12
305.9034020729
 22
306.9326449835
 13
305.9034020729
 23
306.9326449835
  0
SOLID
  5
255
100
AcDbEntity
  8
0
100
AcDbTrace
 62
5
  6
CONTINUOUS
 10
310.9404391099
 20
306.6363498175
 11
309.5330317025
 21
306.562278004
 12
309.3108094803
 22
306.7844979657
 13
309.3108094803
 23
306.7844979657
  0
SOLID
  5
256
100
AcDbEntity
  8
0
100
AcDbTrace
 62
5
  6
CONTINUOUS
 10
305.6811798507
 20
306.562278004
 11
307.3108094803
 21
306.7104238916
 12
307.014513184
 22
306.4882016694
 13
307.014513184
 23
306.4882016694
  0
SOLID
  5
257
100
AcDbEntity
  8
0
100
AcDbTrace
 62
5
  6
CONTINUOUS
 10
307.014513184
 20
306.4882016694
 11
305.4589576285
 21
306.1919008519
 12
305.6811798507
 22
306.562278004
 13
305.6811798507
 23
306.562278004
  0
SOLID
  5
258
100
AcDbEntity
  8
0
100
AcDbTrace
 62
5
  6
CONTINUOUS
 10
305.4589576285
 20
306.1919008519
 11
307.014513184
 21
306.4882016694
 12
306.7922909618
 22
306.1919008519
 13
306.7922909618
 23
306.1919008519
  0
SOLID
  5
259
100
AcDbEntity
  8
0
100
AcDbTrace
 62
5
  6
CONTINUOUS
 10
309.6811798507
 20
306.3400535212
 11
309.5330317025
 21
306.562278004
 12
310.9404391099
 22
306.6363498175
 13
310.9404391099
 23
306.6363498175
  0
SOLID
  5
25A
100
AcDbEntity
  8
0
100
AcDbTrace
 62
5
  6
CONTINUOUS
 10
309.8293279988
 20
306.1178296036
 11
309.6811798507
 21
306.3400535212
 12
310.9404391099
 22
306.6363498175
 13
310.9404391099
 23
306.6363498175
  0
SOLID
  5
25B
100
AcDbEntity
  8
0
100
AcDbTrace
 62
5
  6
CONTINUOUS
 10
309.8293279988
 20
306.1178296036
 11
310.9404391099
 21
306.6363498175
 12
311.1626613322
 22
306.1178296036
 13
311.1626613322
 23
306.1178296036
  0
SOLID
  5
25C
100
AcDbEntity
  8
0
100
AcDbTrace
 62
5
  6
CONTINUOUS
 10
311.1626613322
 20
306.1178296036
 11
309.9034020729
 21
305.8215350027
 12
309.8293279988
 22
306.1178296036
 13
309.8293279988
 23
306.1178296036
  0
SOLID
  5
25D
100
AcDbEntity
  8
0
100
AcDbTrace
 62
5
  6
CONTINUOUS
 10
306.7922909618
 20
306.1919008519
 11
306.6441428137
 21
305.8956090768
 12
305.2367354062
 22
305.7474609286
 13
305.2367354062
 23
305.7474609286
  0
SOLID
  5
25E
100
AcDbEntity
  8
0
100
AcDbTrace
 62
5
  6
CONTINUOUS
 10
306.7922909618
 20
306.1919008519
 11
305.2367354062
 21
305.7474609286
 12
305.4589576285
 22
306.1919008519
 13
305.4589576285
 23
306.1919008519
  0
SOLID
  5
25F
100
AcDbEntity
  8
0
100
AcDbTrace
 62
5
  6
CONTINUOUS
 10
309.9034020729
 20
305.8215350027
 11
311.1626613322
 21
306.1178296036
 12
311.3108094803
 22
305.5993127805
 13
311.3108094803
 23
305.5993127805
  0
SOLID
  5
260
100
AcDbEntity
  8
0
100
AcDbTrace
 62
5
  6
CONTINUOUS
 10
305.2367354062
 20
305.7474609286
 11
306.6441428137
 21
305.8956090768
 12
306.4219205914
 22
305.5252387064
 13
306.4219205914
 23
305.5252387064
  0
SOLID
  5
261
100
AcDbEntity
  8
0
100
AcDbTrace
 62
5
  6
CONTINUOUS
 10
311.3108094803
 20
305.5993127805
 11
310.0515502211
 21
305.5252387064
 12
309.9034020729
 22
305.8215350027
 13
309.9034020729
 23
305.8215350027
  0
SOLID
  5
262
100
AcDbEntity
  8
0
100
AcDbTrace
 62
5
  6
CONTINUOUS
 10
306.4219205914
 20
305.5252387064
 11
305.0885872581
 21
305.2289424101
 12
305.2367354062
 22
305.7474609286
 13
305.2367354062
 23
305.7474609286
  0
SOLID
  5
263
100
AcDbEntity
  8
0
100
AcDbTrace
 62
5
  6
CONTINUOUS
 10
305.0885872581
 20
305.2289424101
 11
306.4219205914
 21
305.5252387064
 12
306.2737724433
 22
305.080794262
 13
306.2737724433
 23
305.080794262
  0
SOLID
  5
264
100
AcDbEntity
  8
0
100
AcDbTrace
 62
5
  6
CONTINUOUS
 10
306.2737724433
 20
305.080794262
 11
305.014513184
 21
304.7104238916
 12
305.0885872581
 22
305.2289424101
 13
305.0885872581
 23
305.2289424101
  0
SOLID
  5
265
100
AcDbEntity
  8
0
100
AcDbTrace
 62
5
  6
CONTINUOUS
 10
305.014513184
 20
304.7104238916
 11
306.2737724433
 21
305.080794262
 12
306.1996983692
 22
304.4881994088
 13
306.1996983692
 23
304.4881994088
  0
SOLID
  5
266
100
AcDbEntity
  8
0
100
AcDbTrace
 62
5
  6
CONTINUOUS
 10
308.1256242951
 20
304.4881994088
 11
308.4959946655
 21
304.5622757434
 12
309.0885872581
 22
304.4881994088
 13
309.0885872581
 23
304.4881994088
  0
SOLID
  5
267
100
AcDbEntity
  8
0
100
AcDbTrace
 62
5
  6
CONTINUOUS
 10
309.0885872581
 20
304.4881994088
 11
307.8293279988
 21
304.4141275953
 12
308.1256242951
 22
304.4881994088
 13
308.1256242951
 23
304.4881994088
  0
SOLID
  5
268
100
AcDbEntity
  8
0
100
AcDbTrace
 62
5
  6
CONTINUOUS
 10
307.4589576285
 20
304.3400535212
 11
307.8293279988
 21
304.4141275953
 12
309.0885872581
 22
304.4881994088
 13
309.0885872581
 23
304.4881994088
  0
SOLID
  5
269
100
AcDbEntity
  8
0
100
AcDbTrace
 62
5
  6
CONTINUOUS
 10
307.4589576285
 20
304.3400535212
 11
309.0885872581
 21
304.4881994088
 12
309.6071057766
 22
304.2659794471
 13
309.6071057766
 23
304.2659794471
  0
SOLID
  5
26A
100
AcDbEntity
  8
0
100
AcDbTrace
 62
5
  6
CONTINUOUS
 10
309.6071057766
 20
304.2659794471
 11
307.1626613322
 21
304.1919053731
 12
307.4589576285
 22
304.3400535212
 13
307.4589576285
 23
304.3400535212
  0
SOLID
  5
26B
100
AcDbEntity
  8
0
100
AcDbTrace
 62
5
  6
CONTINUOUS
 10
306.1996983692
 20
304.4881994088
 11
304.8663650359
 21
304.117831299
 12
305.014513184
 22
304.7104238916
 13
305.014513184
 23
304.7104238916
  0
SOLID
  5
26C
100
AcDbEntity
  8
0
100
AcDbTrace
 62
5
  6
CONTINUOUS
 10
306.8663650359
 20
304.0437611809
 11
307.1626613322
 21
304.1919053731
 12
309.6071057766
 22
304.2659794471
 13
309.6071057766
 23
304.2659794471
  0
SOLID
  5
26D
100
AcDbEntity
  8
0
100
AcDbTrace
 62
5
  6
CONTINUOUS
 10
306.8663650359
 20
304.0437611809
 11
309.6071057766
 21
304.2659794471
 12
310.1256242951
 22
304.0437611809
 13
310.1256242951
 23
304.0437611809
  0
SOLID
  5
26E
100
AcDbEntity
  8
0
100
AcDbTrace
 62
5
  6
CONTINUOUS
 10
304.8663650359
 20
304.117831299
 11
306.1996983692
 21
304.4881994088
 12
306.1256242951
 22
303.8956090768
 13
306.1256242951
 23
303.8956090768
  0
SOLID
  5
26F
100
AcDbEntity
  8
0
100
AcDbTrace
 62
5
  6
CONTINUOUS
 10
310.1256242951
 20
304.0437611809
 11
306.5700687396
 21
303.8215350027
 12
306.8663650359
 22
304.0437611809
 13
306.8663650359
 23
304.0437611809
  0
SOLID
  5
270
100
AcDbEntity
  8
0
100
AcDbTrace
 62
5
  6
CONTINUOUS
 10
306.5700687396
 20
303.8215350027
 11
310.1256242951
 21
304.0437611809
 12
310.5700687396
 22
303.5993127805
 13
310.5700687396
 23
303.5993127805
  0
SOLID
  5
271
100
AcDbEntity
  8
0
100
AcDbTrace
 62
5
  6
CONTINUOUS
 10
310.5700687396
 20
303.5993127805
 11
306.3478465174
 21
303.5252387064
 12
306.5700687396
 22
303.8215350027
 13
306.5700687396
 23
303.8215350027
  0
SOLID
  5
272
100
AcDbEntity
  8
0
100
AcDbTrace
 62
5
  6
CONTINUOUS
 10
306.1256242951
 20
303.8956090768
 11
304.8663650359
 21
303.4511646323
 12
304.8663650359
 22
304.117831299
 13
304.8663650359
 23
304.117831299
  0
SOLID
  5
273
100
AcDbEntity
  8
0
100
AcDbTrace
 62
5
  6
CONTINUOUS
 10
304.8663650359
 20
303.4511646323
 11
306.1256242951
 21
303.8956090768
 12
306.1256242951
 22
303.2289463661
 13
306.1256242951
 23
303.2289463661
  0
SOLID
  5
274
100
AcDbEntity
  8
0
100
AcDbTrace
 62
5
  6
CONTINUOUS
 10
308.1996983692
 20
303.3770905583
 11
307.7552539248
 21
303.3030176145
 12
306.1256242951
 22
303.2289463661
 13
306.1256242951
 23
303.2289463661
  0
SOLID
  5
275
100
AcDbEntity
  8
0
100
AcDbTrace
 62
5
  6
CONTINUOUS
 10
308.1996983692
 20
303.3770905583
 11
306.1256242951
 21
303.2289463661
 12
306.3478465174
 22
303.5252387064
 13
306.3478465174
 23
303.5252387064
  0
SOLID
  5
276
100
AcDbEntity
  8
0
100
AcDbTrace
 62
5
  6
CONTINUOUS
 10
306.1256242951
 20
303.2289463661
 11
307.7552539248
 21
303.3030176145
 12
307.3848835544
 22
303.2289463661
 13
307.3848835544
 23
303.2289463661
  0
SOLID
  5
277
100
AcDbEntity
  8
0
100
AcDbTrace
 62
5
  6
CONTINUOUS
 10
308.1996983692
 20
303.3770905583
 11
306.3478465174
 21
303.5252387064
 12
310.5700687396
 22
303.5993127805
 13
310.5700687396
 23
303.5993127805
  0
SOLID
  5
278
100
AcDbEntity
  8
0
100
AcDbTrace
 62
5
  6
CONTINUOUS
 10
308.6441428137
 20
303.3030176145
 11
308.1996983692
 21
303.3770905583
 12
310.5700687396
 22
303.5993127805
 13
310.5700687396
 23
303.5993127805
  0
SOLID
  5
279
100
AcDbEntity
  8
0
100
AcDbTrace
 62
5
  6
CONTINUOUS
 10
309.014513184
 20
303.2289463661
 11
308.6441428137
 21
303.3030176145
 12
310.5700687396
 22
303.5993127805
 13
310.5700687396
 23
303.5993127805
  0
SOLID
  5
27A
100
AcDbEntity
  8
0
100
AcDbTrace
 62
5
  6
CONTINUOUS
 10
309.014513184
 20
303.2289463661
 11
310.5700687396
 21
303.5993127805
 12
310.9404391099
 22
303.154868336
 13
310.9404391099
 23
303.154868336
  0
SOLID
  5
27B
100
AcDbEntity
  8
0
100
AcDbTrace
 62
5
  6
CONTINUOUS
 10
310.9404391099
 20
303.154868336
 11
309.3108094803
 21
303.0067218833
 12
309.014513184
 22
303.2289463661
 13
309.014513184
 23
303.2289463661
  0
SOLID
  5
27C
100
AcDbEntity
  8
0
100
AcDbTrace
 62
5
  6
CONTINUOUS
 10
307.3848835544
 20
303.2289463661
 11
307.0885872581
 21
303.0067218833
 12
304.8663650359
 22
302.7844976831
 13
304.8663650359
 23
302.7844976831
  0
SOLID
  5
27D
100
AcDbEntity
  8
0
100
AcDbTrace
 62
5
  6
CONTINUOUS
 10
306.1256242951
 20
303.2289463661
 11
307.3848835544
 21
303.2289463661
 12
304.8663650359
 22
302.7844976831
 13
304.8663650359
 23
302.7844976831
  0
SOLID
  5
27E
100
AcDbEntity
  8
0
100
AcDbTrace
 62
5
  6
CONTINUOUS
 10
306.1256242951
 20
303.2289463661
 11
304.8663650359
 21
302.7844976831
 12
304.8663650359
 22
303.4511646323
 13
304.8663650359
 23
303.4511646323
  0
SOLID
  5
27F
100
AcDbEntity
  8
0
100
AcDbTrace
 62
5
  6
CONTINUOUS
 10
304.8663650359
 20
302.7844976831
 11
307.0885872581
 21
303.0067218833
 12
306.7182168877
 22
302.7844976831
 13
306.7182168877
 23
302.7844976831
  0
SOLID
  5
280
100
AcDbEntity
  8
0
100
AcDbTrace
 62
5
  6
CONTINUOUS
 10
309.6071057766
 20
302.7844976831
 11
309.3108094803
 21
303.0067218833
 12
310.9404391099
 22
303.154868336
 13
310.9404391099
 23
303.154868336
  0
SOLID
  5
281
100
AcDbEntity
  8
0
100
AcDbTrace
 62
5
  6
CONTINUOUS
 10
309.6071057766
 20
302.7844976831
 11
310.9404391099
 21
303.154868336
 12
311.2367354062
 22
302.6363498175
 13
311.2367354062
 23
302.6363498175
  0
SOLID
  5
282
100
AcDbEntity
  8
0
100
AcDbTrace
 62
5
  6
CONTINUOUS
 10
311.2367354062
 20
302.6363498175
 11
309.8293279988
 21
302.4882022345
 12
309.6071057766
 22
302.7844976831
 13
309.6071057766
 23
302.7844976831
  0
SOLID
  5
283
100
AcDbEntity
  8
0
100
AcDbTrace
 62
5
  6
CONTINUOUS
 10
306.7182168877
 20
302.7844976831
 11
306.4959946655
 21
302.4882022345
 12
304.8663650359
 22
302.1178355375
 13
304.8663650359
 23
302.1178355375
  0
SOLID
  5
284
100
AcDbEntity
  8
0
100
AcDbTrace
 62
5
  6
CONTINUOUS
 10
306.7182168877
 20
302.7844976831
 11
304.8663650359
 21
302.1178355375
 12
304.8663650359
 22
302.7844976831
 13
304.8663650359
 23
302.7844976831
  0
SOLID
  5
285
100
AcDbEntity
  8
0
100
AcDbTrace
 62
5
  6
CONTINUOUS
 10
304.8663650359
 20
302.1178355375
 11
306.4959946655
 21
302.4882022345
 12
306.3478465174
 22
302.1178355375
 13
306.3478465174
 23
302.1178355375
  0
SOLID
  5
286
100
AcDbEntity
  8
0
100
AcDbTrace
 62
5
  6
CONTINUOUS
 10
310.0515502211
 20
302.1178355375
 11
309.8293279988
 21
302.4882022345
 12
311.2367354062
 22
302.6363498175
 13
311.2367354062
 23
302.6363498175
  0
SOLID
  5
287
100
AcDbEntity
  8
0
100
AcDbTrace
 62
5
  6
CONTINUOUS
 10
310.0515502211
 20
302.1178355375
 11
311.2367354062
 21
302.6363498175
 12
311.3848835544
 22
301.9696831508
 13
311.3848835544
 23
301.9696831508
  0
SOLID
  5
288
100
AcDbEntity
  8
0
100
AcDbTrace
 62
5
  6
CONTINUOUS
 10
311.3848835544
 20
301.9696831508
 11
310.1256242951
 21
301.6733868545
 12
310.0515502211
 22
302.1178355375
 13
310.0515502211
 23
302.1178355375
  0
SOLID
  5
289
100
AcDbEntity
  8
0
100
AcDbTrace
 62
5
  6
CONTINUOUS
 10
306.3478465174
 20
302.1178355375
 11
306.1996983692
 21
301.7474609286
 12
304.8663650359
 22
301.5252387064
 13
304.8663650359
 23
301.5252387064
  0
SOLID
  5
28A
100
AcDbEntity
  8
0
100
AcDbTrace
 62
5
  6
CONTINUOUS
 10
306.3478465174
 20
302.1178355375
 11
304.8663650359
 21
301.5252387064
 12
304.8663650359
 22
302.1178355375
 13
304.8663650359
 23
302.1178355375
  0
SOLID
  5
28B
100
AcDbEntity
  8
0
100
AcDbTrace
 62
5
  6
CONTINUOUS
 10
304.8663650359
 20
301.5252387064
 11
306.1996983692
 21
301.7474609286
 12
306.1996983692
 22
301.3030204402
 13
306.1996983692
 23
301.3030204402
  0
SOLID
  5
28C
100
AcDbEntity
  8
0
100
AcDbTrace
 62
5
  6
CONTINUOUS
 10
310.1256242951
 20
301.6733868545
 11
311.3848835544
 21
301.9696831508
 12
311.4589576285
 22
301.3030204402
 13
311.4589576285
 23
301.3030204402
  0
SOLID
  5
28D
100
AcDbEntity
  8
0
100
AcDbTrace
 62
5
  6
CONTINUOUS
 10
311.4589576285
 20
301.3030204402
 11
310.1996983692
 21
301.2289424101
 12
310.1256242951
 22
301.6733868545
 13
310.1256242951
 23
301.6733868545
  0
SOLID
  5
28E
100
AcDbEntity
  8
0
100
AcDbTrace
 62
5
  6
CONTINUOUS
 10
306.1996983692
 20
301.3030204402
 11
304.9404391099
 21
301.0067249916
 12
304.8663650359
 22
301.5252387064
 13
304.8663650359
 23
301.5252387064
  0
SOLID
  5
28F
100
AcDbEntity
  8
0
100
AcDbTrace
 62
5
  6
CONTINUOUS
 10
304.9404391099
 20
301.0067249916
 11
306.1996983692
 21
301.3030204402
 12
306.1996983692
 22
301.0067249916
 13
306.1996983692
 23
301.0067249916
  0
SOLID
  5
290
100
AcDbEntity
  8
0
100
AcDbTrace
 62
5
  6
CONTINUOUS
 10
310.1996983692
 20
301.2289424101
 11
311.4589576285
 21
301.3030204402
 12
311.3848835544
 22
300.8585720397
 13
311.3848835544
 23
300.8585720397
  0
SOLID
  5
291
100
AcDbEntity
  8
0
100
AcDbTrace
 62
5
  6
CONTINUOUS
 10
311.3848835544
 20
300.8585720397
 11
310.1256242951
 21
300.7104193705
 12
310.1996983692
 22
301.2289424101
 13
310.1996983692
 23
301.2289424101
  0
SOLID
  5
292
100
AcDbEntity
  8
0
100
AcDbTrace
 62
5
  6
CONTINUOUS
 10
306.1996983692
 20
301.0067249916
 11
306.1996983692
 21
300.7104193705
 12
305.0885872581
 22
300.5622757434
 13
305.0885872581
 23
300.5622757434
  0
SOLID
  5
293
100
AcDbEntity
  8
0
100
AcDbTrace
 62
5
  6
CONTINUOUS
 10
306.1996983692
 20
301.0067249916
 11
305.0885872581
 21
300.5622757434
 12
304.9404391099
 22
301.0067249916
 13
304.9404391099
 23
301.0067249916
  0
SOLID
  5
294
100
AcDbEntity
  8
0
100
AcDbTrace
 62
5
  6
CONTINUOUS
 10
305.0885872581
 20
300.5622757434
 11
306.1996983692
 21
300.7104193705
 12
306.3478465174
 22
300.4141237806
 13
306.3478465174
 23
300.4141237806
  0
SOLID
  5
295
100
AcDbEntity
  8
0
100
AcDbTrace
 62
5
  6
CONTINUOUS
 10
310.1256242951
 20
300.7104193705
 11
311.3848835544
 21
300.8585720397
 12
311.3108094803
 22
300.4141237806
 13
311.3108094803
 23
300.4141237806
  0
SOLID
  5
296
100
AcDbEntity
  8
0
100
AcDbTrace
 62
5
  6
CONTINUOUS
 10
311.3108094803
 20
300.4141237806
 11
310.0515502211
 21
300.2659794471
 12
310.1256242951
 22
300.7104193705
 13
310.1256242951
 23
300.7104193705
  0
SOLID
  5
297
100
AcDbEntity
  8
0
100
AcDbTrace
 62
5
  6
CONTINUOUS
 10
306.3478465174
 20
300.4141237806
 11
305.2367354062
 21
300.117828332
 12
305.0885872581
 22
300.5622757434
 13
305.0885872581
 23
300.5622757434
  0
SOLID
  5
298
100
AcDbEntity
  8
0
100
AcDbTrace
 62
5
  6
CONTINUOUS
 10
305.2367354062
 20
300.117828332
 11
306.3478465174
 21
300.4141237806
 12
306.4219205914
 22
300.117828332
 13
306.4219205914
 23
300.117828332
  0
SOLID
  5
299
100
AcDbEntity
  8
0
100
AcDbTrace
 62
5
  6
CONTINUOUS
 10
310.0515502211
 20
300.2659794471
 11
311.3108094803
 21
300.4141237806
 12
311.1626613322
 22
299.9696831508
 13
311.1626613322
 23
299.9696831508
  0
SOLID
  5
29A
100
AcDbEntity
  8
0
100
AcDbTrace
 62
5
  6
CONTINUOUS
 10
311.1626613322
 20
299.9696831508
 11
309.8293279988
 21
299.8956090768
 12
310.0515502211
 22
300.2659794471
 13
310.0515502211
 23
300.2659794471
  0
SOLID
  5
29B
100
AcDbEntity
  8
0
100
AcDbTrace
 62
5
  6
CONTINUOUS
 10
306.4219205914
 20
300.117828332
 11
306.5700687396
 21
299.8215350027
 12
305.3848835544
 22
299.6733868545
 13
305.3848835544
 23
299.6733868545
  0
SOLID
  5
29C
100
AcDbEntity
  8
0
100
AcDbTrace
 62
5
  6
CONTINUOUS
 10
306.4219205914
 20
300.117828332
 11
305.3848835544
 21
299.6733868545
 12
305.2367354062
 22
300.117828332
 13
305.2367354062
 23
300.117828332
  0
SOLID
  5
29D
100
AcDbEntity
  8
0
100
AcDbTrace
 62
5
  6
CONTINUOUS
 10
305.3848835544
 20
299.6733868545
 11
306.5700687396
 21
299.8215350027
 12
306.7922909618
 22
299.5993086832
 13
306.7922909618
 23
299.5993086832
  0
SOLID
  5
29E
100
AcDbEntity
  8
0
100
AcDbTrace
 62
5
  6
CONTINUOUS
 10
309.6071057766
 20
299.5993086832
 11
309.8293279988
 21
299.8956090768
 12
311.1626613322
 22
299.9696831508
 13
311.1626613322
 23
299.9696831508
  0
SOLID
  5
29F
100
AcDbEntity
  8
0
100
AcDbTrace
 62
5
  6
CONTINUOUS
 10
309.6071057766
 20
299.5993086832
 11
311.1626613322
 21
299.9696831508
 12
311.014513184
 22
299.5993086832
 13
311.014513184
 23
299.5993086832
  0
SOLID
  5
2A0
100
AcDbEntity
  8
0
100
AcDbTrace
 62
5
  6
CONTINUOUS
 10
306.7922909618
 20
299.5993086832
 11
306.9404391099
 21
299.4511646323
 12
305.6071057766
 22
299.3770905583
 13
305.6071057766
 23
299.3770905583
  0
SOLID
  5
2A1
100
AcDbEntity
  8
0
100
AcDbTrace
 62
5
  6
CONTINUOUS
 10
306.7922909618
 20
299.5993086832
 11
305.6071057766
 21
299.3770905583
 12
305.3848835544
 22
299.6733868545
 13
305.3848835544
 23
299.6733868545
  0
SOLID
  5
2A2
100
AcDbEntity
  8
0
100
AcDbTrace
 62
5
  6
CONTINUOUS
 10
311.014513184
 20
299.5993086832
 11
309.3108094803
 21
299.3030164842
 12
309.6071057766
 22
299.5993086832
 13
309.6071057766
 23
299.5993086832
  0
SOLID
  5
2A3
100
AcDbEntity
  8
0
100
AcDbTrace
 62
5
  6
CONTINUOUS
 10
305.6071057766
 20
299.3770905583
 11
306.9404391099
 21
299.4511646323
 12
307.1626613322
 22
299.2289419156
 13
307.1626613322
 23
299.2289419156
  0
SOLID
  5
2A4
100
AcDbEntity
  8
0
100
AcDbTrace
 62
5
  6
CONTINUOUS
 10
309.3108094803
 20
299.3030164842
 11
311.014513184
 21
299.5993086832
 12
310.7922909618
 22
299.2289419156
 13
310.7922909618
 23
299.2289419156
  0
SOLID
  5
2A5
100
AcDbEntity
  8
0
100
AcDbTrace
 62
5
  6
CONTINUOUS
 10
310.7922909618
 20
299.2289419156
 11
309.014513184
 21
299.1548705259
 12
309.3108094803
 22
299.3030164842
 13
309.3108094803
 23
299.3030164842
  0
SOLID
  5
2A6
100
AcDbEntity
  8
0
100
AcDbTrace
 62
5
  6
CONTINUOUS
 10
307.1626613322
 20
299.2289419156
 11
307.4589576285
 21
299.1548705259
 12
305.8293279988
 22
299.080794262
 13
305.8293279988
 23
299.080794262
  0
SOLID
  5
2A7
100
AcDbEntity
  8
0
100
AcDbTrace
 62
5
  6
CONTINUOUS
 10
307.1626613322
 20
299.2289419156
 11
305.8293279988
 21
299.080794262
 12
305.6071057766
 22
299.3770905583
 13
305.6071057766
 23
299.3770905583
  0
SOLID
  5
2A8
100
AcDbEntity
  8
0
100
AcDbTrace
 62
5
  6
CONTINUOUS
 10
305.8293279988
 20
299.080794262
 11
307.4589576285
 21
299.1548705259
 12
307.6811798507
 22
299.0067177154
 13
307.6811798507
 23
299.0067177154
  0
SOLID
  5
2A9
100
AcDbEntity
  8
0
100
AcDbTrace
 62
5
  6
CONTINUOUS
 10
308.6441428137
 20
299.0067177154
 11
309.014513184
 21
299.1548705259
 12
310.7922909618
 22
299.2289419156
 13
310.7922909618
 23
299.2289419156
  0
SOLID
  5
2AA
100
AcDbEntity
  8
0
100
AcDbTrace
 62
5
  6
CONTINUOUS
 10
308.6441428137
 20
299.0067177154
 11
310.7922909618
 21
299.2289419156
 12
310.5700687396
 22
298.8585720397
 13
310.5700687396
 23
298.8585720397
  0
SOLID
  5
2AB
100
AcDbEntity
  8
0
100
AcDbTrace
 62
5
  6
CONTINUOUS
 10
308.6441428137
 20
299.0067177154
 11
310.5700687396
 21
298.8585720397
 12
306.0515502211
 22
298.7844979657
 13
306.0515502211
 23
298.7844979657
  0
SOLID
  5
2AC
100
AcDbEntity
  8
0
100
AcDbTrace
 62
5
  6
CONTINUOUS
 10
308.1996983692
 20
299.0067177154
 11
308.6441428137
 21
299.0067177154
 12
306.0515502211
 22
298.7844979657
 13
306.0515502211
 23
298.7844979657
  0
SOLID
  5
2AD
100
AcDbEntity
  8
0
100
AcDbTrace
 62
5
  6
CONTINUOUS
 10
307.977476147
 20
299.0067177154
 11
308.1996983692
 21
299.0067177154
 12
306.0515502211
 22
298.7844979657
 13
306.0515502211
 23
298.7844979657
  0
SOLID
  5
2AE
100
AcDbEntity
  8
0
100
AcDbTrace
 62
5
  6
CONTINUOUS
 10
307.6811798507
 20
299.0067177154
 11
307.977476147
 21
299.0067177154
 12
306.0515502211
 22
298.7844979657
 13
306.0515502211
 23
298.7844979657
  0
SOLID
  5
2AF
100
AcDbEntity
  8
0
100
AcDbTrace
 62
5
  6
CONTINUOUS
 10
307.6811798507
 20
299.0067177154
 11
306.0515502211
 21
298.7844979657
 12
305.8293279988
 22
299.080794262
 13
305.8293279988
 23
299.080794262
  0
SOLID
  5
2B0
100
AcDbEntity
  8
0
100
AcDbTrace
 62
5
  6
CONTINUOUS
 10
306.3478465174
 20
298.5622795935
 11
306.0515502211
 21
298.7844979657
 12
310.5700687396
 22
298.8585720397
 13
310.5700687396
 23
298.8585720397
  0
SOLID
  5
2B1
100
AcDbEntity
  8
0
100
AcDbTrace
 62
5
  6
CONTINUOUS
 10
306.3478465174
 20
298.5622795935
 11
310.5700687396
 21
298.8585720397
 12
310.2737724433
 22
298.5622795935
 13
310.2737724433
 23
298.5622795935
  0
SOLID
  5
2B2
100
AcDbEntity
  8
0
100
AcDbTrace
 62
5
  6
CONTINUOUS
 10
310.2737724433
 20
298.5622795935
 11
306.5700687396
 21
298.3400554462
 12
306.3478465174
 22
298.5622795935
 13
306.3478465174
 23
298.5622795935
  0
SOLID
  5
2B3
100
AcDbEntity
  8
0
100
AcDbTrace
 62
5
  6
CONTINUOUS
 10
306.5700687396
 20
298.3400554462
 11
310.2737724433
 21
298.5622795935
 12
309.9034020729
 22
298.3400554462
 13
309.9034020729
 23
298.3400554462
  0
SOLID
  5
2B4
100
AcDbEntity
  8
0
100
AcDbTrace
 62
5
  6
CONTINUOUS
 10
309.9034020729
 20
298.3400554462
 11
306.9404391099
 21
298.1919026313
 12
306.5700687396
 22
298.3400554462
 13
306.5700687396
 23
298.3400554462
  0
SOLID
  5
2B5
100
AcDbEntity
  8
0
100
AcDbTrace
 62
5
  6
CONTINUOUS
 10
306.9404391099
 20
298.1919026313
 11
309.9034020729
 21
298.3400554462
 12
309.5330317025
 22
298.1919026313
 13
309.5330317025
 23
298.1919026313
  0
SOLID
  5
2B6
100
AcDbEntity
  8
0
100
AcDbTrace
 62
5
  6
CONTINUOUS
 10
309.5330317025
 20
298.1919026313
 11
307.2367354062
 21
298.117831299
 12
306.9404391099
 22
298.1919026313
 13
306.9404391099
 23
298.1919026313
  0
SOLID
  5
2B7
100
AcDbEntity
  8
0
100
AcDbTrace
 62
5
  6
CONTINUOUS
 10
307.2367354062
 20
298.117831299
 11
309.5330317025
 21
298.1919026313
 12
309.1626613322
 22
298.117831299
 13
309.1626613322
 23
298.117831299
  0
SOLID
  5
2B8
100
AcDbEntity
  8
0
100
AcDbTrace
 62
5
  6
CONTINUOUS
 10
309.1626613322
 20
298.117831299
 11
307.5330317025
 21
298.0437599667
 12
307.2367354062
 22
298.117831299
 13
307.2367354062
 23
298.117831299
  0
SOLID
  5
2B9
100
AcDbEntity
  8
0
100
AcDbTrace
 62
5
  6
CONTINUOUS
 10
307.9034020729
 20
298.0437599667
 11
307.5330317025
 21
298.0437599667
 12
309.1626613322
 22
298.117831299
 13
309.1626613322
 23
298.117831299
  0
SOLID
  5
2BA
100
AcDbEntity
  8
0
100
AcDbTrace
 62
5
  6
CONTINUOUS
 10
307.9034020729
 20
298.0437599667
 11
309.1626613322
 21
298.117831299
 12
308.7182168877
 22
298.0437599667
 13
308.7182168877
 23
298.0437599667
  0
SOLID
  5
2BB
100
AcDbEntity
  8
0
100
AcDbTrace
 62
5
  6
CONTINUOUS
 10
308.7182168877
 20
298.0437599667
 11
308.2737724433
 21
297.9696831508
 12
307.9034020729
 22
298.0437599667
 13
307.9034020729
 23
298.0437599667
  0
SOLID
  5
2BC
100
AcDbEntity
  8
0
100
AcDbTrace
 62
5
  6
CONTINUOUS
 10
314.7922909618
 20
306.7104210659
 11
318.6441428137
 21
307.9696808903
 12
318.6441428137
 22
306.7104210659
 13
318.6441428137
 23
306.7104210659
  0
SOLID
  5
2BD
100
AcDbEntity
  8
0
100
AcDbTrace
 62
5
  6
CONTINUOUS
 10
315.6071057766
 20
304.7104210659
 11
316.1256242951
 21
304.7844979657
 12
316.7182168877
 22
304.7104210659
 13
316.7182168877
 23
304.7104210659
  0
SOLID
  5
2BE
100
AcDbEntity
  8
0
100
AcDbTrace
 62
5
  6
CONTINUOUS
 10
316.7182168877
 20
304.7104210659
 11
315.1626613322
 21
304.5622757434
 12
315.6071057766
 22
304.7104210659
 13
315.6071057766
 23
304.7104210659
  0
SOLID
  5
2BF
100
AcDbEntity
  8
0
100
AcDbTrace
 62
5
  6
CONTINUOUS
 10
315.1626613322
 20
304.5622757434
 11
316.7182168877
 21
304.7104210659
 12
317.3108094803
 22
304.4882016694
 13
317.3108094803
 23
304.4882016694
  0
SOLID
  5
2C0
100
AcDbEntity
  8
0
100
AcDbTrace
 62
5
  6
CONTINUOUS
 10
317.3108094803
 20
304.4882016694
 11
314.7182168877
 21
304.3400535212
 12
315.1626613322
 22
304.5622757434
 13
315.1626613322
 23
304.5622757434
  0
SOLID
  5
2C1
100
AcDbEntity
  8
0
100
AcDbTrace
 62
5
  6
CONTINUOUS
 10
314.7182168877
 20
304.3400535212
 11
317.3108094803
 21
304.4882016694
 12
317.7552539248
 22
304.2659794471
 13
317.7552539248
 23
304.2659794471
  0
SOLID
  5
2C2
100
AcDbEntity
  8
0
100
AcDbTrace
 62
5
  6
CONTINUOUS
 10
317.7552539248
 20
304.2659794471
 11
314.2737724433
 21
304.0437572249
 12
314.7182168877
 22
304.3400535212
 13
314.7182168877
 23
304.3400535212
  0
SOLID
  5
2C3
100
AcDbEntity
  8
0
100
AcDbTrace
 62
5
  6
CONTINUOUS
 10
314.2737724433
 20
304.0437572249
 11
317.7552539248
 21
304.2659794471
 12
318.2737724433
 22
303.8215350027
 13
318.2737724433
 23
303.8215350027
  0
SOLID
  5
2C4
100
AcDbEntity
  8
0
100
AcDbTrace
 62
5
  6
CONTINUOUS
 10
315.2367354062
 20
303.5252415321
 11
315.8293279988
 21
303.5993127805
 12
315.5330317025
 22
303.5252415321
 13
315.5330317025
 23
303.5252415321
  0
SOLID
  5
2C5
100
AcDbEntity
  8
0
100
AcDbTrace
 62
5
  6
CONTINUOUS
 10
316.2737724433
 20
303.5252415321
 11
315.8293279988
 21
303.5993127805
 12
318.2737724433
 22
303.8215350027
 13
318.2737724433
 23
303.8215350027
  0
SOLID
  5
2C6
100
AcDbEntity
  8
0
100
AcDbTrace
 62
5
  6
CONTINUOUS
 10
316.7182168877
 20
303.4511612415
 11
316.2737724433
 21
303.5252415321
 12
318.2737724433
 22
303.8215350027
 13
318.2737724433
 23
303.8215350027
  0
SOLID
  5
2C7
100
AcDbEntity
  8
0
100
AcDbTrace
 62
5
  6
CONTINUOUS
 10
316.7182168877
 20
303.4511612415
 11
318.2737724433
 21
303.8215350027
 12
318.6441428137
 22
303.3770905583
 13
318.6441428137
 23
303.3770905583
  0
SOLID
  5
2C8
100
AcDbEntity
  8
0
100
AcDbTrace
 62
5
  6
CONTINUOUS
 10
318.6441428137
 20
303.3770905583
 11
317.014513184
 21
303.2289424101
 12
316.7182168877
 22
303.4511612415
 13
316.7182168877
 23
303.4511612415
  0
SOLID
  5
2C9
100
AcDbEntity
  8
0
100
AcDbTrace
 62
5
  6
CONTINUOUS
 10
314.7922909618
 20
303.3030164842
 11
314.4219205914
 21
303.0067213182
 12
312.8663650359
 22
302.8585720397
 13
312.8663650359
 23
302.8585720397
  0
SOLID
  5
2CA
100
AcDbEntity
  8
0
100
AcDbTrace
 62
5
  6
CONTINUOUS
 10
315.014513184
 20
303.4511612415
 11
314.7922909618
 21
303.3030164842
 12
312.8663650359
 22
302.8585720397
 13
312.8663650359
 23
302.8585720397
  0
SOLID
  5
2CB
100
AcDbEntity
  8
0
100
AcDbTrace
 62
5
  6
CONTINUOUS
 10
315.2367354062
 20
303.5252415321
 11
315.014513184
 21
303.4511612415
 12
312.8663650359
 22
302.8585720397
 13
312.8663650359
 23
302.8585720397
  0
SOLID
  5
2CC
100
AcDbEntity
  8
0
100
AcDbTrace
 62
5
  6
CONTINUOUS
 10
314.2737724433
 20
304.0437572249
 11
318.2737724433
 21
303.8215350027
 12
315.8293279988
 22
303.5993127805
 13
315.8293279988
 23
303.5993127805
  0
SOLID
  5
2CD
100
AcDbEntity
  8
0
100
AcDbTrace
 62
5
  6
CONTINUOUS
 10
314.2737724433
 20
304.0437572249
 11
315.8293279988
 21
303.5993127805
 12
315.2367354062
 22
303.5252415321
 13
315.2367354062
 23
303.5252415321
  0
SOLID
  5
2CE
100
AcDbEntity
  8
0
100
AcDbTrace
 62
5
  6
CONTINUOUS
 10
314.2737724433
 20
304.0437572249
 11
315.2367354062
 21
303.5252415321
 12
312.8663650359
 22
302.8585720397
 13
312.8663650359
 23
302.8585720397
  0
SOLID
  5
2CF
100
AcDbEntity
  8
0
100
AcDbTrace
 62
5
  6
CONTINUOUS
 10
314.7922909618
 20
306.7104210659
 11
314.2737724433
 21
304.0437572249
 12
312.8663650359
 22
302.8585720397
 13
312.8663650359
 23
302.8585720397
  0
SOLID
  5
2D0
100
AcDbEntity
  8
0
100
AcDbTrace
 62
5
  6
CONTINUOUS
 10
313.9034020729
 20
307.9696808903
 11
318.6441428137
 21
307.9696808903
 12
314.7922909618
 22
306.7104210659
 13
314.7922909618
 23
306.7104210659
  0
SOLID
  5
2D1
100
AcDbEntity
  8
0
100
AcDbTrace
 62
5
  6
CONTINUOUS
 10
314.7922909618
 20
306.7104210659
 11
312.8663650359
 21
302.8585720397
 12
313.9034020729
 22
307.9696808903
 13
313.9034020729
 23
307.9696808903
  0
SOLID
  5
2D2
100
AcDbEntity
  8
0
100
AcDbTrace
 62
5
  6
CONTINUOUS
 10
317.3108094803
 20
303.0067213182
 11
317.014513184
 21
303.2289424101
 12
318.6441428137
 22
303.3770905583
 13
318.6441428137
 23
303.3770905583
  0
SOLID
  5
2D3
100
AcDbEntity
  8
0
100
AcDbTrace
 62
5
  6
CONTINUOUS
 10
317.3108094803
 20
303.0067213182
 11
318.6441428137
 21
303.3770905583
 12
318.9404391099
 22
302.7844979657
 13
318.9404391099
 23
302.7844979657
  0
SOLID
  5
2D4
100
AcDbEntity
  8
0
100
AcDbTrace
 62
5
  6
CONTINUOUS
 10
312.8663650359
 20
302.8585720397
 11
314.4219205914
 21
303.0067213182
 12
314.1256242951
 22
302.7104238916
 13
314.1256242951
 23
302.7104238916
  0
SOLID
  5
2D5
100
AcDbEntity
  8
0
100
AcDbTrace
 62
5
  6
CONTINUOUS
 10
318.9404391099
 20
302.7844979657
 11
317.5330317025
 21
302.6363498175
 12
317.3108094803
 22
303.0067213182
 13
317.3108094803
 23
303.0067213182
  0
SOLID
  5
2D6
100
AcDbEntity
  8
0
100
AcDbTrace
 62
5
  6
CONTINUOUS
 10
317.7552539248
 20
302.2659794471
 11
317.5330317025
 21
302.6363498175
 12
318.9404391099
 22
302.7844979657
 13
318.9404391099
 23
302.7844979657
  0
SOLID
  5
2D7
100
AcDbEntity
  8
0
100
AcDbTrace
 62
5
  6
CONTINUOUS
 10
317.7552539248
 20
302.2659794471
 11
318.9404391099
 21
302.7844979657
 12
319.0885872581
 22
302.1919053731
 13
319.0885872581
 23
302.1919053731
  0
SOLID
  5
2D8
100
AcDbEntity
  8
0
100
AcDbTrace
 62
5
  6
CONTINUOUS
 10
319.0885872581
 20
302.1919053731
 11
317.8293279988
 21
301.8215350027
 12
317.7552539248
 22
302.2659794471
 13
317.7552539248
 23
302.2659794471
  0
SOLID
  5
2D9
100
AcDbEntity
  8
0
100
AcDbTrace
 62
5
  6
CONTINUOUS
 10
317.8293279988
 20
301.8215350027
 11
319.0885872581
 21
302.1919053731
 12
319.1626613322
 22
301.5252387064
 13
319.1626613322
 23
301.5252387064
  0
SOLID
  5
2DA
100
AcDbEntity
  8
0
100
AcDbTrace
 62
5
  6
CONTINUOUS
 10
319.1626613322
 20
301.5252387064
 11
317.9034020729
 21
301.3770905583
 12
317.8293279988
 22
301.8215350027
 13
317.8293279988
 23
301.8215350027
  0
SOLID
  5
2DB
100
AcDbEntity
  8
0
100
AcDbTrace
 62
5
  6
CONTINUOUS
 10
317.8293279988
 20
300.858571192
 11
317.9034020729
 21
301.3770905583
 12
319.1626613322
 22
301.5252387064
 13
319.1626613322
 23
301.5252387064
  0
SOLID
  5
2DC
100
AcDbEntity
  8
0
100
AcDbTrace
 62
5
  6
CONTINUOUS
 10
317.8293279988
 20
300.858571192
 11
319.1626613322
 21
301.5252387064
 12
319.0885872581
 22
300.858571192
 13
319.0885872581
 23
300.858571192
  0
SOLID
  5
2DD
100
AcDbEntity
  8
0
100
AcDbTrace
 62
5
  6
CONTINUOUS
 10
312.7182168877
 20
300.7844979657
 11
313.977476147
 21
300.858571192
 12
314.0515502211
 22
300.4141312687
 13
314.0515502211
 23
300.4141312687
  0
SOLID
  5
2DE
100
AcDbEntity
  8
0
100
AcDbTrace
 62
5
  6
CONTINUOUS
 10
319.0885872581
 20
300.858571192
 11
317.7552539248
 21
300.4141312687
 12
317.8293279988
 22
300.858571192
 13
317.8293279988
 23
300.858571192
  0
SOLID
  5
2DF
100
AcDbEntity
  8
0
100
AcDbTrace
 62
5
  6
CONTINUOUS
 10
317.7552539248
 20
300.4141312687
 11
319.0885872581
 21
300.858571192
 12
318.9404391099
 22
300.2659794471
 13
318.9404391099
 23
300.2659794471
  0
SOLID
  5
2E0
100
AcDbEntity
  8
0
100
AcDbTrace
 62
5
  6
CONTINUOUS
 10
314.0515502211
 20
300.4141312687
 11
312.7922909618
 21
300.117831299
 12
312.7182168877
 22
300.7844979657
 13
312.7182168877
 23
300.7844979657
  0
SOLID
  5
2E1
100
AcDbEntity
  8
0
100
AcDbTrace
 62
5
  6
CONTINUOUS
 10
312.7922909618
 20
300.117831299
 11
314.0515502211
 21
300.4141312687
 12
314.1996983692
 22
300.0437572249
 13
314.1996983692
 23
300.0437572249
  0
SOLID
  5
2E2
100
AcDbEntity
  8
0
100
AcDbTrace
 62
5
  6
CONTINUOUS
 10
318.9404391099
 20
300.2659794471
 11
317.5330317025
 21
299.9696831508
 12
317.7552539248
 22
300.4141312687
 13
317.7552539248
 23
300.4141312687
  0
SOLID
  5
2E3
100
AcDbEntity
  8
0
100
AcDbTrace
 62
5
  6
CONTINUOUS
 10
317.5330317025
 20
299.9696831508
 11
318.9404391099
 21
300.2659794471
 12
318.7182168877
 22
299.6733912344
 13
318.7182168877
 23
299.6733912344
  0
SOLID
  5
2E4
100
AcDbEntity
  8
0
100
AcDbTrace
 62
5
  6
CONTINUOUS
 10
314.1996983692
 20
300.0437572249
 11
314.3478465174
 21
299.6733912344
 12
313.014513184
 22
299.5993113676
 13
313.014513184
 23
299.5993113676
  0
SOLID
  5
2E5
100
AcDbEntity
  8
0
100
AcDbTrace
 62
5
  6
CONTINUOUS
 10
314.1996983692
 20
300.0437572249
 11
313.014513184
 21
299.5993113676
 12
312.7922909618
 22
300.117831299
 13
312.7922909618
 23
300.117831299
  0
SOLID
  5
2E6
100
AcDbEntity
  8
0
100
AcDbTrace
 62
5
  6
CONTINUOUS
 10
318.7182168877
 20
299.6733912344
 11
317.3108094803
 21
299.5993113676
 12
317.5330317025
 22
299.9696831508
 13
317.5330317025
 23
299.9696831508
  0
SOLID
  5
2E7
100
AcDbEntity
  8
0
100
AcDbTrace
 62
5
  6
CONTINUOUS
 10
313.014513184
 20
299.5993113676
 11
314.3478465174
 21
299.6733912344
 12
314.5700687396
 22
299.4511646323
 13
314.5700687396
 23
299.4511646323
  0
SOLID
  5
2E8
100
AcDbEntity
  8
0
100
AcDbTrace
 62
5
  6
CONTINUOUS
 10
314.5700687396
 20
299.4511646323
 11
314.8663650359
 21
299.2289424101
 12
313.2367354062
 22
299.154871303
 13
313.2367354062
 23
299.154871303
  0
SOLID
  5
2E9
100
AcDbEntity
  8
0
100
AcDbTrace
 62
5
  6
CONTINUOUS
 10
314.5700687396
 20
299.4511646323
 11
313.2367354062
 21
299.154871303
 12
313.014513184
 22
299.5993113676
 13
313.014513184
 23
299.5993113676
  0
SOLID
  5
2EA
100
AcDbEntity
  8
0
100
AcDbTrace
 62
5
  6
CONTINUOUS
 10
317.014513184
 20
299.3030164842
 11
317.3108094803
 21
299.5993113676
 12
318.7182168877
 22
299.6733912344
 13
318.7182168877
 23
299.6733912344
  0
SOLID
  5
2EB
100
AcDbEntity
  8
0
100
AcDbTrace
 62
5
  6
CONTINUOUS
 10
316.6441428137
 20
299.154871303
 11
317.014513184
 21
299.3030164842
 12
318.7182168877
 22
299.6733912344
 13
318.7182168877
 23
299.6733912344
  0
SOLID
  5
2EC
100
AcDbEntity
  8
0
100
AcDbTrace
 62
5
  6
CONTINUOUS
 10
316.6441428137
 20
299.154871303
 11
318.7182168877
 21
299.6733912344
 12
318.3478465174
 22
299.154871303
 13
318.3478465174
 23
299.154871303
  0
SOLID
  5
2ED
100
AcDbEntity
  8
0
100
AcDbTrace
 62
5
  6
CONTINUOUS
 10
313.2367354062
 20
299.154871303
 11
314.8663650359
 21
299.2289424101
 12
315.0885872581
 22
299.080794262
 13
315.0885872581
 23
299.080794262
  0
SOLID
  5
2EE
100
AcDbEntity
  8
0
100
AcDbTrace
 62
5
  6
CONTINUOUS
 10
318.3478465174
 20
299.154871303
 11
316.2737724433
 21
299.0067213182
 12
316.6441428137
 22
299.154871303
 13
316.6441428137
 23
299.154871303
  0
SOLID
  5
2EF
100
AcDbEntity
  8
0
100
AcDbTrace
 62
5
  6
CONTINUOUS
 10
316.2737724433
 20
299.0067213182
 11
318.3478465174
 21
299.154871303
 12
318.1256242951
 22
298.8585720397
 13
318.1256242951
 23
298.8585720397
  0
SOLID
  5
2F0
100
AcDbEntity
  8
0
100
AcDbTrace
 62
5
  6
CONTINUOUS
 10
316.2737724433
 20
299.0067213182
 11
318.1256242951
 21
298.8585720397
 12
313.6071057766
 22
298.7104238916
 13
313.6071057766
 23
298.7104238916
  0
SOLID
  5
2F1
100
AcDbEntity
  8
0
100
AcDbTrace
 62
5
  6
CONTINUOUS
 10
315.8293279988
 20
299.0067213182
 11
316.2737724433
 21
299.0067213182
 12
313.6071057766
 22
298.7104238916
 13
313.6071057766
 23
298.7104238916
  0
SOLID
  5
2F2
100
AcDbEntity
  8
0
100
AcDbTrace
 62
5
  6
CONTINUOUS
 10
315.4589576285
 20
299.0067213182
 11
315.8293279988
 21
299.0067213182
 12
313.6071057766
 22
298.7104238916
 13
313.6071057766
 23
298.7104238916
  0
SOLID
  5
2F3
100
AcDbEntity
  8
0
100
AcDbTrace
 62
5
  6
CONTINUOUS
 10
315.0885872581
 20
299.080794262
 11
315.4589576285
 21
299.0067213182
 12
313.6071057766
 22
298.7104238916
 13
313.6071057766
 23
298.7104238916
  0
SOLID
  5
2F4
100
AcDbEntity
  8
0
100
AcDbTrace
 62
5
  6
CONTINUOUS
 10
315.0885872581
 20
299.080794262
 11
313.6071057766
 21
298.7104238916
 12
313.2367354062
 22
299.154871303
 13
313.2367354062
 23
299.154871303
  0
SOLID
  5
2F5
100
AcDbEntity
  8
0
100
AcDbTrace
 62
5
  6
CONTINUOUS
 10
313.6071057766
 20
298.7104238916
 11
318.1256242951
 21
298.8585720397
 12
317.8293279988
 22
298.6363498175
 13
317.8293279988
 23
298.6363498175
  0
SOLID
  5
2F6
100
AcDbEntity
  8
0
100
AcDbTrace
 62
5
  6
CONTINUOUS
 10
317.8293279988
 20
298.6363498175
 11
317.5330317025
 21
298.4141275953
 12
314.1256242951
 22
298.3400535212
 13
314.1256242951
 23
298.3400535212
  0
SOLID
  5
2F7
100
AcDbEntity
  8
0
100
AcDbTrace
 62
5
  6
CONTINUOUS
 10
317.8293279988
 20
298.6363498175
 11
314.1256242951
 21
298.3400535212
 12
313.6071057766
 22
298.7104238916
 13
313.6071057766
 23
298.7104238916
  0
SOLID
  5
2F8
100
AcDbEntity
  8
0
100
AcDbTrace
 62
5
  6
CONTINUOUS
 10
314.1256242951
 20
298.3400535212
 11
317.5330317025
 21
298.4141275953
 12
317.2367354062
 22
298.2659794471
 13
317.2367354062
 23
298.2659794471
  0
SOLID
  5
2F9
100
AcDbEntity
  8
0
100
AcDbTrace
 62
5
  6
CONTINUOUS
 10
317.2367354062
 20
298.2659794471
 11
314.5700687396
 21
298.117831299
 12
314.1256242951
 22
298.3400535212
 13
314.1256242951
 23
298.3400535212
  0
SOLID
  5
2FA
100
AcDbEntity
  8
0
100
AcDbTrace
 62
5
  6
CONTINUOUS
 10
316.5700687396
 20
298.117831299
 11
314.5700687396
 21
298.117831299
 12
317.2367354062
 22
298.2659794471
 13
317.2367354062
 23
298.2659794471
  0
SOLID
  5
2FB
100
AcDbEntity
  8
0
100
AcDbTrace
 62
5
  6
CONTINUOUS
 10
316.5700687396
 20
298.117831299
 11
317.2367354062
 21
298.2659794471
 12
316.9404391099
 22
298.117831299
 13
316.9404391099
 23
298.117831299
  0
SOLID
  5
2FC
100
AcDbEntity
  8
0
100
AcDbTrace
 62
5
  6
CONTINUOUS
 10
316.5700687396
 20
298.117831299
 11
315.1626613322
 21
298.0437613001
 12
314.5700687396
 22
298.117831299
 13
314.5700687396
 23
298.117831299
  0
SOLID
  5
2FD
100
AcDbEntity
  8
0
100
AcDbTrace
 62
5
  6
CONTINUOUS
 10
315.1626613322
 20
298.0437613001
 11
316.5700687396
 21
298.117831299
 12
316.1996983692
 22
298.0437613001
 13
316.1996983692
 23
298.0437613001
  0
SOLID
  5
2FE
100
AcDbEntity
  8
0
100
AcDbTrace
 62
5
  6
CONTINUOUS
 10
316.1996983692
 20
298.0437613001
 11
315.8293279988
 21
297.9696831508
 12
315.1626613322
 22
298.0437613001
 13
315.1626613322
 23
298.0437613001
  0
SOLID
  5
2FF
100
AcDbEntity
  8
0
100
AcDbTrace
 62
5
  6
CONTINUOUS
 10
324.9404391099
 20
308.117831299
 11
323.9034020729
 21
307.7474609286
 12
324.1256242951
 22
308.117831299
 13
324.1256242951
 23
308.117831299
  0
SOLID
  5
300
100
AcDbEntity
  8
0
100
AcDbTrace
 62
5
  6
CONTINUOUS
 10
323.6811798507
 20
305.8956090768
 11
321.6811798507
 21
305.8215350027
 12
322.1996983692
 22
306.117831299
 13
322.1996983692
 23
306.117831299
  0
SOLID
  5
301
100
AcDbEntity
  8
0
100
AcDbTrace
 62
5
  6
CONTINUOUS
 10
321.2367354062
 20
305.5993127805
 11
321.6811798507
 21
305.8215350027
 12
323.6811798507
 22
305.8956090768
 13
323.6811798507
 23
305.8956090768
  0
SOLID
  5
302
100
AcDbEntity
  8
0
100
AcDbTrace
 62
5
  6
CONTINUOUS
 10
321.2367354062
 20
305.5993127805
 11
323.6811798507
 21
305.8956090768
 12
323.1626613322
 22
305.4511646323
 13
323.1626613322
 23
305.4511646323
  0
SOLID
  5
303
100
AcDbEntity
  8
0
100
AcDbTrace
 62
5
  6
CONTINUOUS
 10
322.4959946655
 20
305.0067201879
 11
321.8293279988
 21
304.6363498175
 12
321.2367354062
 22
304.4141275953
 13
321.2367354062
 23
304.4141275953
  0
SOLID
  5
304
100
AcDbEntity
  8
0
100
AcDbTrace
 62
5
  6
CONTINUOUS
 10
323.1626613322
 20
305.4511646323
 11
322.4959946655
 21
305.0067201879
 12
321.2367354062
 22
304.4141275953
 13
321.2367354062
 23
304.4141275953
  0
SOLID
  5
305
100
AcDbEntity
  8
0
100
AcDbTrace
 62
5
  6
CONTINUOUS
 10
323.1626613322
 20
305.4511646323
 11
321.2367354062
 21
304.4141275953
 12
321.2367354062
 22
305.5993127805
 13
321.2367354062
 23
305.5993127805
  0
SOLID
  5
306
100
AcDbEntity
  8
0
100
AcDbTrace
 62
5
  6
CONTINUOUS
 10
323.6811798507
 20
307.4511646323
 11
323.9034020729
 21
307.7474609286
 12
324.9404391099
 22
308.117831299
 13
324.9404391099
 23
308.117831299
  0
SOLID
  5
307
100
AcDbEntity
  8
0
100
AcDbTrace
 62
5
  6
CONTINUOUS
 10
323.3848835544
 20
307.080794262
 11
323.6811798507
 21
307.4511646323
 12
324.9404391099
 22
308.117831299
 13
324.9404391099
 23
308.117831299
  0
SOLID
  5
308
100
AcDbEntity
  8
0
100
AcDbTrace
 62
5
  6
CONTINUOUS
 10
323.014513184
 20
306.7844979657
 11
323.3848835544
 21
307.080794262
 12
324.9404391099
 22
308.117831299
 13
324.9404391099
 23
308.117831299
  0
SOLID
  5
309
100
AcDbEntity
  8
0
100
AcDbTrace
 62
5
  6
CONTINUOUS
 10
322.5700687396
 20
306.4141275953
 11
323.014513184
 21
306.7844979657
 12
324.9404391099
 22
308.117831299
 13
324.9404391099
 23
308.117831299
  0
SOLID
  5
30A
100
AcDbEntity
  8
0
100
AcDbTrace
 62
5
  6
CONTINUOUS
 10
322.1996983692
 20
306.117831299
 11
322.5700687396
 21
306.4141275953
 12
324.9404391099
 22
308.117831299
 13
324.9404391099
 23
308.117831299
  0
SOLID
  5
30B
100
AcDbEntity
  8
0
100
AcDbTrace
 62
5
  6
CONTINUOUS
 10
323.6811798507
 20
305.8956090768
 11
322.1996983692
 21
306.117831299
 12
324.9404391099
 22
308.117831299
 13
324.9404391099
 23
308.117831299
  0
SOLID
  5
30C
100
AcDbEntity
  8
0
100
AcDbTrace
 62
5
  6
CONTINUOUS
 10
323.6811798507
 20
298.117831299
 11
323.6811798507
 21
305.8956090768
 12
324.9404391099
 22
308.117831299
 13
324.9404391099
 23
308.117831299
  0
SOLID
  5
30D
100
AcDbEntity
  8
0
100
AcDbTrace
 62
5
  6
CONTINUOUS
 10
323.6811798507
 20
298.117831299
 11
324.9404391099
 21
308.117831299
 12
324.9404391099
 22
298.117831299
 13
324.9404391099
 23
298.117831299
  0
SOLID
  5
30E
100
AcDbEntity
  8
0
100
AcDbTrace
 62
5
  6
CONTINUOUS
 10
331.6811798507
 20
302.2659794471
 11
327.8293279988
 21
301.080794262
 12
327.8293279988
 22
302.2659794471
 13
327.8293279988
 23
302.2659794471
  0
SOLID
  5
30F
100
AcDbEntity
  8
0
100
AcDbTrace
 62
5
  6
CONTINUOUS
 10
327.8293279988
 20
301.080794262
 11
331.6811798507
 21
302.2659794471
 12
331.6811798507
 22
301.080794262
 13
331.6811798507
 23
301.080794262
  0
SOLID
  5
310
100
AcDbEntity
  8
0
100
AcDbTrace
 62
5
  6
CONTINUOUS
 10
337.2367354062
 20
308.117831299
 11
336.1996983692
 21
307.7474609286
 12
336.4219205914
 22
308.117831299
 13
336.4219205914
 23
308.117831299
  0
SOLID
  5
311
100
AcDbEntity
  8
0
100
AcDbTrace
 62
5
  6
CONTINUOUS
 10
335.977476147
 20
305.8956090768
 11
333.977476147
 21
305.8215350027
 12
334.4959946655
 22
306.117831299
 13
334.4959946655
 23
306.117831299
  0
SOLID
  5
312
100
AcDbEntity
  8
0
100
AcDbTrace
 62
5
  6
CONTINUOUS
 10
333.5330317025
 20
305.5993127805
 11
333.977476147
 21
305.8215350027
 12
335.977476147
 22
305.8956090768
 13
335.977476147
 23
305.8956090768
  0
SOLID
  5
313
100
AcDbEntity
  8
0
100
AcDbTrace
 62
5
  6
CONTINUOUS
 10
333.5330317025
 20
305.5993127805
 11
335.977476147
 21
305.8956090768
 12
335.4589576285
 22
305.4511646323
 13
335.4589576285
 23
305.4511646323
  0
SOLID
  5
314
100
AcDbEntity
  8
0
100
AcDbTrace
 62
5
  6
CONTINUOUS
 10
334.7922909618
 20
305.0067201879
 11
334.1256242951
 21
304.6363498175
 12
333.5330317025
 22
304.4141275953
 13
333.5330317025
 23
304.4141275953
  0
SOLID
  5
315
100
AcDbEntity
  8
0
100
AcDbTrace
 62
5
  6
CONTINUOUS
 10
335.4589576285
 20
305.4511646323
 11
334.7922909618
 21
305.0067201879
 12
333.5330317025
 22
304.4141275953
 13
333.5330317025
 23
304.4141275953
  0
SOLID
  5
316
100
AcDbEntity
  8
0
100
AcDbTrace
 62
5
  6
CONTINUOUS
 10
335.4589576285
 20
305.4511646323
 11
333.5330317025
 21
304.4141275953
 12
333.5330317025
 22
305.5993127805
 13
333.5330317025
 23
305.5993127805
  0
SOLID
  5
317
100
AcDbEntity
  8
0
100
AcDbTrace
 62
5
  6
CONTINUOUS
 10
335.977476147
 20
307.4511646323
 11
336.1996983692
 21
307.7474609286
 12
337.2367354062
 22
308.117831299
 13
337.2367354062
 23
308.117831299
  0
SOLID
  5
318
100
AcDbEntity
  8
0
100
AcDbTrace
 62
5
  6
CONTINUOUS
 10
335.6811798507
 20
307.080794262
 11
335.977476147
 21
307.4511646323
 12
337.2367354062
 22
308.117831299
 13
337.2367354062
 23
308.117831299
  0
SOLID
  5
319
100
AcDbEntity
  8
0
100
AcDbTrace
 62
5
  6
CONTINUOUS
 10
335.3108094803
 20
306.7844979657
 11
335.6811798507
 21
307.080794262
 12
337.2367354062
 22
308.117831299
 13
337.2367354062
 23
308.117831299
  0
SOLID
  5
31A
100
AcDbEntity
  8
0
100
AcDbTrace
 62
5
  6
CONTINUOUS
 10
334.8663650359
 20
306.4141275953
 11
335.3108094803
 21
306.7844979657
 12
337.2367354062
 22
308.117831299
 13
337.2367354062
 23
308.117831299
  0
SOLID
  5
31B
100
AcDbEntity
  8
0
100
AcDbTrace
 62
5
  6
CONTINUOUS
 10
334.4959946655
 20
306.117831299
 11
334.8663650359
 21
306.4141275953
 12
337.2367354062
 22
308.117831299
 13
337.2367354062
 23
308.117831299
  0
SOLID
  5
31C
100
AcDbEntity
  8
0
100
AcDbTrace
 62
5
  6
CONTINUOUS
 10
335.977476147
 20
305.8956090768
 11
334.4959946655
 21
306.117831299
 12
337.2367354062
 22
308.117831299
 13
337.2367354062
 23
308.117831299
  0
SOLID
  5
31D
100
AcDbEntity
  8
0
100
AcDbTrace
 62
5
  6
CONTINUOUS
 10
335.977476147
 20
298.117831299
 11
335.977476147
 21
305.8956090768
 12
337.2367354062
 22
308.117831299
 13
337.2367354062
 23
308.117831299
  0
SOLID
  5
31E
100
AcDbEntity
  8
0
100
AcDbTrace
 62
5
  6
CONTINUOUS
 10
335.977476147
 20
298.117831299
 11
337.2367354062
 21
308.117831299
 12
337.2367354062
 22
298.117831299
 13
337.2367354062
 23
298.117831299
  0
SOLID
  5
31F
100
AcDbEntity
  8
0
100
AcDbTrace
 62
5
  6
CONTINUOUS
 10
342.8663650359
 20
308.043761746
 11
343.5330317025
 21
308.117831299
 12
344.1996983692
 22
308.043761746
 13
344.1996983692
 23
308.043761746
  0
SOLID
  5
320
100
AcDbEntity
  8
0
100
AcDbTrace
 62
5
  6
CONTINUOUS
 10
344.1996983692
 20
308.043761746
 11
342.2737724433
 21
307.8956113373
 12
342.8663650359
 22
308.043761746
 13
342.8663650359
 23
308.043761746
  0
SOLID
  5
321
100
AcDbEntity
  8
0
100
AcDbTrace
 62
5
  6
CONTINUOUS
 10
342.2737724433
 20
307.8956113373
 11
344.1996983692
 21
308.043761746
 12
344.7922909618
 22
307.8956113373
 13
344.7922909618
 23
307.8956113373
  0
SOLID
  5
322
100
AcDbEntity
  8
0
100
AcDbTrace
 62
5
  6
CONTINUOUS
 10
344.7922909618
 20
307.8956113373
 11
341.7552539248
 21
307.6733913757
 12
342.2737724433
 22
307.8956113373
 13
342.2737724433
 23
307.8956113373
  0
SOLID
  5
323
100
AcDbEntity
  8
0
100
AcDbTrace
 62
5
  6
CONTINUOUS
 10
341.7552539248
 20
307.6733913757
 11
344.7922909618
 21
307.8956113373
 12
345.3108094803
 22
307.6733913757
 13
345.3108094803
 23
307.6733913757
  0
SOLID
  5
324
100
AcDbEntity
  8
0
100
AcDbTrace
 62
5
  6
CONTINUOUS
 10
345.3108094803
 20
307.6733913757
 11
341.3108094803
 21
307.3770905583
 12
341.7552539248
 22
307.6733913757
 13
341.7552539248
 23
307.6733913757
  0
SOLID
  5
325
100
AcDbEntity
  8
0
100
AcDbTrace
 62
5
  6
CONTINUOUS
 10
341.3108094803
 20
307.3770905583
 11
345.3108094803
 21
307.6733913757
 12
345.7552539248
 22
307.3030164842
 13
345.7552539248
 23
307.3030164842
  0
SOLID
  5
326
100
AcDbEntity
  8
0
100
AcDbTrace
 62
5
  6
CONTINUOUS
 10
343.5330317025
 20
307.080794262
 11
343.0885872581
 21
307.0067213182
 12
340.9404391099
 22
306.9326410275
 13
340.9404391099
 23
306.9326410275
  0
SOLID
  5
327
100
AcDbEntity
  8
0
100
AcDbTrace
 62
5
  6
CONTINUOUS
 10
345.7552539248
 20
307.3030164842
 11
343.5330317025
 21
307.080794262
 12
340.9404391099
 22
306.9326410275
 13
340.9404391099
 23
306.9326410275
  0
SOLID
  5
328
100
AcDbEntity
  8
0
100
AcDbTrace
 62
5
  6
CONTINUOUS
 10
345.7552539248
 20
307.3030164842
 11
340.9404391099
 21
306.9326410275
 12
341.3108094803
 22
307.3770905583
 13
341.3108094803
 23
307.3770905583
  0
SOLID
  5
329
100
AcDbEntity
  8
0
100
AcDbTrace
 62
5
  6
CONTINUOUS
 10
340.9404391099
 20
306.9326410275
 11
343.0885872581
 21
307.0067213182
 12
342.7182168877
 22
306.9326410275
 13
342.7182168877
 23
306.9326410275
  0
SOLID
  5
32A
100
AcDbEntity
  8
0
100
AcDbTrace
 62
5
  6
CONTINUOUS
 10
343.9034020729
 20
307.0067213182
 11
343.5330317025
 21
307.080794262
 12
345.7552539248
 22
307.3030164842
 13
345.7552539248
 23
307.3030164842
  0
SOLID
  5
32B
100
AcDbEntity
  8
0
100
AcDbTrace
 62
5
  6
CONTINUOUS
 10
344.2737724433
 20
306.9326410275
 11
343.9034020729
 21
307.0067213182
 12
345.7552539248
 22
307.3030164842
 13
345.7552539248
 23
307.3030164842
  0
SOLID
  5
32C
100
AcDbEntity
  8
0
100
AcDbTrace
 62
5
  6
CONTINUOUS
 10
344.2737724433
 20
306.9326410275
 11
345.7552539248
 21
307.3030164842
 12
346.1256242951
 22
306.8585720397
 13
346.1256242951
 23
306.8585720397
  0
SOLID
  5
32D
100
AcDbEntity
  8
0
100
AcDbTrace
 62
5
  6
CONTINUOUS
 10
346.1256242951
 20
306.8585720397
 11
344.5700687396
 21
306.7844979657
 12
344.2737724433
 22
306.9326410275
 13
344.2737724433
 23
306.9326410275
  0
SOLID
  5
32E
100
AcDbEntity
  8
0
100
AcDbTrace
 62
5
  6
CONTINUOUS
 10
342.3478465174
 20
306.7104238916
 11
342.1256242951
 21
306.4882016694
 12
340.6441428137
 22
306.4141315513
 13
340.6441428137
 23
306.4141315513
  0
SOLID
  5
32F
100
AcDbEntity
  8
0
100
AcDbTrace
 62
5
  6
CONTINUOUS
 10
342.7182168877
 20
306.9326410275
 11
342.3478465174
 21
306.7104238916
 12
340.6441428137
 22
306.4141315513
 13
340.6441428137
 23
306.4141315513
  0
SOLID
  5
330
100
AcDbEntity
  8
0
100
AcDbTrace
 62
5
  6
CONTINUOUS
 10
342.7182168877
 20
306.9326410275
 11
340.6441428137
 21
306.4141315513
 12
340.9404391099
 22
306.9326410275
 13
340.9404391099
 23
306.9326410275
  0
SOLID
  5
331
100
AcDbEntity
  8
0
100
AcDbTrace
 62
5
  6
CONTINUOUS
 10
344.8663650359
 20
306.5622757434
 11
344.5700687396
 21
306.7844979657
 12
346.1256242951
 22
306.8585720397
 13
346.1256242951
 23
306.8585720397
  0
SOLID
  5
332
100
AcDbEntity
  8
0
100
AcDbTrace
 62
5
  6
CONTINUOUS
 10
344.8663650359
 20
306.5622757434
 11
346.1256242951
 21
306.8585720397
 12
346.4219205914
 22
306.4141315513
 13
346.4219205914
 23
306.4141315513
  0
SOLID
  5
333
100
AcDbEntity
  8
0
100
AcDbTrace
 62
5
  6
CONTINUOUS
 10
346.4219205914
 20
306.4141315513
 11
345.0885872581
 21
306.3400535212
 12
344.8663650359
 22
306.5622757434
 13
344.8663650359
 23
306.5622757434
  0
SOLID
  5
334
100
AcDbEntity
  8
0
100
AcDbTrace
 62
5
  6
CONTINUOUS
 10
340.6441428137
 20
306.4141315513
 11
342.1256242951
 21
306.4882016694
 12
341.9034020729
 22
306.1919053731
 13
341.9034020729
 23
306.1919053731
  0
SOLID
  5
335
100
AcDbEntity
  8
0
100
AcDbTrace
 62
5
  6
CONTINUOUS
 10
345.2367354062
 20
306.0437572249
 11
345.0885872581
 21
306.3400535212
 12
346.4219205914
 22
306.4141315513
 13
346.4219205914
 23
306.4141315513
  0
SOLID
  5
336
100
AcDbEntity
  8
0
100
AcDbTrace
 62
5
  6
CONTINUOUS
 10
345.2367354062
 20
306.0437572249
 11
346.4219205914
 21
306.4141315513
 12
346.5700687396
 22
305.8956113373
 13
346.5700687396
 23
305.8956113373
  0
SOLID
  5
337
100
AcDbEntity
  8
0
100
AcDbTrace
 62
5
  6
CONTINUOUS
 10
341.9034020729
 20
306.1919053731
 11
341.6811798507
 21
305.8956113373
 12
340.4219205914
 22
305.8215350027
 13
340.4219205914
 23
305.8215350027
  0
SOLID
  5
338
100
AcDbEntity
  8
0
100
AcDbTrace
 62
5
  6
CONTINUOUS
 10
341.9034020729
 20
306.1919053731
 11
340.4219205914
 21
305.8215350027
 12
340.6441428137
 22
306.4141315513
 13
340.6441428137
 23
306.4141315513
  0
SOLID
  5
339
100
AcDbEntity
  8
0
100
AcDbTrace
 62
5
  6
CONTINUOUS
 10
346.5700687396
 20
305.8956113373
 11
345.3108094803
 21
305.7474609286
 12
345.2367354062
 22
306.0437572249
 13
345.2367354062
 23
306.0437572249
  0
SOLID
  5
33A
100
AcDbEntity
  8
0
100
AcDbTrace
 62
5
  6
CONTINUOUS
 10
340.4219205914
 20
305.8215350027
 11
341.6811798507
 21
305.8956113373
 12
341.6071057766
 22
305.5252387064
 13
341.6071057766
 23
305.5252387064
  0
SOLID
  5
33B
100
AcDbEntity
  8
0
100
AcDbTrace
 62
5
  6
CONTINUOUS
 10
345.3848835544
 20
305.3770905583
 11
345.3108094803
 21
305.7474609286
 12
346.5700687396
 22
305.8956113373
 13
346.5700687396
 23
305.8956113373
  0
SOLID
  5
33C
100
AcDbEntity
  8
0
100
AcDbTrace
 62
5
  6
CONTINUOUS
 10
345.3848835544
 20
305.3770905583
 11
346.5700687396
 21
305.8956113373
 12
346.6441428137
 22
305.3030164842
 13
346.6441428137
 23
305.3030164842
  0
SOLID
  5
33D
100
AcDbEntity
  8
0
100
AcDbTrace
 62
5
  6
CONTINUOUS
 10
341.6071057766
 20
305.5252387064
 11
340.3478465174
 21
305.2289424101
 12
340.4219205914
 22
305.8215350027
 13
340.4219205914
 23
305.8215350027
  0
SOLID
  5
33E
100
AcDbEntity
  8
0
100
AcDbTrace
 62
5
  6
CONTINUOUS
 10
340.3478465174
 20
305.2289424101
 11
341.6071057766
 21
305.5252387064
 12
341.6071057766
 22
305.080794262
 13
341.6071057766
 23
305.080794262
  0
SOLID
  5
33F
100
AcDbEntity
  8
0
100
AcDbTrace
 62
5
  6
CONTINUOUS
 10
346.6441428137
 20
305.3030164842
 11
345.3108094803
 21
305.0067201879
 12
345.3848835544
 22
305.3770905583
 13
345.3848835544
 23
305.3770905583
  0
SOLID
  5
340
100
AcDbEntity
  8
0
100
AcDbTrace
 62
5
  6
CONTINUOUS
 10
345.3108094803
 20
305.0067201879
 11
346.6441428137
 21
305.3030164842
 12
346.5700687396
 22
304.7844979657
 13
346.5700687396
 23
304.7844979657
  0
SOLID
  5
341
100
AcDbEntity
  8
0
100
AcDbTrace
 62
5
  6
CONTINUOUS
 10
346.5700687396
 20
304.7844979657
 11
345.2367354062
 21
304.7104238916
 12
345.3108094803
 22
305.0067201879
 13
345.3108094803
 23
305.0067201879
  0
SOLID
  5
342
100
AcDbEntity
  8
0
100
AcDbTrace
 62
5
  6
CONTINUOUS
 10
345.014513184
 20
304.3400535212
 11
345.2367354062
 21
304.7104238916
 12
346.5700687396
 22
304.7844979657
 13
346.5700687396
 23
304.7844979657
  0
SOLID
  5
343
100
AcDbEntity
  8
0
100
AcDbTrace
 62
5
  6
CONTINUOUS
 10
345.014513184
 20
304.3400535212
 11
346.5700687396
 21
304.7844979657
 12
346.3478465174
 22
304.1919053731
 13
346.3478465174
 23
304.1919053731
  0
SOLID
  5
344
100
AcDbEntity
  8
0
100
AcDbTrace
 62
5
  6
CONTINUOUS
 10
346.3478465174
 20
304.1919053731
 11
344.7922909618
 21
303.9696831508
 12
345.014513184
 22
304.3400535212
 13
345.014513184
 23
304.3400535212
  0
SOLID
  5
345
100
AcDbEntity
  8
0
100
AcDbTrace
 62
5
  6
CONTINUOUS
 10
344.7922909618
 20
303.9696831508
 11
346.3478465174
 21
304.1919053731
 12
346.2737724433
 22
303.8956090768
 13
346.2737724433
 23
303.8956090768
  0
SOLID
  5
346
100
AcDbEntity
  8
0
100
AcDbTrace
 62
5
  6
CONTINUOUS
 10
346.2737724433
 20
303.8956090768
 11
344.6441428137
 21
303.7474609286
 12
344.7922909618
 22
303.9696831508
 13
344.7922909618
 23
303.9696831508
  0
SOLID
  5
347
100
AcDbEntity
  8
0
100
AcDbTrace
 62
5
  6
CONTINUOUS
 10
344.6441428137
 20
303.7474609286
 11
346.2737724433
 21
303.8956090768
 12
346.0515502211
 22
303.5993127805
 13
346.0515502211
 23
303.5993127805
  0
SOLID
  5
348
100
AcDbEntity
  8
0
100
AcDbTrace
 62
5
  6
CONTINUOUS
 10
346.0515502211
 20
303.5993127805
 11
344.4219205914
 21
303.5252387064
 12
344.6441428137
 22
303.7474609286
 13
344.6441428137
 23
303.7474609286
  0
SOLID
  5
349
100
AcDbEntity
  8
0
100
AcDbTrace
 62
5
  6
CONTINUOUS
 10
344.1996983692
 20
303.3030215704
 11
344.4219205914
 21
303.5252387064
 12
346.0515502211
 22
303.5993127805
 13
346.0515502211
 23
303.5993127805
  0
SOLID
  5
34A
100
AcDbEntity
  8
0
100
AcDbTrace
 62
5
  6
CONTINUOUS
 10
344.1996983692
 20
303.3030215704
 11
346.0515502211
 21
303.5993127805
 12
345.8293279988
 22
303.3030215704
 13
345.8293279988
 23
303.3030215704
  0
SOLID
  5
34B
100
AcDbEntity
  8
0
100
AcDbTrace
 62
5
  6
CONTINUOUS
 10
345.8293279988
 20
303.3030215704
 11
343.977476147
 21
303.080794262
 12
344.1996983692
 22
303.3030215704
 13
344.1996983692
 23
303.3030215704
  0
SOLID
  5
34C
100
AcDbEntity
  8
0
100
AcDbTrace
 62
5
  6
CONTINUOUS
 10
343.977476147
 20
303.080794262
 11
345.8293279988
 21
303.3030215704
 12
345.6071057766
 22
302.9326461138
 13
345.6071057766
 23
302.9326461138
  0
SOLID
  5
34D
100
AcDbEntity
  8
0
100
AcDbTrace
 62
5
  6
CONTINUOUS
 10
345.6071057766
 20
302.9326461138
 11
343.6811798507
 21
302.7844979657
 12
343.977476147
 22
303.080794262
 13
343.977476147
 23
303.080794262
  0
SOLID
  5
34E
100
AcDbEntity
  8
0
100
AcDbTrace
 62
5
  6
CONTINUOUS
 10
343.6811798507
 20
302.7844979657
 11
345.6071057766
 21
302.9326461138
 12
345.3108094803
 22
302.6363498175
 13
345.3108094803
 23
302.6363498175
  0
SOLID
  5
34F
100
AcDbEntity
  8
0
100
AcDbTrace
 62
5
  6
CONTINUOUS
 10
345.3108094803
 20
302.6363498175
 11
343.3108094803
 21
302.4882016694
 12
343.6811798507
 22
302.7844979657
 13
343.6811798507
 23
302.7844979657
  0
SOLID
  5
350
100
AcDbEntity
  8
0
100
AcDbTrace
 62
5
  6
CONTINUOUS
 10
343.014513184
 20
302.1919014171
 11
343.3108094803
 21
302.4882016694
 12
345.3108094803
 22
302.6363498175
 13
345.3108094803
 23
302.6363498175
  0
SOLID
  5
351
100
AcDbEntity
  8
0
100
AcDbTrace
 62
5
  6
CONTINUOUS
 10
343.014513184
 20
302.1919014171
 11
345.3108094803
 21
302.6363498175
 12
344.8663650359
 22
302.1919014171
 13
344.8663650359
 23
302.1919014171
  0
SOLID
  5
352
100
AcDbEntity
  8
0
100
AcDbTrace
 62
5
  6
CONTINUOUS
 10
344.8663650359
 20
302.1919014171
 11
342.5700687396
 21
301.8215350027
 12
343.014513184
 22
302.1919014171
 13
343.014513184
 23
302.1919014171
  0
SOLID
  5
353
100
AcDbEntity
  8
0
100
AcDbTrace
 62
5
  6
CONTINUOUS
 10
342.5700687396
 20
301.8215350027
 11
344.8663650359
 21
302.1919014171
 12
344.3478465174
 22
301.7474609286
 13
344.3478465174
 23
301.7474609286
  0
SOLID
  5
354
100
AcDbEntity
  8
0
100
AcDbTrace
 62
5
  6
CONTINUOUS
 10
344.3478465174
 20
301.7474609286
 11
342.1256242951
 21
301.4511646323
 12
342.5700687396
 22
301.8215350027
 13
342.5700687396
 23
301.8215350027
  0
SOLID
  5
355
100
AcDbEntity
  8
0
100
AcDbTrace
 62
5
  6
CONTINUOUS
 10
342.1256242951
 20
301.4511646323
 11
344.3478465174
 21
301.7474609286
 12
343.7552539248
 22
301.2289424101
 13
343.7552539248
 23
301.2289424101
  0
SOLID
  5
356
100
AcDbEntity
  8
0
100
AcDbTrace
 62
5
  6
CONTINUOUS
 10
343.7552539248
 20
301.2289424101
 11
341.6811798507
 21
301.0067201879
 12
342.1256242951
 22
301.4511646323
 13
342.1256242951
 23
301.4511646323
  0
SOLID
  5
357
100
AcDbEntity
  8
0
100
AcDbTrace
 62
5
  6
CONTINUOUS
 10
341.6811798507
 20
301.0067201879
 11
343.7552539248
 21
301.2289424101
 12
343.3108094803
 22
300.7844979657
 13
343.3108094803
 23
300.7844979657
  0
SOLID
  5
358
100
AcDbEntity
  8
0
100
AcDbTrace
 62
5
  6
CONTINUOUS
 10
343.3108094803
 20
300.7844979657
 11
341.3108094803
 21
300.6363498175
 12
341.6811798507
 22
301.0067201879
 13
341.6811798507
 23
301.0067201879
  0
SOLID
  5
359
100
AcDbEntity
  8
0
100
AcDbTrace
 62
5
  6
CONTINUOUS
 10
341.3108094803
 20
300.6363498175
 11
343.3108094803
 21
300.7844979657
 12
342.8663650359
 22
300.4882016694
 13
342.8663650359
 23
300.4882016694
  0
SOLID
  5
35A
100
AcDbEntity
  8
0
100
AcDbTrace
 62
5
  6
CONTINUOUS
 10
342.8663650359
 20
300.4882016694
 11
341.014513184
 21
300.3400535212
 12
341.3108094803
 22
300.6363498175
 13
341.3108094803
 23
300.6363498175
  0
SOLID
  5
35B
100
AcDbEntity
  8
0
100
AcDbTrace
 62
5
  6
CONTINUOUS
 10
341.014513184
 20
300.3400535212
 11
342.8663650359
 21
300.4882016694
 12
342.5700687396
 22
300.1919053731
 13
342.5700687396
 23
300.1919053731
  0
SOLID
  5
35C
100
AcDbEntity
  8
0
100
AcDbTrace
 62
5
  6
CONTINUOUS
 10
342.5700687396
 20
300.1919053731
 11
342.3478465174
 21
299.9696831508
 12
340.5700687396
 22
299.6733912344
 13
340.5700687396
 23
299.6733912344
  0
SOLID
  5
35D
100
AcDbEntity
  8
0
100
AcDbTrace
 62
5
  6
CONTINUOUS
 10
342.5700687396
 20
300.1919053731
 11
340.5700687396
 21
299.6733912344
 12
341.014513184
 22
300.3400535212
 13
341.014513184
 23
300.3400535212
  0
SOLID
  5
35E
100
AcDbEntity
  8
0
100
AcDbTrace
 62
5
  6
CONTINUOUS
 10
340.5700687396
 20
299.6733912344
 11
342.3478465174
 21
299.9696831508
 12
342.0515502211
 22
299.6733912344
 13
342.0515502211
 23
299.6733912344
  0
SOLID
  5
35F
100
AcDbEntity
  8
0
100
AcDbTrace
 62
5
  6
CONTINUOUS
 10
341.8293279988
 20
299.3770912647
 11
346.7182168877
 21
299.3770912647
 12
340.2737724433
 22
298.9326461138
 13
340.2737724433
 23
298.9326461138
  0
SOLID
  5
360
100
AcDbEntity
  8
0
100
AcDbTrace
 62
5
  6
CONTINUOUS
 10
342.0515502211
 20
299.6733912344
 11
341.8293279988
 21
299.3770912647
 12
340.2737724433
 22
298.9326461138
 13
340.2737724433
 23
298.9326461138
  0
SOLID
  5
361
100
AcDbEntity
  8
0
100
AcDbTrace
 62
5
  6
CONTINUOUS
 10
342.0515502211
 20
299.6733912344
 11
340.2737724433
 21
298.9326461138
 12
340.5700687396
 22
299.6733912344
 13
340.5700687396
 23
299.6733912344
  0
SOLID
  5
362
100
AcDbEntity
  8
0
100
AcDbTrace
 62
5
  6
CONTINUOUS
 10
340.1996983692
 20
298.5622757434
 11
340.2737724433
 21
298.9326461138
 12
346.7182168877
 22
299.3770912647
 13
346.7182168877
 23
299.3770912647
  0
SOLID
  5
363
100
AcDbEntity
  8
0
100
AcDbTrace
 62
5
  6
CONTINUOUS
 10
340.1996983692
 20
298.117831299
 11
340.1996983692
 21
298.5622757434
 12
346.7182168877
 22
299.3770912647
 13
346.7182168877
 23
299.3770912647
  0
SOLID
  5
364
100
AcDbEntity
  8
0
100
AcDbTrace
 62
5
  6
CONTINUOUS
 10
340.1996983692
 20
298.117831299
 11
346.7182168877
 21
299.3770912647
 12
346.7182168877
 22
298.117831299
 13
346.7182168877
 23
298.117831299
  0
SOLID
  5
365
100
AcDbEntity
  8
0
100
AcDbTrace
 62
5
  6
CONTINUOUS
 10
350.7922909618
 20
308.0437549644
 11
351.3108094803
 21
308.117831299
 12
351.6811798507
 22
308.0437549644
 13
351.6811798507
 23
308.0437549644
  0
SOLID
  5
366
100
AcDbEntity
  8
0
100
AcDbTrace
 62
5
  6
CONTINUOUS
 10
351.6811798507
 20
308.0437549644
 11
350.3478465174
 21
307.9696842811
 12
350.7922909618
 22
308.0437549644
 13
350.7922909618
 23
308.0437549644
  0
SOLID
  5
367
100
AcDbEntity
  8
0
100
AcDbTrace
 62
5
  6
CONTINUOUS
 10
350.3478465174
 20
307.9696842811
 11
351.6811798507
 21
308.0437549644
 12
352.0515502211
 22
307.9696842811
 13
352.0515502211
 23
307.9696842811
  0
SOLID
  5
368
100
AcDbEntity
  8
0
100
AcDbTrace
 62
5
  6
CONTINUOUS
 10
352.0515502211
 20
307.9696842811
 11
352.4219205914
 21
307.8956090768
 12
349.9034020729
 22
307.7474597983
 13
349.9034020729
 23
307.7474597983
  0
SOLID
  5
369
100
AcDbEntity
  8
0
100
AcDbTrace
 62
5
  6
CONTINUOUS
 10
352.0515502211
 20
307.9696842811
 11
349.9034020729
 21
307.7474597983
 12
350.3478465174
 22
307.9696842811
 13
350.3478465174
 23
307.9696842811
  0
SOLID
  5
36A
100
AcDbEntity
  8
0
100
AcDbTrace
 62
5
  6
CONTINUOUS
 10
349.9034020729
 20
307.7474597983
 11
352.4219205914
 21
307.8956090768
 12
352.7182168877
 22
307.7474597983
 13
352.7182168877
 23
307.7474597983
  0
SOLID
  5
36B
100
AcDbEntity
  8
0
100
AcDbTrace
 62
5
  6
CONTINUOUS
 10
352.7182168877
 20
307.7474597983
 11
353.014513184
 21
307.5993127805
 12
349.5330317025
 22
307.5252387064
 13
349.5330317025
 23
307.5252387064
  0
SOLID
  5
36C
100
AcDbEntity
  8
0
100
AcDbTrace
 62
5
  6
CONTINUOUS
 10
352.7182168877
 20
307.7474597983
 11
349.5330317025
 21
307.5252387064
 12
349.9034020729
 22
307.7474597983
 13
349.9034020729
 23
307.7474597983
  0
SOLID
  5
36D
100
AcDbEntity
  8
0
100
AcDbTrace
 62
5
  6
CONTINUOUS
 10
349.5330317025
 20
307.5252387064
 11
353.014513184
 21
307.5993127805
 12
353.3108094803
 22
307.3770905583
 13
353.3108094803
 23
307.3770905583
  0
SOLID
  5
36E
100
AcDbEntity
  8
0
100
AcDbTrace
 62
5
  6
CONTINUOUS
 10
353.3108094803
 20
307.3770905583
 11
349.1626613322
 21
307.2289424101
 12
349.5330317025
 22
307.5252387064
 13
349.5330317025
 23
307.5252387064
  0
SOLID
  5
36F
100
AcDbEntity
  8
0
100
AcDbTrace
 62
5
  6
CONTINUOUS
 10
351.3108094803
 20
307.0807976528
 11
349.1626613322
 21
307.2289424101
 12
353.3108094803
 22
307.3770905583
 13
353.3108094803
 23
307.3770905583
  0
SOLID
  5
370
100
AcDbEntity
  8
0
100
AcDbTrace
 62
5
  6
CONTINUOUS
 10
351.3108094803
 20
307.0807976528
 11
353.3108094803
 21
307.3770905583
 12
353.5330317025
 22
307.0807976528
 13
353.5330317025
 23
307.0807976528
  0
SOLID
  5
371
100
AcDbEntity
  8
0
100
AcDbTrace
 62
5
  6
CONTINUOUS
 10
353.5330317025
 20
307.0807976528
 11
351.6811798507
 21
307.0067162319
 12
351.3108094803
 22
307.0807976528
 13
351.3108094803
 23
307.0807976528
  0
SOLID
  5
372
100
AcDbEntity
  8
0
100
AcDbTrace
 62
5
  6
CONTINUOUS
 10
352.0515502211
 20
306.85857317
 11
351.6811798507
 21
307.0067162319
 12
353.5330317025
 22
307.0807976528
 13
353.5330317025
 23
307.0807976528
  0
SOLID
  5
373
100
AcDbEntity
  8
0
100
AcDbTrace
 62
5
  6
CONTINUOUS
 10
352.0515502211
 20
306.85857317
 11
353.5330317025
 21
307.0807976528
 12
353.6811798507
 22
306.85857317
 13
353.6811798507
 23
306.85857317
  0
SOLID
  5
374
100
AcDbEntity
  8
0
100
AcDbTrace
 62
5
  6
CONTINUOUS
 10
350.8663650359
 20
307.0067162319
 11
350.5700687396
 21
306.85857317
 12
348.8663650359
 22
306.7844979657
 13
348.8663650359
 23
306.7844979657
  0
SOLID
  5
375
100
AcDbEntity
  8
0
100
AcDbTrace
 62
5
  6
CONTINUOUS
 10
351.3108094803
 20
307.0807976528
 11
350.8663650359
 21
307.0067162319
 12
348.8663650359
 22
306.7844979657
 13
348.8663650359
 23
306.7844979657
  0
SOLID
  5
376
100
AcDbEntity
  8
0
100
AcDbTrace
 62
5
  6
CONTINUOUS
 10
351.3108094803
 20
307.0807976528
 11
348.8663650359
 21
306.7844979657
 12
349.1626613322
 22
307.2289424101
 13
349.1626613322
 23
307.2289424101
  0
SOLID
  5
377
100
AcDbEntity
  8
0
100
AcDbTrace
 62
5
  6
CONTINUOUS
 10
348.8663650359
 20
306.7844979657
 11
350.5700687396
 21
306.85857317
 12
350.1996983692
 22
306.6363498175
 13
350.1996983692
 23
306.6363498175
  0
SOLID
  5
378
100
AcDbEntity
  8
0
100
AcDbTrace
 62
5
  6
CONTINUOUS
 10
353.6811798507
 20
306.85857317
 11
352.4219205914
 21
306.5622757434
 12
352.0515502211
 22
306.85857317
 13
352.0515502211
 23
306.85857317
  0
SOLID
  5
379
100
AcDbEntity
  8
0
100
AcDbTrace
 62
5
  6
CONTINUOUS
 10
352.4219205914
 20
306.5622757434
 11
353.6811798507
 21
306.85857317
 12
353.9034020729
 22
306.4882016694
 13
353.9034020729
 23
306.4882016694
  0
SOLID
  5
37A
100
AcDbEntity
  8
0
100
AcDbTrace
 62
5
  6
CONTINUOUS
 10
350.1996983692
 20
306.6363498175
 11
348.6441428137
 21
306.3400535212
 12
348.8663650359
 22
306.7844979657
 13
348.8663650359
 23
306.7844979657
  0
SOLID
  5
37B
100
AcDbEntity
  8
0
100
AcDbTrace
 62
5
  6
CONTINUOUS
 10
348.6441428137
 20
306.3400535212
 11
350.1996983692
 21
306.6363498175
 12
349.977476147
 22
306.3400535212
 13
349.977476147
 23
306.3400535212
  0
SOLID
  5
37C
100
AcDbEntity
  8
0
100
AcDbTrace
 62
5
  6
CONTINUOUS
 10
353.9034020729
 20
306.4882016694
 11
352.7182168877
 21
306.2659794471
 12
352.4219205914
 22
306.5622757434
 13
352.4219205914
 23
306.5622757434
  0
SOLID
  5
37D
100
AcDbEntity
  8
0
100
AcDbTrace
 62
5
  6
CONTINUOUS
 10
352.7182168877
 20
306.2659794471
 11
353.9034020729
 21
306.4882016694
 12
354.0515502211
 22
306.1919053731
 13
354.0515502211
 23
306.1919053731
  0
SOLID
  5
37E
100
AcDbEntity
  8
0
100
AcDbTrace
 62
5
  6
CONTINUOUS
 10
354.0515502211
 20
306.1919053731
 11
352.8663650359
 21
306.0437572249
 12
352.7182168877
 22
306.2659794471
 13
352.7182168877
 23
306.2659794471
  0
SOLID
  5
37F
100
AcDbEntity
  8
0
100
AcDbTrace
 62
5
  6
CONTINUOUS
 10
349.977476147
 20
306.3400535212
 11
349.8293279988
 21
306.117831299
 12
348.4219205914
 22
305.8956090768
 13
348.4219205914
 23
305.8956090768
  0
SOLID
  5
380
100
AcDbEntity
  8
0
100
AcDbTrace
 62
5
  6
CONTINUOUS
 10
349.977476147
 20
306.3400535212
 11
348.4219205914
 21
305.8956090768
 12
348.6441428137
 22
306.3400535212
 13
348.6441428137
 23
306.3400535212
  0
SOLID
  5
381
100
AcDbEntity
  8
0
100
AcDbTrace
 62
5
  6
CONTINUOUS
 10
348.4219205914
 20
305.8956090768
 11
349.8293279988
 21
306.117831299
 12
349.6811798507
 22
305.8215350027
 13
349.6811798507
 23
305.8215350027
  0
SOLID
  5
382
100
AcDbEntity
  8
0
100
AcDbTrace
 62
5
  6
CONTINUOUS
 10
352.9404391099
 20
305.747462624
 11
352.8663650359
 21
306.0437572249
 12
354.0515502211
 22
306.1919053731
 13
354.0515502211
 23
306.1919053731
  0
SOLID
  5
383
100
AcDbEntity
  8
0
100
AcDbTrace
 62
5
  6
CONTINUOUS
 10
352.9404391099
 20
305.747462624
 11
354.0515502211
 21
306.1919053731
 12
354.1996983692
 22
305.747462624
 13
354.1996983692
 23
305.747462624
  0
SOLID
  5
384
100
AcDbEntity
  8
0
100
AcDbTrace
 62
5
  6
CONTINUOUS
 10
354.1996983692
 20
305.747462624
 11
353.0885872581
 21
305.3770860371
 12
352.9404391099
 22
305.747462624
 13
352.9404391099
 23
305.747462624
  0
SOLID
  5
385
100
AcDbEntity
  8
0
100
AcDbTrace
 62
5
  6
CONTINUOUS
 10
353.0885872581
 20
305.3770860371
 11
354.1996983692
 21
305.747462624
 12
354.3478465174
 22
305.3770860371
 13
354.3478465174
 23
305.3770860371
  0
SOLID
  5
386
100
AcDbEntity
  8
0
100
AcDbTrace
 62
5
  6
CONTINUOUS
 10
349.6811798507
 20
305.8215350027
 11
349.6071057766
 21
305.4511646323
 12
348.2737724433
 22
305.3030164842
 13
348.2737724433
 23
305.3030164842
  0
SOLID
  5
387
100
AcDbEntity
  8
0
100
AcDbTrace
 62
5
  6
CONTINUOUS
 10
349.6811798507
 20
305.8215350027
 11
348.2737724433
 21
305.3030164842
 12
348.4219205914
 22
305.8956090768
 13
348.4219205914
 23
305.8956090768
  0
SOLID
  5
388
100
AcDbEntity
  8
0
100
AcDbTrace
 62
5
  6
CONTINUOUS
 10
348.2737724433
 20
305.3030164842
 11
349.6071057766
 21
305.4511646323
 12
349.5330317025
 22
305.080794262
 13
349.5330317025
 23
305.080794262
  0
SOLID
  5
389
100
AcDbEntity
  8
0
100
AcDbTrace
 62
5
  6
CONTINUOUS
 10
354.3478465174
 20
305.3770860371
 11
353.1626613322
 21
305.0067201879
 12
353.0885872581
 22
305.3770860371
 13
353.0885872581
 23
305.3770860371
  0
SOLID
  5
38A
100
AcDbEntity
  8
0
100
AcDbTrace
 62
5
  6
CONTINUOUS
 10
353.1626613322
 20
305.0067201879
 11
354.3478465174
 21
305.3770860371
 12
354.4219205914
 22
304.8585720397
 13
354.4219205914
 23
304.8585720397
  0
SOLID
  5
38B
100
AcDbEntity
  8
0
100
AcDbTrace
 62
5
  6
CONTINUOUS
 10
349.5330317025
 20
305.080794262
 11
348.1996983692
 21
304.6363520781
 12
348.2737724433
 22
305.3030164842
 13
348.2737724433
 23
305.3030164842
  0
SOLID
  5
38C
100
AcDbEntity
  8
0
100
AcDbTrace
 62
5
  6
CONTINUOUS
 10
348.1996983692
 20
304.6363520781
 11
349.5330317025
 21
305.080794262
 12
349.4589576285
 22
304.6363520781
 13
349.4589576285
 23
304.6363520781
  0
SOLID
  5
38D
100
AcDbEntity
  8
0
100
AcDbTrace
 62
5
  6
CONTINUOUS
 10
354.4219205914
 20
304.8585720397
 11
353.1626613322
 21
304.6363520781
 12
353.1626613322
 22
305.0067201879
 13
353.1626613322
 23
305.0067201879
  0
SOLID
  5
38E
100
AcDbEntity
  8
0
100
AcDbTrace
 62
5
  6
CONTINUOUS
 10
353.1626613322
 20
304.6363520781
 11
354.4219205914
 21
304.8585720397
 12
354.4959946655
 22
304.3400535212
 13
354.4959946655
 23
304.3400535212
  0
SOLID
  5
38F
100
AcDbEntity
  8
0
100
AcDbTrace
 62
5
  6
CONTINUOUS
 10
354.4959946655
 20
304.3400535212
 11
353.2367354062
 21
304.1178324293
 12
353.1626613322
 22
304.6363520781
 13
353.1626613322
 23
304.6363520781
  0
SOLID
  5
390
100
AcDbEntity
  8
0
100
AcDbTrace
 62
5
  6
CONTINUOUS
 10
349.4589576285
 20
304.6363520781
 11
349.3848835544
 21
304.1178324293
 12
348.1256242951
 22
303.8215350027
 13
348.1256242951
 23
303.8215350027
  0
SOLID
  5
391
100
AcDbEntity
  8
0
100
AcDbTrace
 62
5
  6
CONTINUOUS
 10
349.4589576285
 20
304.6363520781
 11
348.1256242951
 21
303.8215350027
 12
348.1996983692
 22
304.6363520781
 13
348.1996983692
 23
304.6363520781
  0
SOLID
  5
392
100
AcDbEntity
  8
0
100
AcDbTrace
 62
5
  6
CONTINUOUS
 10
353.2367354062
 20
304.1178324293
 11
354.4959946655
 21
304.3400535212
 12
354.4959946655
 22
303.6733868545
 13
354.4959946655
 23
303.6733868545
  0
SOLID
  5
393
100
AcDbEntity
  8
0
100
AcDbTrace
 62
5
  6
CONTINUOUS
 10
348.1256242951
 20
303.8215350027
 11
349.3848835544
 21
304.1178324293
 12
349.3848835544
 22
303.5993127805
 13
349.3848835544
 23
303.5993127805
  0
SOLID
  5
394
100
AcDbEntity
  8
0
100
AcDbTrace
 62
5
  6
CONTINUOUS
 10
354.4959946655
 20
303.6733868545
 11
353.2367354062
 21
303.5993127805
 12
353.2367354062
 22
304.1178324293
 13
353.2367354062
 23
304.1178324293
  0
SOLID
  5
395
100
AcDbEntity
  8
0
100
AcDbTrace
 62
5
  6
CONTINUOUS
 10
349.3848835544
 20
303.5993127805
 11
348.1256242951
 21
303.0067218833
 12
348.1256242951
 22
303.8215350027
 13
348.1256242951
 23
303.8215350027
  0
SOLID
  5
396
100
AcDbEntity
  8
0
100
AcDbTrace
 62
5
  6
CONTINUOUS
 10
348.1256242951
 20
303.0067218833
 11
349.3848835544
 21
303.5993127805
 12
349.3848835544
 22
303.0067218833
 13
349.3848835544
 23
303.0067218833
  0
SOLID
  5
397
100
AcDbEntity
  8
0
100
AcDbTrace
 62
5
  6
CONTINUOUS
 10
353.3108094803
 20
303.0067218833
 11
353.2367354062
 21
303.5993127805
 12
354.4959946655
 22
303.6733868545
 13
354.4959946655
 23
303.6733868545
  0
SOLID
  5
398
100
AcDbEntity
  8
0
100
AcDbTrace
 62
5
  6
CONTINUOUS
 10
353.3108094803
 20
303.0067218833
 11
354.4959946655
 21
303.6733868545
 12
354.5700687396
 22
303.0067218833
 13
354.5700687396
 23
303.0067218833
  0
SOLID
  5
399
100
AcDbEntity
  8
0
100
AcDbTrace
 62
5
  6
CONTINUOUS
 10
354.5700687396
 20
303.0067218833
 11
353.2367354062
 21
302.4141309861
 12
353.3108094803
 22
303.0067218833
 13
353.3108094803
 23
303.0067218833
  0
SOLID
  5
39A
100
AcDbEntity
  8
0
100
AcDbTrace
 62
5
  6
CONTINUOUS
 10
349.3848835544
 20
303.0067218833
 11
349.3848835544
 21
302.4141309861
 12
348.1256242951
 22
302.3400535212
 13
348.1256242951
 23
302.3400535212
  0
SOLID
  5
39B
100
AcDbEntity
  8
0
100
AcDbTrace
 62
5
  6
CONTINUOUS
 10
349.3848835544
 20
303.0067218833
 11
348.1256242951
 21
302.3400535212
 12
348.1256242951
 22
303.0067218833
 13
348.1256242951
 23
303.0067218833
  0
SOLID
  5
39C
100
AcDbEntity
  8
0
100
AcDbTrace
 62
5
  6
CONTINUOUS
 10
353.2367354062
 20
302.4141309861
 11
354.5700687396
 21
303.0067218833
 12
354.4959946655
 22
302.1919053731
 13
354.4959946655
 23
302.1919053731
  0
SOLID
  5
39D
100
AcDbEntity
  8
0
100
AcDbTrace
 62
5
  6
CONTINUOUS
 10
348.1256242951
 20
302.3400535212
 11
349.3848835544
 21
302.4141309861
 12
349.3848835544
 22
301.8956113373
 13
349.3848835544
 23
301.8956113373
  0
SOLID
  5
39E
100
AcDbEntity
  8
0
100
AcDbTrace
 62
5
  6
CONTINUOUS
 10
354.4959946655
 20
302.1919053731
 11
353.2367354062
 21
301.8956113373
 12
353.2367354062
 22
302.4141309861
 13
353.2367354062
 23
302.4141309861
  0
SOLID
  5
39F
100
AcDbEntity
  8
0
100
AcDbTrace
 62
5
  6
CONTINUOUS
 10
349.3848835544
 20
301.8956113373
 11
348.1256242951
 21
301.6733868545
 12
348.1256242951
 22
302.3400535212
 13
348.1256242951
 23
302.3400535212
  0
SOLID
  5
3A0
100
AcDbEntity
  8
0
100
AcDbTrace
 62
5
  6
CONTINUOUS
 10
353.2367354062
 20
301.8956113373
 11
354.4959946655
 21
302.1919053731
 12
354.4219205914
 22
301.4511646323
 13
354.4219205914
 23
301.4511646323
  0
SOLID
  5
3A1
100
AcDbEntity
  8
0
100
AcDbTrace
 62
5
  6
CONTINUOUS
 10
348.1256242951
 20
301.6733868545
 11
349.3848835544
 21
301.8956113373
 12
349.4589576285
 22
301.3770916885
 13
349.4589576285
 23
301.3770916885
  0
SOLID
  5
3A2
100
AcDbEntity
  8
0
100
AcDbTrace
 62
5
  6
CONTINUOUS
 10
354.4219205914
 20
301.4511646323
 11
353.1626613322
 21
301.3770916885
 12
353.2367354062
 22
301.8956113373
 13
353.2367354062
 23
301.8956113373
  0
SOLID
  5
3A3
100
AcDbEntity
  8
0
100
AcDbTrace
 62
5
  6
CONTINUOUS
 10
349.4589576285
 20
301.3770916885
 11
348.1996983692
 21
301.154868336
 12
348.1256242951
 22
301.6733868545
 13
348.1256242951
 23
301.6733868545
  0
SOLID
  5
3A4
100
AcDbEntity
  8
0
100
AcDbTrace
 62
5
  6
CONTINUOUS
 10
348.1996983692
 20
301.154868336
 11
349.4589576285
 21
301.3770916885
 12
349.4589576285
 22
300.9326435707
 13
349.4589576285
 23
300.9326435707
  0
SOLID
  5
3A5
100
AcDbEntity
  8
0
100
AcDbTrace
 62
5
  6
CONTINUOUS
 10
353.1626613322
 20
300.9326435707
 11
353.1626613322
 21
301.3770916885
 12
354.4219205914
 22
301.4511646323
 13
354.4219205914
 23
301.4511646323
  0
SOLID
  5
3A6
100
AcDbEntity
  8
0
100
AcDbTrace
 62
5
  6
CONTINUOUS
 10
353.1626613322
 20
300.9326435707
 11
354.4219205914
 21
301.4511646323
 12
354.3478465174
 22
300.7844979657
 13
354.3478465174
 23
300.7844979657
  0
SOLID
  5
3A7
100
AcDbEntity
  8
0
100
AcDbTrace
 62
5
  6
CONTINUOUS
 10
349.4589576285
 20
300.9326435707
 11
348.3478465174
 21
300.5622765911
 12
348.1996983692
 22
301.154868336
 13
348.1996983692
 23
301.154868336
  0
SOLID
  5
3A8
100
AcDbEntity
  8
0
100
AcDbTrace
 62
5
  6
CONTINUOUS
 10
348.3478465174
 20
300.5622765911
 11
349.4589576285
 21
300.9326435707
 12
349.6071057766
 22
300.5622765911
 13
349.6071057766
 23
300.5622765911
  0
SOLID
  5
3A9
100
AcDbEntity
  8
0
100
AcDbTrace
 62
5
  6
CONTINUOUS
 10
354.3478465174
 20
300.7844979657
 11
353.0885872581
 21
300.5622765911
 12
353.1626613322
 22
300.9326435707
 13
353.1626613322
 23
300.9326435707
  0
SOLID
  5
3AA
100
AcDbEntity
  8
0
100
AcDbTrace
 62
5
  6
CONTINUOUS
 10
352.9404391099
 20
300.2659811426
 11
353.0885872581
 21
300.5622765911
 12
354.3478465174
 22
300.7844979657
 13
354.3478465174
 23
300.7844979657
  0
SOLID
  5
3AB
100
AcDbEntity
  8
0
100
AcDbTrace
 62
5
  6
CONTINUOUS
 10
352.9404391099
 20
300.2659811426
 11
354.3478465174
 21
300.7844979657
 12
354.1996983692
 22
300.1919053731
 13
354.1996983692
 23
300.1919053731
  0
SOLID
  5
3AC
100
AcDbEntity
  8
0
100
AcDbTrace
 62
5
  6
CONTINUOUS
 10
349.6071057766
 20
300.5622765911
 11
349.6811798507
 21
300.2659811426
 12
348.4959946655
 22
300.117831299
 13
348.4959946655
 23
300.117831299
  0
SOLID
  5
3AD
100
AcDbEntity
  8
0
100
AcDbTrace
 62
5
  6
CONTINUOUS
 10
349.6071057766
 20
300.5622765911
 11
348.4959946655
 21
300.117831299
 12
348.3478465174
 22
300.5622765911
 13
348.3478465174
 23
300.5622765911
  0
SOLID
  5
3AE
100
AcDbEntity
  8
0
100
AcDbTrace
 62
5
  6
CONTINUOUS
 10
348.4959946655
 20
300.117831299
 11
349.6811798507
 21
300.2659811426
 12
349.7552539248
 22
299.969685694
 13
349.7552539248
 23
299.969685694
  0
SOLID
  5
3AF
100
AcDbEntity
  8
0
100
AcDbTrace
 62
5
  6
CONTINUOUS
 10
354.1996983692
 20
300.1919053731
 11
352.8663650359
 21
299.969685694
 12
352.9404391099
 22
300.2659811426
 13
352.9404391099
 23
300.2659811426
  0
SOLID
  5
3B0
100
AcDbEntity
  8
0
100
AcDbTrace
 62
5
  6
CONTINUOUS
 10
349.7552539248
 20
299.969685694
 11
349.9034020729
 21
299.7474614938
 12
348.6441428137
 22
299.6733902454
 13
348.6441428137
 23
299.6733902454
  0
SOLID
  5
3B1
100
AcDbEntity
  8
0
100
AcDbTrace
 62
5
  6
CONTINUOUS
 10
349.7552539248
 20
299.969685694
 11
348.6441428137
 21
299.6733902454
 12
348.4959946655
 22
300.117831299
 13
348.4959946655
 23
300.117831299
  0
SOLID
  5
3B2
100
AcDbEntity
  8
0
100
AcDbTrace
 62
5
  6
CONTINUOUS
 10
352.7182168877
 20
299.7474614938
 11
352.8663650359
 21
299.969685694
 12
354.1996983692
 22
300.1919053731
 13
354.1996983692
 23
300.1919053731
  0
SOLID
  5
3B3
100
AcDbEntity
  8
0
100
AcDbTrace
 62
5
  6
CONTINUOUS
 10
352.7182168877
 20
299.7474614938
 11
354.1996983692
 21
300.1919053731
 12
353.977476147
 22
299.6733902454
 13
353.977476147
 23
299.6733902454
  0
SOLID
  5
3B4
100
AcDbEntity
  8
0
100
AcDbTrace
 62
5
  6
CONTINUOUS
 10
353.977476147
 20
299.6733902454
 11
352.4219205914
 21
299.4511646323
 12
352.7182168877
 22
299.7474614938
 13
352.7182168877
 23
299.7474614938
  0
SOLID
  5
3B5
100
AcDbEntity
  8
0
100
AcDbTrace
 62
5
  6
CONTINUOUS
 10
348.6441428137
 20
299.6733902454
 11
349.9034020729
 21
299.7474614938
 12
350.1996983692
 22
299.3770905583
 13
350.1996983692
 23
299.3770905583
  0
SOLID
  5
3B6
100
AcDbEntity
  8
0
100
AcDbTrace
 62
5
  6
CONTINUOUS
 10
350.1996983692
 20
299.3770905583
 11
348.8663650359
 21
299.3030164842
 12
348.6441428137
 22
299.6733902454
 13
348.6441428137
 23
299.6733902454
  0
SOLID
  5
3B7
100
AcDbEntity
  8
0
100
AcDbTrace
 62
5
  6
CONTINUOUS
 10
352.4219205914
 20
299.4511646323
 11
353.977476147
 21
299.6733902454
 12
353.7552539248
 22
299.2289424101
 13
353.7552539248
 23
299.2289424101
  0
SOLID
  5
3B8
100
AcDbEntity
  8
0
100
AcDbTrace
 62
5
  6
CONTINUOUS
 10
348.8663650359
 20
299.3030164842
 11
350.1996983692
 21
299.3770905583
 12
350.5700687396
 22
299.1548705259
 13
350.5700687396
 23
299.1548705259
  0
SOLID
  5
3B9
100
AcDbEntity
  8
0
100
AcDbTrace
 62
5
  6
CONTINUOUS
 10
353.7552539248
 20
299.2289424101
 11
352.0515502211
 21
299.1548705259
 12
352.4219205914
 22
299.4511646323
 13
352.4219205914
 23
299.4511646323
  0
SOLID
  5
3BA
100
AcDbEntity
  8
0
100
AcDbTrace
 62
5
  6
CONTINUOUS
 10
351.3108094803
 20
299.0067177154
 11
351.6811798507
 21
299.0067177154
 12
349.0885872581
 22
298.9326461138
 13
349.0885872581
 23
298.9326461138
  0
SOLID
  5
3BB
100
AcDbEntity
  8
0
100
AcDbTrace
 62
5
  6
CONTINUOUS
 10
350.9404391099
 20
299.0067177154
 11
351.3108094803
 21
299.0067177154
 12
349.0885872581
 22
298.9326461138
 13
349.0885872581
 23
298.9326461138
  0
SOLID
  5
3BC
100
AcDbEntity
  8
0
100
AcDbTrace
 62
5
  6
CONTINUOUS
 10
350.5700687396
 20
299.1548705259
 11
350.9404391099
 21
299.0067177154
 12
349.0885872581
 22
298.9326461138
 13
349.0885872581
 23
298.9326461138
  0
SOLID
  5
3BD
100
AcDbEntity
  8
0
100
AcDbTrace
 62
5
  6
CONTINUOUS
 10
350.5700687396
 20
299.1548705259
 11
349.0885872581
 21
298.9326461138
 12
348.8663650359
 22
299.3030164842
 13
348.8663650359
 23
299.3030164842
  0
SOLID
  5
3BE
100
AcDbEntity
  8
0
100
AcDbTrace
 62
5
  6
CONTINUOUS
 10
351.6811798507
 20
299.0067177154
 11
352.0515502211
 21
299.1548705259
 12
353.7552539248
 22
299.2289424101
 13
353.7552539248
 23
299.2289424101
  0
SOLID
  5
3BF
100
AcDbEntity
  8
0
100
AcDbTrace
 62
5
  6
CONTINUOUS
 10
353.4589576285
 20
298.7844979657
 11
349.0885872581
 21
298.9326461138
 12
351.6811798507
 22
299.0067177154
 13
351.6811798507
 23
299.0067177154
  0
SOLID
  5
3C0
100
AcDbEntity
  8
0
100
AcDbTrace
 62
5
  6
CONTINUOUS
 10
351.6811798507
 20
299.0067177154
 11
353.7552539248
 21
299.2289424101
 12
353.4589576285
 22
298.7844979657
 13
353.4589576285
 23
298.7844979657
  0
SOLID
  5
3C1
100
AcDbEntity
  8
0
100
AcDbTrace
 62
5
  6
CONTINUOUS
 10
353.4589576285
 20
298.7844979657
 11
349.3108094803
 21
298.7104238916
 12
349.0885872581
 22
298.9326461138
 13
349.0885872581
 23
298.9326461138
  0
SOLID
  5
3C2
100
AcDbEntity
  8
0
100
AcDbTrace
 62
5
  6
CONTINUOUS
 10
349.5330317025
 20
298.4881981019
 11
349.3108094803
 21
298.7104238916
 12
353.4589576285
 22
298.7844979657
 13
353.4589576285
 23
298.7844979657
  0
SOLID
  5
3C3
100
AcDbEntity
  8
0
100
AcDbTrace
 62
5
  6
CONTINUOUS
 10
349.5330317025
 20
298.4881981019
 11
353.4589576285
 21
298.7844979657
 12
353.0885872581
 22
298.4881981019
 13
353.0885872581
 23
298.4881981019
  0
SOLID
  5
3C4
100
AcDbEntity
  8
0
100
AcDbTrace
 62
5
  6
CONTINUOUS
 10
353.0885872581
 20
298.4881981019
 11
349.7552539248
 21
298.3400535212
 12
349.5330317025
 22
298.4881981019
 13
349.5330317025
 23
298.4881981019
  0
SOLID
  5
3C5
100
AcDbEntity
  8
0
100
AcDbTrace
 62
5
  6
CONTINUOUS
 10
349.7552539248
 20
298.3400535212
 11
353.0885872581
 21
298.4881981019
 12
352.7182168877
 22
298.2659794471
 13
352.7182168877
 23
298.2659794471
  0
SOLID
  5
3C6
100
AcDbEntity
  8
0
100
AcDbTrace
 62
5
  6
CONTINUOUS
 10
352.7182168877
 20
298.2659794471
 11
350.0515502211
 21
298.1919053731
 12
349.7552539248
 22
298.3400535212
 13
349.7552539248
 23
298.3400535212
  0
SOLID
  5
3C7
100
AcDbEntity
  8
0
100
AcDbTrace
 62
5
  6
CONTINUOUS
 10
350.3478465174
 20
298.117831299
 11
350.0515502211
 21
298.1919053731
 12
352.7182168877
 22
298.2659794471
 13
352.7182168877
 23
298.2659794471
  0
SOLID
  5
3C8
100
AcDbEntity
  8
0
100
AcDbTrace
 62
5
  6
CONTINUOUS
 10
350.3478465174
 20
298.117831299
 11
352.7182168877
 21
298.2659794471
 12
352.2737724433
 22
298.117831299
 13
352.2737724433
 23
298.117831299
  0
SOLID
  5
3C9
100
AcDbEntity
  8
0
100
AcDbTrace
 62
5
  6
CONTINUOUS
 10
352.2737724433
 20
298.117831299
 11
350.6441428137
 21
298.0437599667
 12
350.3478465174
 22
298.117831299
 13
350.3478465174
 23
298.117831299
  0
SOLID
  5
3CA
100
AcDbEntity
  8
0
100
AcDbTrace
 62
5
  6
CONTINUOUS
 10
350.9404391099
 20
298.0437599667
 11
350.6441428137
 21
298.0437599667
 12
352.2737724433
 22
298.117831299
 13
352.2737724433
 23
298.117831299
  0
SOLID
  5
3CB
100
AcDbEntity
  8
0
100
AcDbTrace
 62
5
  6
CONTINUOUS
 10
350.9404391099
 20
298.0437599667
 11
352.2737724433
 21
298.117831299
 12
351.8293279988
 22
298.0437599667
 13
351.8293279988
 23
298.0437599667
  0
SOLID
  5
3CC
100
AcDbEntity
  8
0
100
AcDbTrace
 62
5
  6
CONTINUOUS
 10
351.8293279988
 20
298.0437599667
 11
351.3108094803
 21
297.9696831508
 12
350.9404391099
 22
298.0437599667
 13
350.9404391099
 23
298.0437599667
  0
SOLID
  5
3CD
100
AcDbEntity
  8
0
100
AcDbTrace
 62
5
  6
CONTINUOUS
 10
358.4959946655
 20
308.0437549644
 11
359.014513184
 21
308.117831299
 12
359.3848835544
 22
308.0437549644
 13
359.3848835544
 23
308.0437549644
  0
SOLID
  5
3CE
100
AcDbEntity
  8
0
100
AcDbTrace
 62
5
  6
CONTINUOUS
 10
359.3848835544
 20
308.0437549644
 11
358.0515502211
 21
307.9696842811
 12
358.4959946655
 22
308.0437549644
 13
358.4959946655
 23
308.0437549644
  0
SOLID
  5
3CF
100
AcDbEntity
  8
0
100
AcDbTrace
 62
5
  6
CONTINUOUS
 10
358.0515502211
 20
307.9696842811
 11
359.3848835544
 21
308.0437549644
 12
359.7552539248
 22
307.9696842811
 13
359.7552539248
 23
307.9696842811
  0
SOLID
  5
3D0
100
AcDbEntity
  8
0
100
AcDbTrace
 62
5
  6
CONTINUOUS
 10
359.7552539248
 20
307.9696842811
 11
360.1256242951
 21
307.8956090768
 12
357.6071057766
 22
307.7474597983
 13
357.6071057766
 23
307.7474597983
  0
SOLID
  5
3D1
100
AcDbEntity
  8
0
100
AcDbTrace
 62
5
  6
CONTINUOUS
 10
359.7552539248
 20
307.9696842811
 11
357.6071057766
 21
307.7474597983
 12
358.0515502211
 22
307.9696842811
 13
358.0515502211
 23
307.9696842811
  0
SOLID
  5
3D2
100
AcDbEntity
  8
0
100
AcDbTrace
 62
5
  6
CONTINUOUS
 10
357.6071057766
 20
307.7474597983
 11
360.1256242951
 21
307.8956090768
 12
360.4219205914
 22
307.7474597983
 13
360.4219205914
 23
307.7474597983
  0
SOLID
  5
3D3
100
AcDbEntity
  8
0
100
AcDbTrace
 62
5
  6
CONTINUOUS
 10
360.4219205914
 20
307.7474597983
 11
360.7182168877
 21
307.5993127805
 12
357.2367354062
 22
307.5252387064
 13
357.2367354062
 23
307.5252387064
  0
SOLID
  5
3D4
100
AcDbEntity
  8
0
100
AcDbTrace
 62
5
  6
CONTINUOUS
 10
360.4219205914
 20
307.7474597983
 11
357.2367354062
 21
307.5252387064
 12
357.6071057766
 22
307.7474597983
 13
357.6071057766
 23
307.7474597983
  0
SOLID
  5
3D5
100
AcDbEntity
  8
0
100
AcDbTrace
 62
5
  6
CONTINUOUS
 10
357.2367354062
 20
307.5252387064
 11
360.7182168877
 21
307.5993127805
 12
361.014513184
 22
307.3770905583
 13
361.014513184
 23
307.3770905583
  0
SOLID
  5
3D6
100
AcDbEntity
  8
0
100
AcDbTrace
 62
5
  6
CONTINUOUS
 10
361.014513184
 20
307.3770905583
 11
356.8663650359
 21
307.2289424101
 12
357.2367354062
 22
307.5252387064
 13
357.2367354062
 23
307.5252387064
  0
SOLID
  5
3D7
100
AcDbEntity
  8
0
100
AcDbTrace
 62
5
  6
CONTINUOUS
 10
359.014513184
 20
307.0807976528
 11
356.8663650359
 21
307.2289424101
 12
361.014513184
 22
307.3770905583
 13
361.014513184
 23
307.3770905583
  0
SOLID
  5
3D8
100
AcDbEntity
  8
0
100
AcDbTrace
 62
5
  6
CONTINUOUS
 10
359.014513184
 20
307.0807976528
 11
361.014513184
 21
307.3770905583
 12
361.2367354062
 22
307.0807976528
 13
361.2367354062
 23
307.0807976528
  0
SOLID
  5
3D9
100
AcDbEntity
  8
0
100
AcDbTrace
 62
5
  6
CONTINUOUS
 10
361.2367354062
 20
307.0807976528
 11
359.3848835544
 21
307.0067162319
 12
359.014513184
 22
307.0807976528
 13
359.014513184
 23
307.0807976528
  0
SOLID
  5
3DA
100
AcDbEntity
  8
0
100
AcDbTrace
 62
5
  6
CONTINUOUS
 10
359.7552539248
 20
306.85857317
 11
359.3848835544
 21
307.0067162319
 12
361.2367354062
 22
307.0807976528
 13
361.2367354062
 23
307.0807976528
  0
SOLID
  5
3DB
100
AcDbEntity
  8
0
100
AcDbTrace
 62
5
  6
CONTINUOUS
 10
359.7552539248
 20
306.85857317
 11
361.2367354062
 21
307.0807976528
 12
361.3848835544
 22
306.85857317
 13
361.3848835544
 23
306.85857317
  0
SOLID
  5
3DC
100
AcDbEntity
  8
0
100
AcDbTrace
 62
5
  6
CONTINUOUS
 10
358.5700687396
 20
307.0067162319
 11
358.2737724433
 21
306.85857317
 12
356.5700687396
 22
306.7844979657
 13
356.5700687396
 23
306.7844979657
  0
SOLID
  5
3DD
100
AcDbEntity
  8
0
100
AcDbTrace
 62
5
  6
CONTINUOUS
 10
359.014513184
 20
307.0807976528
 11
358.5700687396
 21
307.0067162319
 12
356.5700687396
 22
306.7844979657
 13
356.5700687396
 23
306.7844979657
  0
SOLID
  5
3DE
100
AcDbEntity
  8
0
100
AcDbTrace
 62
5
  6
CONTINUOUS
 10
359.014513184
 20
307.0807976528
 11
356.5700687396
 21
306.7844979657
 12
356.8663650359
 22
307.2289424101
 13
356.8663650359
 23
307.2289424101
  0
SOLID
  5
3DF
100
AcDbEntity
  8
0
100
AcDbTrace
 62
5
  6
CONTINUOUS
 10
356.5700687396
 20
306.7844979657
 11
358.2737724433
 21
306.85857317
 12
357.9034020729
 22
306.6363498175
 13
357.9034020729
 23
306.6363498175
  0
SOLID
  5
3E0
100
AcDbEntity
  8
0
100
AcDbTrace
 62
5
  6
CONTINUOUS
 10
361.3848835544
 20
306.85857317
 11
360.1256242951
 21
306.5622757434
 12
359.7552539248
 22
306.85857317
 13
359.7552539248
 23
306.85857317
  0
SOLID
  5
3E1
100
AcDbEntity
  8
0
100
AcDbTrace
 62
5
  6
CONTINUOUS
 10
360.1256242951
 20
306.5622757434
 11
361.3848835544
 21
306.85857317
 12
361.6071057766
 22
306.4882016694
 13
361.6071057766
 23
306.4882016694
  0
SOLID
  5
3E2
100
AcDbEntity
  8
0
100
AcDbTrace
 62
5
  6
CONTINUOUS
 10
357.9034020729
 20
306.6363498175
 11
356.3478465174
 21
306.3400535212
 12
356.5700687396
 22
306.7844979657
 13
356.5700687396
 23
306.7844979657
  0
SOLID
  5
3E3
100
AcDbEntity
  8
0
100
AcDbTrace
 62
5
  6
CONTINUOUS
 10
356.3478465174
 20
306.3400535212
 11
357.9034020729
 21
306.6363498175
 12
357.6811798507
 22
306.3400535212
 13
357.6811798507
 23
306.3400535212
  0
SOLID
  5
3E4
100
AcDbEntity
  8
0
100
AcDbTrace
 62
5
  6
CONTINUOUS
 10
361.6071057766
 20
306.4882016694
 11
360.4219205914
 21
306.2659794471
 12
360.1256242951
 22
306.5622757434
 13
360.1256242951
 23
306.5622757434
  0
SOLID
  5
3E5
100
AcDbEntity
  8
0
100
AcDbTrace
 62
5
  6
CONTINUOUS
 10
360.4219205914
 20
306.2659794471
 11
361.6071057766
 21
306.4882016694
 12
361.7552539248
 22
306.1919053731
 13
361.7552539248
 23
306.1919053731
  0
SOLID
  5
3E6
100
AcDbEntity
  8
0
100
AcDbTrace
 62
5
  6
CONTINUOUS
 10
361.7552539248
 20
306.1919053731
 11
360.5700687396
 21
306.0437572249
 12
360.4219205914
 22
306.2659794471
 13
360.4219205914
 23
306.2659794471
  0
SOLID
  5
3E7
100
AcDbEntity
  8
0
100
AcDbTrace
 62
5
  6
CONTINUOUS
 10
357.6811798507
 20
306.3400535212
 11
357.5330317025
 21
306.117831299
 12
356.1256242951
 22
305.8956090768
 13
356.1256242951
 23
305.8956090768
  0
SOLID
  5
3E8
100
AcDbEntity
  8
0
100
AcDbTrace
 62
5
  6
CONTINUOUS
 10
357.6811798507
 20
306.3400535212
 11
356.1256242951
 21
305.8956090768
 12
356.3478465174
 22
306.3400535212
 13
356.3478465174
 23
306.3400535212
  0
SOLID
  5
3E9
100
AcDbEntity
  8
0
100
AcDbTrace
 62
5
  6
CONTINUOUS
 10
356.1256242951
 20
305.8956090768
 11
357.5330317025
 21
306.117831299
 12
357.3848835544
 22
305.8215350027
 13
357.3848835544
 23
305.8215350027
  0
SOLID
  5
3EA
100
AcDbEntity
  8
0
100
AcDbTrace
 62
5
  6
CONTINUOUS
 10
360.6441428137
 20
305.747462624
 11
360.5700687396
 21
306.0437572249
 12
361.7552539248
 22
306.1919053731
 13
361.7552539248
 23
306.1919053731
  0
SOLID
  5
3EB
100
AcDbEntity
  8
0
100
AcDbTrace
 62
5
  6
CONTINUOUS
 10
360.6441428137
 20
305.747462624
 11
361.7552539248
 21
306.1919053731
 12
361.9034020729
 22
305.747462624
 13
361.9034020729
 23
305.747462624
  0
SOLID
  5
3EC
100
AcDbEntity
  8
0
100
AcDbTrace
 62
5
  6
CONTINUOUS
 10
361.9034020729
 20
305.747462624
 11
360.7922909618
 21
305.3770860371
 12
360.6441428137
 22
305.747462624
 13
360.6441428137
 23
305.747462624
  0
SOLID
  5
3ED
100
AcDbEntity
  8
0
100
AcDbTrace
 62
5
  6
CONTINUOUS
 10
360.7922909618
 20
305.3770860371
 11
361.9034020729
 21
305.747462624
 12
362.0515502211
 22
305.3770860371
 13
362.0515502211
 23
305.3770860371
  0
SOLID
  5
3EE
100
AcDbEntity
  8
0
100
AcDbTrace
 62
5
  6
CONTINUOUS
 10
357.3848835544
 20
305.8215350027
 11
357.3108094803
 21
305.4511646323
 12
355.977476147
 22
305.3030164842
 13
355.977476147
 23
305.3030164842
  0
SOLID
  5
3EF
100
AcDbEntity
  8
0
100
AcDbTrace
 62
5
  6
CONTINUOUS
 10
357.3848835544
 20
305.8215350027
 11
355.977476147
 21
305.3030164842
 12
356.1256242951
 22
305.8956090768
 13
356.1256242951
 23
305.8956090768
  0
SOLID
  5
3F0
100
AcDbEntity
  8
0
100
AcDbTrace
 62
5
  6
CONTINUOUS
 10
355.977476147
 20
305.3030164842
 11
357.3108094803
 21
305.4511646323
 12
357.2367354062
 22
305.080794262
 13
357.2367354062
 23
305.080794262
  0
SOLID
  5
3F1
100
AcDbEntity
  8
0
100
AcDbTrace
 62
5
  6
CONTINUOUS
 10
362.0515502211
 20
305.3770860371
 11
360.8663650359
 21
305.0067201879
 12
360.7922909618
 22
305.3770860371
 13
360.7922909618
 23
305.3770860371
  0
SOLID
  5
3F2
100
AcDbEntity
  8
0
100
AcDbTrace
 62
5
  6
CONTINUOUS
 10
360.8663650359
 20
305.0067201879
 11
362.0515502211
 21
305.3770860371
 12
362.1256242951
 22
304.8585720397
 13
362.1256242951
 23
304.8585720397
  0
SOLID
  5
3F3
100
AcDbEntity
  8
0
100
AcDbTrace
 62
5
  6
CONTINUOUS
 10
357.2367354062
 20
305.080794262
 11
355.9034020729
 21
304.6363520781
 12
355.977476147
 22
305.3030164842
 13
355.977476147
 23
305.3030164842
  0
SOLID
  5
3F4
100
AcDbEntity
  8
0
100
AcDbTrace
 62
5
  6
CONTINUOUS
 10
355.9034020729
 20
304.6363520781
 11
357.2367354062
 21
305.080794262
 12
357.1626613322
 22
304.6363520781
 13
357.1626613322
 23
304.6363520781
  0
SOLID
  5
3F5
100
AcDbEntity
  8
0
100
AcDbTrace
 62
5
  6
CONTINUOUS
 10
362.1256242951
 20
304.8585720397
 11
360.8663650359
 21
304.6363520781
 12
360.8663650359
 22
305.0067201879
 13
360.8663650359
 23
305.0067201879
  0
SOLID
  5
3F6
100
AcDbEntity
  8
0
100
AcDbTrace
 62
5
  6
CONTINUOUS
 10
360.8663650359
 20
304.6363520781
 11
362.1256242951
 21
304.8585720397
 12
362.1996983692
 22
304.3400535212
 13
362.1996983692
 23
304.3400535212
  0
SOLID
  5
3F7
100
AcDbEntity
  8
0
100
AcDbTrace
 62
5
  6
CONTINUOUS
 10
362.1996983692
 20
304.3400535212
 11
360.9404391099
 21
304.1178324293
 12
360.8663650359
 22
304.6363520781
 13
360.8663650359
 23
304.6363520781
  0
SOLID
  5
3F8
100
AcDbEntity
  8
0
100
AcDbTrace
 62
5
  6
CONTINUOUS
 10
357.1626613322
 20
304.6363520781
 11
357.0885872581
 21
304.1178324293
 12
355.8293279988
 22
303.8215350027
 13
355.8293279988
 23
303.8215350027
  0
SOLID
  5
3F9
100
AcDbEntity
  8
0
100
AcDbTrace
 62
5
  6
CONTINUOUS
 10
357.1626613322
 20
304.6363520781
 11
355.8293279988
 21
303.8215350027
 12
355.9034020729
 22
304.6363520781
 13
355.9034020729
 23
304.6363520781
  0
SOLID
  5
3FA
100
AcDbEntity
  8
0
100
AcDbTrace
 62
5
  6
CONTINUOUS
 10
360.9404391099
 20
304.1178324293
 11
362.1996983692
 21
304.3400535212
 12
362.1996983692
 22
303.6733868545
 13
362.1996983692
 23
303.6733868545
  0
SOLID
  5
3FB
100
AcDbEntity
  8
0
100
AcDbTrace
 62
5
  6
CONTINUOUS
 10
355.8293279988
 20
303.8215350027
 11
357.0885872581
 21
304.1178324293
 12
357.0885872581
 22
303.5993127805
 13
357.0885872581
 23
303.5993127805
  0
SOLID
  5
3FC
100
AcDbEntity
  8
0
100
AcDbTrace
 62
5
  6
CONTINUOUS
 10
362.1996983692
 20
303.6733868545
 11
360.9404391099
 21
303.5993127805
 12
360.9404391099
 22
304.1178324293
 13
360.9404391099
 23
304.1178324293
  0
SOLID
  5
3FD
100
AcDbEntity
  8
0
100
AcDbTrace
 62
5
  6
CONTINUOUS
 10
357.0885872581
 20
303.5993127805
 11
355.8293279988
 21
303.0067218833
 12
355.8293279988
 22
303.8215350027
 13
355.8293279988
 23
303.8215350027
  0
SOLID
  5
3FE
100
AcDbEntity
  8
0
100
AcDbTrace
 62
5
  6
CONTINUOUS
 10
355.8293279988
 20
303.0067218833
 11
357.0885872581
 21
303.5993127805
 12
357.0885872581
 22
303.0067218833
 13
357.0885872581
 23
303.0067218833
  0
SOLID
  5
3FF
100
AcDbEntity
  8
0
100
AcDbTrace
 62
5
  6
CONTINUOUS
 10
361.014513184
 20
303.0067218833
 11
360.9404391099
 21
303.5993127805
 12
362.1996983692
 22
303.6733868545
 13
362.1996983692
 23
303.6733868545
  0
SOLID
  5
400
100
AcDbEntity
  8
0
100
AcDbTrace
 62
5
  6
CONTINUOUS
 10
361.014513184
 20
303.0067218833
 11
362.1996983692
 21
303.6733868545
 12
362.2737724433
 22
303.0067218833
 13
362.2737724433
 23
303.0067218833
  0
SOLID
  5
401
100
AcDbEntity
  8
0
100
AcDbTrace
 62
5
  6
CONTINUOUS
 10
362.2737724433
 20
303.0067218833
 11
360.9404391099
 21
302.4141309861
 12
361.014513184
 22
303.0067218833
 13
361.014513184
 23
303.0067218833
  0
SOLID
  5
402
100
AcDbEntity
  8
0
100
AcDbTrace
 62
5
  6
CONTINUOUS
 10
357.0885872581
 20
303.0067218833
 11
357.0885872581
 21
302.4141309861
 12
355.8293279988
 22
302.3400535212
 13
355.8293279988
 23
302.3400535212
  0
SOLID
  5
403
100
AcDbEntity
  8
0
100
AcDbTrace
 62
5
  6
CONTINUOUS
 10
357.0885872581
 20
303.0067218833
 11
355.8293279988
 21
302.3400535212
 12
355.8293279988
 22
303.0067218833
 13
355.8293279988
 23
303.0067218833
  0
SOLID
  5
404
100
AcDbEntity
  8
0
100
AcDbTrace
 62
5
  6
CONTINUOUS
 10
360.9404391099
 20
302.4141309861
 11
362.2737724433
 21
303.0067218833
 12
362.1996983692
 22
302.1919053731
 13
362.1996983692
 23
302.1919053731
  0
SOLID
  5
405
100
AcDbEntity
  8
0
100
AcDbTrace
 62
5
  6
CONTINUOUS
 10
355.8293279988
 20
302.3400535212
 11
357.0885872581
 21
302.4141309861
 12
357.0885872581
 22
301.8956113373
 13
357.0885872581
 23
301.8956113373
  0
SOLID
  5
406
100
AcDbEntity
  8
0
100
AcDbTrace
 62
5
  6
CONTINUOUS
 10
362.1996983692
 20
302.1919053731
 11
360.9404391099
 21
301.8956113373
 12
360.9404391099
 22
302.4141309861
 13
360.9404391099
 23
302.4141309861
  0
SOLID
  5
407
100
AcDbEntity
  8
0
100
AcDbTrace
 62
5
  6
CONTINUOUS
 10
357.0885872581
 20
301.8956113373
 11
355.8293279988
 21
301.6733868545
 12
355.8293279988
 22
302.3400535212
 13
355.8293279988
 23
302.3400535212
  0
SOLID
  5
408
100
AcDbEntity
  8
0
100
AcDbTrace
 62
5
  6
CONTINUOUS
 10
360.9404391099
 20
301.8956113373
 11
362.1996983692
 21
302.1919053731
 12
362.1256242951
 22
301.4511646323
 13
362.1256242951
 23
301.4511646323
  0
SOLID
  5
409
100
AcDbEntity
  8
0
100
AcDbTrace
 62
5
  6
CONTINUOUS
 10
355.8293279988
 20
301.6733868545
 11
357.0885872581
 21
301.8956113373
 12
357.1626613322
 22
301.3770916885
 13
357.1626613322
 23
301.3770916885
  0
SOLID
  5
40A
100
AcDbEntity
  8
0
100
AcDbTrace
 62
5
  6
CONTINUOUS
 10
362.1256242951
 20
301.4511646323
 11
360.8663650359
 21
301.3770916885
 12
360.9404391099
 22
301.8956113373
 13
360.9404391099
 23
301.8956113373
  0
SOLID
  5
40B
100
AcDbEntity
  8
0
100
AcDbTrace
 62
5
  6
CONTINUOUS
 10
357.1626613322
 20
301.3770916885
 11
355.9034020729
 21
301.154868336
 12
355.8293279988
 22
301.6733868545
 13
355.8293279988
 23
301.6733868545
  0
SOLID
  5
40C
100
AcDbEntity
  8
0
100
AcDbTrace
 62
5
  6
CONTINUOUS
 10
355.9034020729
 20
301.154868336
 11
357.1626613322
 21
301.3770916885
 12
357.1626613322
 22
300.9326435707
 13
357.1626613322
 23
300.9326435707
  0
SOLID
  5
40D
100
AcDbEntity
  8
0
100
AcDbTrace
 62
5
  6
CONTINUOUS
 10
360.8663650359
 20
300.9326435707
 11
360.8663650359
 21
301.3770916885
 12
362.1256242951
 22
301.4511646323
 13
362.1256242951
 23
301.4511646323
  0
SOLID
  5
40E
100
AcDbEntity
  8
0
100
AcDbTrace
 62
5
  6
CONTINUOUS
 10
360.8663650359
 20
300.9326435707
 11
362.1256242951
 21
301.4511646323
 12
362.0515502211
 22
300.7844979657
 13
362.0515502211
 23
300.7844979657
  0
SOLID
  5
40F
100
AcDbEntity
  8
0
100
AcDbTrace
 62
5
  6
CONTINUOUS
 10
357.1626613322
 20
300.9326435707
 11
356.0515502211
 21
300.5622765911
 12
355.9034020729
 22
301.154868336
 13
355.9034020729
 23
301.154868336
  0
SOLID
  5
410
100
AcDbEntity
  8
0
100
AcDbTrace
 62
5
  6
CONTINUOUS
 10
356.0515502211
 20
300.5622765911
 11
357.1626613322
 21
300.9326435707
 12
357.3108094803
 22
300.5622765911
 13
357.3108094803
 23
300.5622765911
  0
SOLID
  5
411
100
AcDbEntity
  8
0
100
AcDbTrace
 62
5
  6
CONTINUOUS
 10
362.0515502211
 20
300.7844979657
 11
360.7922909618
 21
300.5622765911
 12
360.8663650359
 22
300.9326435707
 13
360.8663650359
 23
300.9326435707
  0
SOLID
  5
412
100
AcDbEntity
  8
0
100
AcDbTrace
 62
5
  6
CONTINUOUS
 10
360.6441428137
 20
300.2659811426
 11
360.7922909618
 21
300.5622765911
 12
362.0515502211
 22
300.7844979657
 13
362.0515502211
 23
300.7844979657
  0
SOLID
  5
413
100
AcDbEntity
  8
0
100
AcDbTrace
 62
5
  6
CONTINUOUS
 10
360.6441428137
 20
300.2659811426
 11
362.0515502211
 21
300.7844979657
 12
361.9034020729
 22
300.1919053731
 13
361.9034020729
 23
300.1919053731
  0
SOLID
  5
414
100
AcDbEntity
  8
0
100
AcDbTrace
 62
5
  6
CONTINUOUS
 10
357.3108094803
 20
300.5622765911
 11
357.3848835544
 21
300.2659811426
 12
356.1996983692
 22
300.117831299
 13
356.1996983692
 23
300.117831299
  0
SOLID
  5
415
100
AcDbEntity
  8
0
100
AcDbTrace
 62
5
  6
CONTINUOUS
 10
357.3108094803
 20
300.5622765911
 11
356.1996983692
 21
300.117831299
 12
356.0515502211
 22
300.5622765911
 13
356.0515502211
 23
300.5622765911
  0
SOLID
  5
416
100
AcDbEntity
  8
0
100
AcDbTrace
 62
5
  6
CONTINUOUS
 10
356.1996983692
 20
300.117831299
 11
357.3848835544
 21
300.2659811426
 12
357.4589576285
 22
299.969685694
 13
357.4589576285
 23
299.969685694
  0
SOLID
  5
417
100
AcDbEntity
  8
0
100
AcDbTrace
 62
5
  6
CONTINUOUS
 10
361.9034020729
 20
300.1919053731
 11
360.5700687396
 21
299.969685694
 12
360.6441428137
 22
300.2659811426
 13
360.6441428137
 23
300.2659811426
  0
SOLID
  5
418
100
AcDbEntity
  8
0
100
AcDbTrace
 62
5
  6
CONTINUOUS
 10
357.4589576285
 20
299.969685694
 11
357.6071057766
 21
299.7474614938
 12
356.3478465174
 22
299.6733902454
 13
356.3478465174
 23
299.6733902454
  0
SOLID
  5
419
100
AcDbEntity
  8
0
100
AcDbTrace
 62
5
  6
CONTINUOUS
 10
357.4589576285
 20
299.969685694
 11
356.3478465174
 21
299.6733902454
 12
356.1996983692
 22
300.117831299
 13
356.1996983692
 23
300.117831299
  0
SOLID
  5
41A
100
AcDbEntity
  8
0
100
AcDbTrace
 62
5
  6
CONTINUOUS
 10
360.4219205914
 20
299.7474614938
 11
360.5700687396
 21
299.969685694
 12
361.9034020729
 22
300.1919053731
 13
361.9034020729
 23
300.1919053731
  0
SOLID
  5
41B
100
AcDbEntity
  8
0
100
AcDbTrace
 62
5
  6
CONTINUOUS
 10
360.4219205914
 20
299.7474614938
 11
361.9034020729
 21
300.1919053731
 12
361.6811798507
 22
299.6733902454
 13
361.6811798507
 23
299.6733902454
  0
SOLID
  5
41C
100
AcDbEntity
  8
0
100
AcDbTrace
 62
5
  6
CONTINUOUS
 10
361.6811798507
 20
299.6733902454
 11
360.1256242951
 21
299.4511646323
 12
360.4219205914
 22
299.7474614938
 13
360.4219205914
 23
299.7474614938
  0
SOLID
  5
41D
100
AcDbEntity
  8
0
100
AcDbTrace
 62
5
  6
CONTINUOUS
 10
356.3478465174
 20
299.6733902454
 11
357.6071057766
 21
299.7474614938
 12
357.9034020729
 22
299.3770905583
 13
357.9034020729
 23
299.3770905583
  0
SOLID
  5
41E
100
AcDbEntity
  8
0
100
AcDbTrace
 62
5
  6
CONTINUOUS
 10
357.9034020729
 20
299.3770905583
 11
356.5700687396
 21
299.3030164842
 12
356.3478465174
 22
299.6733902454
 13
356.3478465174
 23
299.6733902454
  0
SOLID
  5
41F
100
AcDbEntity
  8
0
100
AcDbTrace
 62
5
  6
CONTINUOUS
 10
360.1256242951
 20
299.4511646323
 11
361.6811798507
 21
299.6733902454
 12
361.4589576285
 22
299.2289424101
 13
361.4589576285
 23
299.2289424101
  0
SOLID
  5
420
100
AcDbEntity
  8
0
100
AcDbTrace
 62
5
  6
CONTINUOUS
 10
356.5700687396
 20
299.3030164842
 11
357.9034020729
 21
299.3770905583
 12
358.2737724433
 22
299.1548705259
 13
358.2737724433
 23
299.1548705259
  0
SOLID
  5
421
100
AcDbEntity
  8
0
100
AcDbTrace
 62
5
  6
CONTINUOUS
 10
361.4589576285
 20
299.2289424101
 11
359.7552539248
 21
299.1548705259
 12
360.1256242951
 22
299.4511646323
 13
360.1256242951
 23
299.4511646323
  0
SOLID
  5
422
100
AcDbEntity
  8
0
100
AcDbTrace
 62
5
  6
CONTINUOUS
 10
359.014513184
 20
299.0067177154
 11
359.3848835544
 21
299.0067177154
 12
356.7922909618
 22
298.9326461138
 13
356.7922909618
 23
298.9326461138
  0
SOLID
  5
423
100
AcDbEntity
  8
0
100
AcDbTrace
 62
5
  6
CONTINUOUS
 10
358.6441428137
 20
299.0067177154
 11
359.014513184
 21
299.0067177154
 12
356.7922909618
 22
298.9326461138
 13
356.7922909618
 23
298.9326461138
  0
SOLID
  5
424
100
AcDbEntity
  8
0
100
AcDbTrace
 62
5
  6
CONTINUOUS
 10
358.2737724433
 20
299.1548705259
 11
358.6441428137
 21
299.0067177154
 12
356.7922909618
 22
298.9326461138
 13
356.7922909618
 23
298.9326461138
  0
SOLID
  5
425
100
AcDbEntity
  8
0
100
AcDbTrace
 62
5
  6
CONTINUOUS
 10
358.2737724433
 20
299.1548705259
 11
356.7922909618
 21
298.9326461138
 12
356.5700687396
 22
299.3030164842
 13
356.5700687396
 23
299.3030164842
  0
SOLID
  5
426
100
AcDbEntity
  8
0
100
AcDbTrace
 62
5
  6
CONTINUOUS
 10
359.3848835544
 20
299.0067177154
 11
359.7552539248
 21
299.1548705259
 12
361.4589576285
 22
299.2289424101
 13
361.4589576285
 23
299.2289424101
  0
SOLID
  5
427
100
AcDbEntity
  8
0
100
AcDbTrace
 62
5
  6
CONTINUOUS
 10
361.1626613322
 20
298.7844979657
 11
356.7922909618
 21
298.9326461138
 12
359.3848835544
 22
299.0067177154
 13
359.3848835544
 23
299.0067177154
  0
SOLID
  5
428
100
AcDbEntity
  8
0
100
AcDbTrace
 62
5
  6
CONTINUOUS
 10
359.3848835544
 20
299.0067177154
 11
361.4589576285
 21
299.2289424101
 12
361.1626613322
 22
298.7844979657
 13
361.1626613322
 23
298.7844979657
  0
SOLID
  5
429
100
AcDbEntity
  8
0
100
AcDbTrace
 62
5
  6
CONTINUOUS
 10
361.1626613322
 20
298.7844979657
 11
357.014513184
 21
298.7104238916
 12
356.7922909618
 22
298.9326461138
 13
356.7922909618
 23
298.9326461138
  0
SOLID
  5
42A
100
AcDbEntity
  8
0
100
AcDbTrace
 62
5
  6
CONTINUOUS
 10
357.2367354062
 20
298.4881981019
 11
357.014513184
 21
298.7104238916
 12
361.1626613322
 22
298.7844979657
 13
361.1626613322
 23
298.7844979657
  0
SOLID
  5
42B
100
AcDbEntity
  8
0
100
AcDbTrace
 62
5
  6
CONTINUOUS
 10
357.2367354062
 20
298.4881981019
 11
361.1626613322
 21
298.7844979657
 12
360.7922909618
 22
298.4881981019
 13
360.7922909618
 23
298.4881981019
  0
SOLID
  5
42C
100
AcDbEntity
  8
0
100
AcDbTrace
 62
5
  6
CONTINUOUS
 10
360.7922909618
 20
298.4881981019
 11
357.4589576285
 21
298.3400535212
 12
357.2367354062
 22
298.4881981019
 13
357.2367354062
 23
298.4881981019
  0
SOLID
  5
42D
100
AcDbEntity
  8
0
100
AcDbTrace
 62
5
  6
CONTINUOUS
 10
357.4589576285
 20
298.3400535212
 11
360.7922909618
 21
298.4881981019
 12
360.4219205914
 22
298.2659794471
 13
360.4219205914
 23
298.2659794471
  0
SOLID
  5
42E
100
AcDbEntity
  8
0
100
AcDbTrace
 62
5
  6
CONTINUOUS
 10
360.4219205914
 20
298.2659794471
 11
357.7552539248
 21
298.1919053731
 12
357.4589576285
 22
298.3400535212
 13
357.4589576285
 23
298.3400535212
  0
SOLID
  5
42F
100
AcDbEntity
  8
0
100
AcDbTrace
 62
5
  6
CONTINUOUS
 10
358.0515502211
 20
298.117831299
 11
357.7552539248
 21
298.1919053731
 12
360.4219205914
 22
298.2659794471
 13
360.4219205914
 23
298.2659794471
  0
SOLID
  5
430
100
AcDbEntity
  8
0
100
AcDbTrace
 62
5
  6
CONTINUOUS
 10
358.0515502211
 20
298.117831299
 11
360.4219205914
 21
298.2659794471
 12
359.977476147
 22
298.117831299
 13
359.977476147
 23
298.117831299
  0
SOLID
  5
431
100
AcDbEntity
  8
0
100
AcDbTrace
 62
5
  6
CONTINUOUS
 10
359.977476147
 20
298.117831299
 11
358.3478465174
 21
298.0437599667
 12
358.0515502211
 22
298.117831299
 13
358.0515502211
 23
298.117831299
  0
SOLID
  5
432
100
AcDbEntity
  8
0
100
AcDbTrace
 62
5
  6
CONTINUOUS
 10
358.6441428137
 20
298.0437599667
 11
358.3478465174
 21
298.0437599667
 12
359.977476147
 22
298.117831299
 13
359.977476147
 23
298.117831299
  0
SOLID
  5
433
100
AcDbEntity
  8
0
100
AcDbTrace
 62
5
  6
CONTINUOUS
 10
358.6441428137
 20
298.0437599667
 11
359.977476147
 21
298.117831299
 12
359.5330317025
 22
298.0437599667
 13
359.5330317025
 23
298.0437599667
  0
SOLID
  5
434
100
AcDbEntity
  8
0
100
AcDbTrace
 62
5
  6
CONTINUOUS
 10
359.5330317025
 20
298.0437599667
 11
359.014513184
 21
297.9696831508
 12
358.6441428137
 22
298.0437599667
 13
358.6441428137
 23
298.0437599667
  0
LINE
  5
435
100
AcDbEntity
  8
0
100
AcDbLine
 62
7
  6
CONTINUOUS
 10
120.9581079183
 20
363.5848855987
 11
120.9581079183
 21
382.5848855987
  0
LINE
  5
436
100
AcDbEntity
  8
0
100
AcDbLine
 62
7
  6
CONTINUOUS
 10
120.9581079183
 20
363.5848855987
 11
540.9581079183
 21
363.5848855987
  0
LINE
  5
437
100
AcDbEntity
  8
0
100
AcDbLine
 62
7
  6
CONTINUOUS
 10
120.9581079183
 20
382.5848855987
 11
540.9581079183
 21
382.5848855987
  0
LINE
  5
438
100
AcDbEntity
  8
0
100
AcDbLine
 62
7
  6
CONTINUOUS
 10
540.9581079183
 20
363.5848855987
 11
540.9581079183
 21
382.5848855987
  0
HATCH
  5
439
100
AcDbEntity
  8
0
100
AcDbHatch
 62
2
  6
CONTINUOUS
 10
0.0
 20
0.0
 30
0.0
210
0.0
220
0.0
230
1.0
  2
a
 70
0
 71
1
 91
1
 92
1
 93
4
 72
1
 10
120.9581079183
 20
382.5848855987
 11
540.9581079183
 21
382.5848855987
 72
1
 10
540.9581079183
 20
363.5848855987
 11
540.9581079183
 21
382.5848855987
 72
1
 10
120.9581079183
 20
363.5848855987
 11
540.9581079183
 21
363.5848855987
 72
1
 10
120.9581079183
 20
363.5848855987
 11
120.9581079183
 21
382.5848855987
 97
4
330
435
330
436
330
437
330
438
 75
0
 76
0
 52
45.0
 41
32.0
 77
0
 78
1
 53
45.0
 43
0.0
 44
0.0
 45
-22.627416998
 46
22.627416998
 79
0
 98
1
 10
0.0
 20
0.0
  0
LINE
  5
43A
100
AcDbEntity
  8
0
100
AcDbLine
 62
7
  6
CONTINUOUS
 10
120.9581079183
 20
82.5848855987
 11
120.9581079183
 21
382.5848855987
  0
LINE
  5
43B
100
AcDbEntity
  8
0
100
AcDbLine
 62
7
  6
CONTINUOUS
 10
130.9581079183
 20
82.5848855987
 11
130.9581079183
 21
363.5848855987
  0
LINE
  5
43C
100
AcDbEntity
  8
0
100
AcDbLine
 62
7
  6
CONTINUOUS
 10
141.9581079183
 20
82.5848855987
 11
141.9581079183
 21
243.5848855987
  0
LINE
  5
43D
100
AcDbEntity
  8
0
100
AcDbLine
 62
7
  6
CONTINUOUS
 10
120.9581079183
 20
82.5848855987
 11
540.9581079183
 21
82.5848855987
  0
LINE
  5
43E
100
AcDbEntity
  8
DIMENSIONS
100
AcDbLine
 62
5
  6
CONTINUOUS
 10
552.8331243896
 20
376.0313023682
 11
554.0831202393
 21
376.5670407715
  0
LWPOLYLINE
  5
43F
100
AcDbEntity
  8
DIMENSIONS
100
AcDbPolyline
 62
5
  6
CONTINUOUS
 90
3
 70
0
 10
135.0295345459
 20
74.9955991516
 10
135.7438191833
 20
75.7098837891
 10
135.7438191833
 20
73.2098830261
  0
LWPOLYLINE
  5
440
100
AcDbEntity
  8
DIMENSIONS
100
AcDbPolyline
 62
5
  6
CONTINUOUS
 90
3
 70
0
 10
136.4581038208
 20
74.9955991516
 10
137.172397522
 20
75.7098837891
 10
137.172397522
 20
73.2098830261
  0
LINE
  5
441
100
AcDbEntity
  8
0
100
AcDbLine
 62
7
  6
CONTINUOUS
 10
141.9581079183
 20
243.5848855987
 11
540.9581079183
 21
243.5848855987
  0
LWPOLYLINE
  5
442
100
AcDbEntity
  8
DIMENSIONS
100
AcDbPolyline
 62
5
  6
CONTINUOUS
 90
12
 70
0
 10
553.9045286865
 20
367.1027398682
 10
554.0831202393
 20
367.2813314209
 10
554.0831202393
 20
367.9955888672
 10
553.9045286865
 20
368.1741804199
 10
553.3688265381
 20
368.1741804199
 10
553.2497655029
 20
367.9955888672
 10
553.1307407227
 20
367.2813314209
 10
553.0116796875
 20
367.1027398682
 10
552.4759775391
 20
367.1027398682
 10
552.2973859863
 20
367.2813314209
 10
552.2973859863
 20
367.9955888672
 10
552.4759775391
 20
368.1741804199
  0
LWPOLYLINE
  5
443
100
AcDbEntity
  8
DIMENSIONS
100
AcDbPolyline
 62
5
  6
CONTINUOUS
 90
13
 70
0
 10
549.6188389893
 20
304.2991677246
 10
548.5473984375
 20
304.2991677246
 10
548.1902515869
 20
304.4777592773
 10
547.8331047363
 20
304.834869873
 10
547.8331047363
 20
305.0134614258
 10
548.1902515869
 20
305.3706082764
 10
548.5473984375
 20
305.5491635742
 10
549.6188389893
 20
305.5491635742
 10
549.975949585
 20
305.3706082764
 10
550.3330964355
 20
305.0134614258
 10
550.3330964355
 20
304.834869873
 10
549.975949585
 20
304.4777592773
 10
549.6188389893
 20
304.2991677246
  0
LWPOLYLINE
  5
444
100
AcDbEntity
  8
DIMENSIONS
100
AcDbPolyline
 62
5
  6
CONTINUOUS
 90
7
 70
0
 10
550.3330964355
 20
368.620586792
 10
547.8331047363
 20
368.620586792
 10
547.8331047363
 20
369.1563251953
 10
547.8926352539
 20
369.3348804932
 10
548.1902515869
 20
369.6920273438
 10
548.7259537354
 20
369.6920273438
 10
549.0831005859
 20
369.3348804932
  0
LINE
  5
445
100
AcDbEntity
  8
DIMENSIONS
100
AcDbLine
 62
5
  6
CONTINUOUS
 10
554.0831202393
 20
369.1860904541
 11
551.5830922852
 21
369.1860904541
  0
LWPOLYLINE
  5
446
100
AcDbEntity
  8
DIMENSIONS
100
AcDbPolyline
 62
5
  6
CONTINUOUS
 90
9
 70
0
 10
549.975949585
 20
370.5848763428
 10
548.9045452881
 20
370.5848763428
 10
548.5473984375
 20
370.9420231934
 10
548.5473984375
 20
371.2991700439
 10
548.9045452881
 20
371.6563168945
 10
549.975949585
 20
371.6563168945
 10
550.3330964355
 20
371.2991700439
 10
550.3330964355
 20
370.9420231934
 10
549.975949585
 20
370.5848763428
  0
LWPOLYLINE
  5
447
100
AcDbEntity
  8
DIMENSIONS
100
AcDbPolyline
 62
5
  6
CONTINUOUS
 90
4
 70
0
 10
554.0831202393
 20
371.3884658203
 10
552.6545328369
 20
371.3884658203
 10
552.2973859863
 20
371.2098742676
 10
552.2973859863
 20
370.3170252686
  0
LWPOLYLINE
  5
448
100
AcDbEntity
  8
DIMENSIONS
100
AcDbPolyline
 62
5
  6
CONTINUOUS
 90
7
 70
0
 10
547.8331047363
 20
373.4420148926
 10
550.3330964355
 20
373.4420148926
 10
550.3330964355
 20
372.7277574463
 10
550.1545411377
 20
372.3706105957
 10
548.7259537354
 20
372.3706105957
 10
548.5473984375
 20
372.7277574463
 10
548.5473984375
 20
373.4420148926
  0
LWPOLYLINE
  5
449
100
AcDbEntity
  8
DIMENSIONS
100
AcDbPolyline
 62
5
  6
CONTINUOUS
 90
5
 70
0
 10
554.0831202393
 20
373.8884575195
 10
552.2973859863
 20
373.8884575195
 10
552.2973859863
 20
374.6027512207
 10
552.4759775391
 20
374.721776001
 10
552.8331243896
 20
374.721776001
  0
LINE
  5
44A
100
AcDbEntity
  8
DIMENSIONS
100
AcDbLine
 62
5
  6
CONTINUOUS
 10
554.0831202393
 20
375.4956002197
 11
551.5830922852
 21
375.4956002197
  0
LWPOLYLINE
  5
44B
100
AcDbEntity
  8
DIMENSIONS
100
AcDbPolyline
 62
5
  6
CONTINUOUS
 90
5
 70
0
 10
550.3330964355
 20
375.9420428467
 10
548.5473984375
 20
375.9420428467
 10
548.5473984375
 20
376.8348918457
 10
548.7259537354
 20
377.0134471436
 10
550.3330964355
 20
377.0134471436
  0
LWPOLYLINE
  5
44C
100
AcDbEntity
  8
DIMENSIONS
100
AcDbPolyline
 62
5
  6
CONTINUOUS
 90
3
 70
0
 10
548.5473984375
 20
300.9063270264
 10
547.8331047363
 20
301.6205844727
 10
550.3330964355
 20
301.6205844727
  0
LINE
  5
44D
100
AcDbEntity
  8
0
100
AcDbLine
 62
7
  6
CONTINUOUS
 10
540.9581079183
 20
363.5848855987
 11
540.9581079183
 21
82.5848855987
  0
LWPOLYLINE
  5
44E
100
AcDbEntity
  8
DIMENSIONS
100
AcDbPolyline
 62
5
  6
CONTINUOUS
 90
6
 70
0
 10
549.0831005859
 20
368.620586792
 10
549.0831005859
 20
369.5134720459
 10
549.4402474365
 20
369.8705826416
 10
549.975949585
 20
369.8705826416
 10
550.3330964355
 20
369.5134720459
 10
550.3330964355
 20
368.620586792
  0
LINE
  5
44F
100
AcDbEntity
  8
DIMENSIONS
100
AcDbLine
 62
5
  6
CONTINUOUS
 10
549.4402474365
 20
377.7277408447
 11
549.4402474365
 21
378.7991813965
  0
LWPOLYLINE
  5
450
100
AcDbEntity
  8
DIMENSIONS
100
AcDbPolyline
 62
5
  6
CONTINUOUS
 90
9
 70
0
 10
550.3330964355
 20
375.2277491455
 10
550.3330964355
 20
374.5134554443
 10
549.975949585
 20
374.1563085938
 10
548.9045452881
 20
374.1563085938
 10
548.5473984375
 20
374.5134554443
 10
548.5473984375
 20
374.8706022949
 10
548.9045452881
 20
375.2277491455
 10
549.4402474365
 20
375.2277491455
 10
549.4402474365
 20
374.1563085938
  0
LWPOLYLINE
  5
451
100
AcDbEntity
  8
DIMENSIONS
100
AcDbPolyline
 62
5
  6
CONTINUOUS
 90
7
 70
0
 10
550.3330964355
 20
303.5848740234
 10
550.3330964355
 20
302.3348781738
 10
548.5473984375
 20
303.5848740234
 10
548.1902515869
 20
303.5848740234
 10
547.8331047363
 20
303.2277271729
 10
547.8331047363
 20
302.6920250244
 10
548.3688068848
 20
302.3348781738
  0
LINE
  5
452
100
AcDbEntity
  8
DIMENSIONS
100
AcDbLine
 62
5
  6
CONTINUOUS
 10
552.2973859863
 20
368.8884741211
 11
552.2973859863
 21
369.6027315674
  0
LWPOLYLINE
  5
453
100
AcDbEntity
  8
DIMENSIONS
100
AcDbPolyline
 62
5
  6
CONTINUOUS
 90
9
 70
0
 10
554.0831202393
 20
378.3527387695
 10
554.0831202393
 20
377.6384450684
 10
553.7259733887
 20
377.2812982178
 10
552.6545328369
 20
377.2812982178
 10
552.2973859863
 20
377.6384450684
 10
552.2973859863
 20
377.9955919189
 10
552.6545328369
 20
378.3527387695
 10
553.1902349854
 20
378.3527387695
 10
553.1902349854
 20
377.2812982178
  0
LWPOLYLINE
  5
454
100
AcDbEntity
  8
DIMENSIONS
100
AcDbPolyline
 62
5
  6
CONTINUOUS
 90
9
 70
0
 10
554.0831202393
 20
373.1741638184
 10
554.0831202393
 20
372.4598701172
 10
553.7259733887
 20
372.1027595215
 10
552.6545328369
 20
372.1027595215
 10
552.2973859863
 20
372.4598701172
 10
552.2973859863
 20
372.8170169678
 10
552.6545328369
 20
373.1741638184
 10
553.1902349854
 20
373.1741638184
 10
553.1902349854
 20
372.1027595215
  0
LWPOLYLINE
  5
455
100
AcDbEntity
  8
DIMENSIONS
100
AcDbPolyline
 62
5
  6
CONTINUOUS
 90
6
 70
0
 10
554.0831202393
 20
371.3884658203
 10
554.0831202393
 20
370.6741721191
 10
553.9045286865
 20
370.3170252686
 10
553.3688265381
 20
370.3170252686
 10
553.1902349854
 20
370.6741721191
 10
553.1902349854
 20
371.3884658203
  0
LINE
  5
456
100
AcDbEntity
  8
DIMENSIONS
100
AcDbLine
 62
5
  6
CONTINUOUS
 10
553.1902349854
 20
375.4956002197
 11
552.2973859863
 21
376.5670407715
  0
LINE
  5
457
100
AcDbEntity
  8
0
100
AcDbLine
 62
7
  6
CONTINUOUS
 10
66.3393516944
 20
82.5848855987
 11
85.3393516944
 21
82.5848855987
  0
LWPOLYLINE
  5
458
100
AcDbEntity
  8
DIMENSIONS
100
AcDbPolyline
 62
5
  6
CONTINUOUS
 90
10
 70
0
 10
70.2143511658
 20
393.2098809814
 10
70.9286358032
 20
393.9241746826
 10
71.1072092285
 20
394.6384683838
 10
71.1072092285
 20
395.3527258301
 10
70.7500669098
 20
395.7098726807
 10
70.2143511658
 20
395.7098726807
 10
69.857208847
 20
395.3527258301
 10
69.857208847
 20
394.6384683838
 10
70.2143511658
 20
394.2813215332
 10
70.9881617889
 20
394.2813215332
  0
LINE
  5
459
100
AcDbEntity
  8
0
100
AcDbLine
 62
7
  6
CONTINUOUS
 10
66.3393516944
 20
82.5848855987
 11
66.3393516944
 21
382.5848855987
  0
LINE
  5
45A
100
AcDbEntity
  8
0
100
AcDbLine
 62
7
  6
CONTINUOUS
 10
75.3393516944
 20
363.5848855987
 11
75.3393516944
 21
243.5848855987
  0
LINE
  5
45B
100
AcDbEntity
  8
DEFAULT_2
100
AcDbLine
 62
8
  6
HIDDEN
 10
75.3393516944
 20
82.5848855987
 11
75.3393516944
 21
243.5848855987
  0
LINE
  5
45C
100
AcDbEntity
  8
ACHSEN
100
AcDbLine
 62
8
  6
HIDDEN
 10
75.3393516944
 20
363.5848855987
 11
75.3393516944
 21
369.0848855987
  0
LINE
  5
45D
100
AcDbEntity
  8
0
100
AcDbLine
 62
7
  6
CONTINUOUS
 10
85.3393516944
 20
382.5848855987
 11
85.3393516944
 21
82.5848855987
  0
LINE
  5
45E
100
AcDbEntity
  8
0
100
AcDbLine
 62
7
  6
CONTINUOUS
 10
75.3393516944
 20
243.5848855987
 11
66.3393516944
 21
243.5848855987
  0
LINE
  5
45F
100
AcDbEntity
  8
0
100
AcDbLine
 62
7
  6
CONTINUOUS
 10
66.3393516944
 20
363.5848855987
 11
75.3393516944
 21
363.5848855987
  0
LINE
  5
460
100
AcDbEntity
  8
ACHSEN
100
AcDbLine
 62
8
  6
HIDDEN
 10
75.3393516944
 20
369.0848855987
 11
66.3393516944
 21
369.0848855987
  0
LINE
  5
461
100
AcDbEntity
  8
0
100
AcDbLine
 62
7
  6
CONTINUOUS
 10
66.3393516944
 20
382.5848855987
 11
85.3393516944
 21
382.5848855987
  0
ARC
  5
462
100
AcDbEntity
  8
0
100
AcDbCircle
 62
7
  6
CONTINUOUS
 10
136.4581079183
 20
363.5848855987
 40
5.5
100
AcDbArc
 50
0.0
 51
180.0
  0
ENDSEC
  0
SECTION
  2
OBJECTS
  0
DICTIONARY
  5
C
100
AcDbDictionary
280
0
281
1
  3
ACAD_GROUP
350
D
  3
ACAD_MLINESTYLE
350
17
  3
ACAD_LAYOUT
350
1A
  3
ACAD_PLOTSETTINGS
350
19
  3
ACAD_PLOTSTYLENAME
350
E
  0
DICTIONARY
  5
D
102
{ACAD_REACTORS
330
C
102
}
100
AcDbDictionary
280
0
281
1
  0
ACDBDICTIONARYWDFLT
  5
E
102
{ACAD_REACTORS
330
C
102
}
100
AcDbDictionary
281
1
  3
Normal
350
F
100
AcDbDictionaryWithDefault
340
F
  0
DICTIONARY
  5
17
102
{ACAD_REACTORS
330
C
102
}
100
AcDbDictionary
280
0
281
1
  3
Standard
350
18
  0
DICTIONARY
  5
19
102
{ACAD_REACTORS
330
C
102
}
100
AcDbDictionary
281
1
  0
DICTIONARY
  5
1A
102
{ACAD_REACTORS
330
C
102
}
100
AcDbDictionary
281
1
  3
Layout1
350
1E
  3
Model
350
22
  0
ACDBPLACEHOLDER
  5
F
102
{ACAD_REACTORS
330
E
102
}
  0
MLINESTYLE
  5
18
102
{ACAD_REACTORS
330
17
102
}
100
AcDbMlineStyle
  2
STANDARD
 70
0
  3

 62
256
 51
90.0
 52
90.0
 71
2
 49
0.5
 62
256
  6
BYLAYER
 49
-0.5
 62
256
  6
BYLAYER
  0
LAYOUT
  5
1E
102
{ACAD_REACTORS
330
1A
102
}
100
AcDbPlotSettings
  1

  2

  4

  6

 40
0.0
 41
0.0
 42
0.0
 43
0.0
 44
0.0
 45
0.0
 46
0.0
 47
0.0
 48
0.0
 49
0.0
140
0.0
141
0.0
142
1.0
143
1.0
 70
0
 72
0
 73
0
 74
0
  7

 75
0
147
1.0
148
0.0
149
0.0
100
AcDbLayout
  1
Layout1
 70
0
 71
0
 10
0.0
 20
0.0
 11
0.0
 21
0.0
 12
0.0
 22
0.0
 32
0.0
 14
0.0
 24
0.0
 34
0.0
 15
0.0
 25
0.0
 35
0.0
146
0.0
 13
0.0
 23
0.0
 33
0.0
 16
0.0
 26
0.0
 36
0.0
 17
0.0
 27
0.0
 37
0.0
 76
0
330
1B
331
0
345
0
346
0
  0
LAYOUT
  5
22
102
{ACAD_REACTORS
330
1A
102
}
100
AcDbPlotSettings
  1

  2

  4

  6

 40
0.0
 41
0.0
 42
0.0
 43
0.0
 44
0.0
 45
0.0
 46
0.0
 47
0.0
 48
0.0
 49
0.0
140
0.0
141
0.0
142
1.0
143
1.0
 70
1024
 72
0
 73
0
 74
0
  7

 75
0
147
1.0
148
0.0
149
0.0
100
AcDbLayout
  1
Model
 70
0
 71
0
 10
0.0
 20
0.0
 11
0.0
 21
0.0
 12
0.0
 22
0.0
 32
0.0
 14
0.0
 24
0.0
 34
0.0
 15
0.0
 25
0.0
 35
0.0
146
0.0
 13
0.0
 23
0.0
 33
0.0
 16
0.0
 26
0.0
 36
0.0
 17
0.0
 27
0.0
 37
0.0
 76
0
330
1F
331
0
345
0
346
0
  0
ENDSEC
  0
EOF
