999
DXF file: korpus_frameline_1.dxf
999
Pro/ENGINEER 2009400 by Parametric Technology Corporation
  0
SECTION
  2
HEADER
  9
$ACADVER
  1
AC1015
  9
$DWGCODEPAGE
  3
ANSI_1252
  9
$EXTMAX
 10
500.0
 20
1000.0
 30
0.0
  9
$EXTMIN
 10
0.0
 20
0.0
 30
0.0
  9
$LIMMIN
 10
0.0
 20
0.0
  9
$LIMMAX
 10
500.0
 20
1000.0
  9
$VIEWCTR
 10
250.0
 20
500.0
  9
$VIEWSIZE
 40
1000.0
  9
$CLAYER
  8
0
  9
$LTSCALE
 40
65.1851851852
  9
$CELTYPE
  6
BYLAYER
  9
$DIMSCALE
 40
1.0
  9
$DIMASZ
 40
2.5
  9
$DIMEXO
 40
7.4074074074
  9
$DIMDLI
 40
45.037037037
  9
$DIMEXE
 40
21.3333333333
  9
$DIMCEN
 40
10.6666666667
  9
$DIMLFAC
 40
1.0
  9
$DIMBLK
  1
_FILLED
  9
$DIMTXT
 40
2.5
  9
$DIMTOL
 70
1
  9
$DIMLIM
 70
0
  9
$DIMTFAC
 40
1.0
  9
$DIMTP
 40
0.01
  9
$DIMTM
 40
0.01
  9
$PDMODE
 70
3
  9
$PDSIZE
 40
0.5
  9
$HANDSEED
  5
590
  9
$MEASUREMENT
 70
1
  9
$INSUNITS
 70
4
  0
ENDSEC
  0
SECTION
  2
CLASSES
  0
CLASS
  1
ACDBDICTIONARYWDFLT
  2
AcDbDictionaryWithDefault
  3
AutoCAD 2000
 90
0
280
0
281
0
  0
CLASS
  1
ACDBPLACEHOLDER
  2
AcDbPlaceHolder
  3
AutoCAD 2000
 90
0
280
0
281
0
  0
CLASS
  1
LAYOUT
  2
AcDbLayout
  3
AutoCAD 2000
 90
0
280
0
281
0
  0
ENDSEC
  0
SECTION
  2
TABLES
  0
TABLE
  2
VPORT
  5
8
100
AcDbSymbolTable
 70
2
  0
VPORT
  5
1F4
100
AcDbSymbolTableRecord
100
AcDbViewportTableRecord
  2
*ACTIVE
 70
0
 10
0.0
 20
0.0
 11
1.0
 21
1.0
 12
250.0
 22
500.0
 13
0.0
 23
0.0
 14
1.0
 24
1.0
 15
0.0
 25
0.0
 16
0.0
 26
0.0
 36
1.0
 17
0.0
 27
0.0
 37
0.0
 40
1000.0
 41
0.5
 42
50.0
 43
0.0
 44
0.0
 50
0.0
 51
0.0
 71
0
 72
100
 73
1
 74
1
 75
0
 76
0
 77
0
 78
0
  0
ENDTAB
  0
TABLE
  2
LTYPE
  5
5
100
AcDbSymbolTable
 70
6
  0
LTYPE
  5
14
100
AcDbSymbolTableRecord
100
AcDbLinetypeTableRecord
  2
BYBLOCK
 70
0
  3

 72
65
 73
0
 40
0.0
  0
LTYPE
  5
15
100
AcDbSymbolTableRecord
100
AcDbLinetypeTableRecord
  2
BYLAYER
 70
0
  3

 72
65
 73
0
 40
0.0
  0
LTYPE
  5
16
100
AcDbSymbolTableRecord
100
AcDbLinetypeTableRecord
  2
CONTINUOUS
 70
64
  3
Solid line
 72
65
 73
0
 40
0.0
  0
LTYPE
  5
1F5
100
AcDbSymbolTableRecord
100
AcDbLinetypeTableRecord
  2
CENTER
 70
64
  3
____ _ ____ _ ____ _ ____ _ ____ _ ____ _ ____
 72
65
 73
4
 40
0.6
 49
0.375
 74
0
 49
-0.075
 74
0
 49
0.075
 74
0
 49
-0.075
 74
0
  0
LTYPE
  5
1F6
100
AcDbSymbolTableRecord
100
AcDbLinetypeTableRecord
  2
HIDDEN
 70
64
  3
- - - - - - - - - - - - - - - - - - - -
 72
65
 73
2
 40
0.2
 49
0.1
 74
0
 49
-0.1
 74
0
  0
LTYPE
  5
1F7
100
AcDbSymbolTableRecord
100
AcDbLinetypeTableRecord
  2
PHANTOM
 70
64
  3
_____ _ _ _____ _ _ _____ _ _ _____
 72
65
 73
6
 40
0.8
 49
0.45
 74
0
 49
-0.05
 74
0
 49
0.1
 74
0
 49
-0.05
 74
0
 49
0.1
 74
0
 49
-0.05
 74
0
  0
LTYPE
  5
1F8
100
AcDbSymbolTableRecord
100
AcDbLinetypeTableRecord
  2
DOT
 70
64
  3
. . . . . . . . . . . . . . . . . . . .
 72
65
 73
2
 40
0.2
 49
0.1
 74
0
 49
-0.1
 74
0
  0
LTYPE
  5
1F9
100
AcDbSymbolTableRecord
100
AcDbLinetypeTableRecord
  2
DASHED
 70
64
  3
- - - - - - - - - - - - - - - - - - - -
 72
65
 73
2
 40
0.2
 49
0.1
 74
0
 49
-0.1
 74
0
  0
ENDTAB
  0
TABLE
  2
LAYER
  5
2
100
AcDbSymbolTable
 70
36
  0
LAYER
  5
10
100
AcDbSymbolTableRecord
100
AcDbLayerTableRecord
  2
0
 70
0
 62
7
  6
CONTINUOUS
370
-3
390
F
  0
LAYER
  5
1FA
100
AcDbSymbolTableRecord
100
AcDbLayerTableRecord
  2
DEFAULT_1
 70
0
 62
7
  6
CENTER
370
-3
390
F
  0
LAYER
  5
1FB
100
AcDbSymbolTableRecord
100
AcDbLayerTableRecord
  2
DEFAULT_2
 70
0
 62
8
  6
HIDDEN
370
-3
390
F
  0
LAYER
  5
1FC
100
AcDbSymbolTableRecord
100
AcDbLayerTableRecord
  2
DEFAULT_3
 70
0
 62
7
  6
PHANTOM
370
-3
390
F
  0
LAYER
  5
1FD
100
AcDbSymbolTableRecord
100
AcDbLayerTableRecord
  2
_2D_DELETED_OBJS
 70
0
 62
7
  6
CONTINUOUS
370
-3
390
F
  0
LAYER
  5
1FE
100
AcDbSymbolTableRecord
100
AcDbLayerTableRecord
  2
_BLACK_HOLE
 70
0
 62
7
  6
CONTINUOUS
370
-3
390
F
  0
LAYER
  5
1FF
100
AcDbSymbolTableRecord
100
AcDbLayerTableRecord
  2
ACHSEN
 70
0
 62
7
  6
CONTINUOUS
370
-3
390
F
  0
LAYER
  5
200
100
AcDbSymbolTableRecord
100
AcDbLayerTableRecord
  2
AXIS
 70
0
 62
7
  6
CONTINUOUS
370
-3
390
F
  0
LAYER
  5
201
100
AcDbSymbolTableRecord
100
AcDbLayerTableRecord
  2
A_EBENEN
 70
0
 62
7
  6
CONTINUOUS
370
-3
390
F
  0
LAYER
  5
202
100
AcDbSymbolTableRecord
100
AcDbLayerTableRecord
  2
BODIES
 70
0
 62
7
  6
CONTINUOUS
370
-3
390
F
  0
LAYER
  5
203
100
AcDbSymbolTableRecord
100
AcDbLayerTableRecord
  2
BOHRUNGEN
 70
0
 62
7
  6
CONTINUOUS
370
-3
390
F
  0
LAYER
  5
204
100
AcDbSymbolTableRecord
100
AcDbLayerTableRecord
  2
CHAMFER
 70
0
 62
7
  6
CONTINUOUS
370
-3
390
F
  0
LAYER
  5
205
100
AcDbSymbolTableRecord
100
AcDbLayerTableRecord
  2
COSYS
 70
0
 62
7
  6
CONTINUOUS
370
-3
390
F
  0
LAYER
  5
206
100
AcDbSymbolTableRecord
100
AcDbLayerTableRecord
  2
CURVES
 70
0
 62
7
  6
CONTINUOUS
370
-3
390
F
  0
LAYER
  5
207
100
AcDbSymbolTableRecord
100
AcDbLayerTableRecord
  2
DATUM-PLANES
 70
0
 62
7
  6
CONTINUOUS
370
-3
390
F
  0
LAYER
  5
208
100
AcDbSymbolTableRecord
100
AcDbLayerTableRecord
  2
DIMENSIONS
 70
0
 62
7
  6
CONTINUOUS
370
-3
390
F
  0
LAYER
  5
209
100
AcDbSymbolTableRecord
100
AcDbLayerTableRecord
  2
EBENEN
 70
0
 62
7
  6
CONTINUOUS
370
-3
390
F
  0
LAYER
  5
20A
100
AcDbSymbolTableRecord
100
AcDbLayerTableRecord
  2
FASEN
 70
0
 62
7
  6
CONTINUOUS
370
-3
390
F
  0
LAYER
  5
20B
100
AcDbSymbolTableRecord
100
AcDbLayerTableRecord
  2
FLAECHEN
 70
0
 62
7
  6
CONTINUOUS
370
-3
390
F
  0
LAYER
  5
20C
100
AcDbSymbolTableRecord
100
AcDbLayerTableRecord
  2
GEWINDE
 70
0
 62
7
  6
CONTINUOUS
370
-3
390
F
  0
LAYER
  5
20D
100
AcDbSymbolTableRecord
100
AcDbLayerTableRecord
  2
HOLES
 70
0
 62
7
  6
CONTINUOUS
370
-3
390
F
  0
LAYER
  5
20E
100
AcDbSymbolTableRecord
100
AcDbLayerTableRecord
  2
KOERPER
 70
0
 62
7
  6
CONTINUOUS
370
-3
390
F
  0
LAYER
  5
20F
100
AcDbSymbolTableRecord
100
AcDbLayerTableRecord
  2
KOORDSYS
 70
0
 62
7
  6
CONTINUOUS
370
-3
390
F
  0
LAYER
  5
210
100
AcDbSymbolTableRecord
100
AcDbLayerTableRecord
  2
KURVEN
 70
0
 62
7
  6
CONTINUOUS
370
-3
390
F
  0
LAYER
  5
211
100
AcDbSymbolTableRecord
100
AcDbLayerTableRecord
  2
ORI_FL
 70
0
 62
7
  6
CONTINUOUS
370
-3
390
F
  0
LAYER
  5
212
100
AcDbSymbolTableRecord
100
AcDbLayerTableRecord
  2
POINTS
 70
0
 62
7
  6
CONTINUOUS
370
-3
390
F
  0
LAYER
  5
213
100
AcDbSymbolTableRecord
100
AcDbLayerTableRecord
  2
PUNKTE
 70
0
 62
7
  6
CONTINUOUS
370
-3
390
F
  0
LAYER
  5
214
100
AcDbSymbolTableRecord
100
AcDbLayerTableRecord
  2
QUILTS
 70
0
 62
7
  6
CONTINUOUS
370
-3
390
F
  0
LAYER
  5
215
100
AcDbSymbolTableRecord
100
AcDbLayerTableRecord
  2
ROUNDS
 70
0
 62
7
  6
CONTINUOUS
370
-3
390
F
  0
LAYER
  5
216
100
AcDbSymbolTableRecord
100
AcDbLayerTableRecord
  2
RUNDUNGEN
 70
0
 62
7
  6
CONTINUOUS
370
-3
390
F
  0
LAYER
  5
217
100
AcDbSymbolTableRecord
100
AcDbLayerTableRecord
  2
S-EBENEN
 70
0
 62
7
  6
CONTINUOUS
370
-3
390
F
  0
LAYER
  5
218
100
AcDbSymbolTableRecord
100
AcDbLayerTableRecord
  2
S-KOORDINATENSYSTEM
 70
0
 62
7
  6
CONTINUOUS
370
-3
390
F
  0
LAYER
  5
219
100
AcDbSymbolTableRecord
100
AcDbLayerTableRecord
  2
SAMMELFLAECHEN
 70
0
 62
7
  6
CONTINUOUS
370
-3
390
F
  0
LAYER
  5
21A
100
AcDbSymbolTableRecord
100
AcDbLayerTableRecord
  2
SKETCH
 70
0
 62
7
  6
CONTINUOUS
370
-3
390
F
  0
LAYER
  5
21B
100
AcDbSymbolTableRecord
100
AcDbLayerTableRecord
  2
SOLIDS
 70
0
 62
7
  6
CONTINUOUS
370
-3
390
F
  0
LAYER
  5
21C
100
AcDbSymbolTableRecord
100
AcDbLayerTableRecord
  2
SURFACES
 70
0
 62
7
  6
CONTINUOUS
370
-3
390
F
  0
LAYER
  5
21D
100
AcDbSymbolTableRecord
100
AcDbLayerTableRecord
  2
TEMP_QUILTS
 70
0
 62
7
  6
CONTINUOUS
370
-3
390
F
  0
LAYER
  5
21E
100
AcDbSymbolTableRecord
100
AcDbLayerTableRecord
  2
XSEC_DATUMS
 70
0
 62
7
  6
CONTINUOUS
370
-3
390
F
  0
ENDTAB
  0
TABLE
  2
STYLE
  5
3
100
AcDbSymbolTable
 70
1
  0
STYLE
  5
11
100
AcDbSymbolTableRecord
100
AcDbTextStyleTableRecord
  2
STANDARD
 70
0
 40
0.0
 41
0.8
 50
0.0
 71
0
 42
0.2
  3
txt
  4

  0
ENDTAB
  0
TABLE
  2
VIEW
  5
6
100
AcDbSymbolTable
 70
0
  0
ENDTAB
  0
TABLE
  2
UCS
  5
7
100
AcDbSymbolTable
 70
0
  0
ENDTAB
  0
TABLE
  2
APPID
  5
9
100
AcDbSymbolTable
 70
1
  0
APPID
  5
21F
100
AcDbSymbolTableRecord
100
AcDbRegAppTableRecord
  2
ACAD
 70
0
  0
ENDTAB
  0
TABLE
  2
BLOCK_RECORD
  5
1
100
AcDbSymbolTable
 70
0
  0
BLOCK_RECORD
  5
1F
100
AcDbSymbolTableRecord
100
AcDbBlockTableRecord
  2
*MODEL_SPACE
  0
BLOCK_RECORD
  5
1B
100
AcDbSymbolTableRecord
100
AcDbBlockTableRecord
  2
*PAPER_SPACE
  0
BLOCK_RECORD
  5
220
100
AcDbSymbolTableRecord
100
AcDbBlockTableRecord
  2
_FILLED
  0
BLOCK_RECORD
  5
221
100
AcDbSymbolTableRecord
100
AcDbBlockTableRecord
  2
*D0
  0
BLOCK_RECORD
  5
222
100
AcDbSymbolTableRecord
100
AcDbBlockTableRecord
  2
*D1
  0
BLOCK_RECORD
  5
223
100
AcDbSymbolTableRecord
100
AcDbBlockTableRecord
  2
*D2
  0
BLOCK_RECORD
  5
224
100
AcDbSymbolTableRecord
100
AcDbBlockTableRecord
  2
*D3
  0
BLOCK_RECORD
  5
225
100
AcDbSymbolTableRecord
100
AcDbBlockTableRecord
  2
*D4
  0
BLOCK_RECORD
  5
226
100
AcDbSymbolTableRecord
100
AcDbBlockTableRecord
  2
*D5
  0
ENDTAB
  0
TABLE
  2
DIMSTYLE
  5
A
100
AcDbSymbolTable
 70
1
100
AcDbDimStyleTable
 71
0
  0
DIMSTYLE
105
227
100
AcDbSymbolTableRecord
100
AcDbDimStyleTableRecord
  2
STANDARD
 70
0
  3

  4

 40
1.0
 41
2.5
 42
0.0625
 43
0.38
 44
0.18
 45
0.0
 46
0.0
 47
0.01
 48
0.01
140
2.5
141
0.09
142
0.0
143
25.4
144
1.0
145
0.0
146
1.0
147
0.09
 71
1.0
 72
0.0
 73
0
 74
0
 75
0
 76
0
 77
1
 78
8
170
0
171
2
172
0
173
0
174
0
175
0
176
0
177
0
178
5
270
2
271
2
272
2
273
2
274
2
275
0
280
0
281
0
282
0
283
1
284
8
285
0
286
0
287
3
288
0
340
11
341
220
342
220
343
220
344
220
  0
DIMSTYLE
105
228
100
AcDbSymbolTableRecord
100
AcDbDimStyleTableRecord
  2
DIMSTYLE_1
 70
0
  3

  4

 40
1.0
 41
2.5
 42
0.0625
 43
0.38
 44
0.18
 45
0.0
 46
0.0
 47
0.2
 48
0.2
140
2.5
141
0.09
142
0.0
143
25.4
144
1.0
145
0.0
146
1.0
147
0.09
 71
0.0
 72
0.0
 73
0
 74
0
 75
0
 76
0
 77
1
 78
8
170
0
171
2
172
0
173
0
174
0
175
0
176
0
177
0
178
5
270
2
271
2
272
2
273
2
274
2
275
0
280
0
281
0
282
0
283
1
284
8
285
0
286
0
287
3
288
0
340
11
341
220
342
220
343
220
344
220
  0
DIMSTYLE
105
229
100
AcDbSymbolTableRecord
100
AcDbDimStyleTableRecord
  2
DIMSTYLE_2
 70
0
  3

  4

 40
1.0
 41
2.5
 42
0.0625
 43
0.38
 44
0.18
 45
0.0
 46
0.0
 47
0.5
 48
0.5
140
2.5
141
0.09
142
0.0
143
25.4
144
1.0
145
0.0
146
1.0
147
0.09
 71
0.0
 72
0.0
 73
0
 74
0
 75
0
 76
0
 77
1
 78
8
170
0
171
2
172
0
173
0
174
0
175
0
176
0
177
0
178
5
270
2
271
2
272
2
273
2
274
2
275
0
280
0
281
0
282
0
283
1
284
8
285
0
286
0
287
3
288
0
340
11
341
220
342
220
343
220
344
220
  0
DIMSTYLE
105
22A
100
AcDbSymbolTableRecord
100
AcDbDimStyleTableRecord
  2
DIMSTYLE_3
 70
0
  3

  4

 40
1.0
 41
2.5
 42
0.0625
 43
0.38
 44
0.18
 45
0.0
 46
0.0
 47
0.1
 48
0.1
140
2.5
141
0.09
142
0.0
143
25.4
144
1.0
145
0.0
146
1.0
147
0.09
 71
0.0
 72
0.0
 73
0
 74
0
 75
0
 76
0
 77
1
 78
8
170
0
171
2
172
0
173
0
174
0
175
0
176
0
177
0
178
5
270
2
271
2
272
2
273
2
274
2
275
0
280
0
281
0
282
0
283
1
284
8
285
0
286
0
287
3
288
0
340
11
341
220
342
220
343
220
344
220
  0
ENDTAB
  0
ENDSEC
  0
SECTION
  2
BLOCKS
  0
BLOCK
  5
20
100
AcDbEntity
  8
0
100
AcDbBlockBegin
  2
*MODEL_SPACE
 70
0
 10
0.0
 20
0.0
 30
0.0
  3
*MODEL_SPACE
  1

  0
ENDBLK
  5
21
100
AcDbEntity
  8
0
100
AcDbBlockEnd
  0
BLOCK
  5
1C
100
AcDbEntity
  8
0
100
AcDbBlockBegin
  2
*PAPER_SPACE
 70
0
 10
0.0
 20
0.0
 30
0.0
  3
*PAPER_SPACE
  1

  0
ENDBLK
  5
1D
100
AcDbEntity
  8
0
100
AcDbBlockEnd
  0
BLOCK
  5
22B
100
AcDbEntity
  8
DIMENSIONS
100
AcDbBlockBegin
 62
2
  6
CONTINUOUS
  2
*D0
 70
65
 10
0.0
 20
0.0
  3
*D0
  1

  0
LINE
  5
22C
100
AcDbEntity
  8
DIMENSIONS
100
AcDbLine
 62
2
  6
CONTINUOUS
 10
77.1572665399
 20
955.3766770225
 11
67.1572665399
 21
955.3766770225
  0
LINE
  5
22D
100
AcDbEntity
  8
DIMENSIONS
100
AcDbLine
 62
2
  6
CONTINUOUS
 10
77.1572665399
 20
936.3766770225
 11
67.1572665399
 21
936.3766770225
  0
LINE
  5
22E
100
AcDbEntity
  8
DIMENSIONS
100
AcDbLine
 62
2
  6
CONTINUOUS
 10
68.1572665399
 20
955.3766770225
 11
68.1572665399
 21
945.8766770225
  0
LINE
  5
22F
100
AcDbEntity
  8
DIMENSIONS
100
AcDbLine
 62
2
  6
CONTINUOUS
 10
68.1572665399
 20
936.3766770225
 11
68.1572665399
 21
945.8766770225
  0
INSERT
  5
230
100
AcDbEntity
  8
DIMENSIONS
100
AcDbBlockReference
 62
2
  6
CONTINUOUS
  2
_FILLED
 10
68.1572665399
 20
955.3766770225
 41
2.5
 42
2.5
 43
2.5
 50
90.0
  0
INSERT
  5
231
100
AcDbEntity
  8
DIMENSIONS
100
AcDbBlockReference
 62
2
  6
CONTINUOUS
  2
_FILLED
 10
68.1572665399
 20
936.3766770225
 41
2.5
 42
2.5
 43
2.5
 50
270.0
  0
ENDBLK
  5
232
100
AcDbEntity
  8
0
  6
BYBLOCK
 62
0
100
AcDbBlockEnd
  0
BLOCK
  5
233
100
AcDbEntity
  8
DIMENSIONS
100
AcDbBlockBegin
 62
2
  6
CONTINUOUS
  2
*D1
 70
65
 10
0.0
 20
0.0
  3
*D1
  1

  0
LINE
  5
234
100
AcDbEntity
  8
DIMENSIONS
100
AcDbLine
 62
2
  6
CONTINUOUS
 10
77.1572665399
 20
936.3766770225
 11
67.1572665399
 21
936.3766770225
  0
LINE
  5
235
100
AcDbEntity
  8
DIMENSIONS
100
AcDbLine
 62
2
  6
CONTINUOUS
 10
77.1572665399
 20
782.3766770225
 11
67.1572665399
 21
782.3766770225
  0
LINE
  5
236
100
AcDbEntity
  8
DIMENSIONS
100
AcDbLine
 62
2
  6
CONTINUOUS
 10
68.1572665399
 20
936.3766770225
 11
68.1572665399
 21
859.3766770225
  0
LINE
  5
237
100
AcDbEntity
  8
DIMENSIONS
100
AcDbLine
 62
2
  6
CONTINUOUS
 10
68.1572665399
 20
782.3766770225
 11
68.1572665399
 21
859.3766770225
  0
INSERT
  5
238
100
AcDbEntity
  8
DIMENSIONS
100
AcDbBlockReference
 62
2
  6
CONTINUOUS
  2
_FILLED
 10
68.1572665399
 20
936.3766770225
 41
2.5
 42
2.5
 43
2.5
 50
90.0
  0
INSERT
  5
239
100
AcDbEntity
  8
DIMENSIONS
100
AcDbBlockReference
 62
2
  6
CONTINUOUS
  2
_FILLED
 10
68.1572665399
 20
782.3766770225
 41
2.5
 42
2.5
 43
2.5
 50
270.0
  0
ENDBLK
  5
23A
100
AcDbEntity
  8
0
  6
BYBLOCK
 62
0
100
AcDbBlockEnd
  0
BLOCK
  5
23B
100
AcDbEntity
  8
DIMENSIONS
100
AcDbBlockBegin
 62
2
  6
CONTINUOUS
  2
*D2
 70
65
 10
0.0
 20
0.0
  3
*D2
  1

  0
LINE
  5
23C
100
AcDbEntity
  8
DIMENSIONS
100
AcDbLine
 62
2
  6
CONTINUOUS
 10
78.1572665399
 20
956.3766770225
 11
78.1572665399
 21
969.119142233
  0
LINE
  5
23D
100
AcDbEntity
  8
DIMENSIONS
100
AcDbLine
 62
2
  6
CONTINUOUS
 10
400.1572665399
 20
907.3766770225
 11
400.1572665399
 21
969.119142233
  0
LINE
  5
23E
100
AcDbEntity
  8
DIMENSIONS
100
AcDbLine
 62
2
  6
CONTINUOUS
 10
78.1572665399
 20
968.119142233
 11
239.1572665399
 21
968.119142233
  0
LINE
  5
23F
100
AcDbEntity
  8
DIMENSIONS
100
AcDbLine
 62
2
  6
CONTINUOUS
 10
400.1572665399
 20
968.119142233
 11
239.1572665399
 21
968.119142233
  0
INSERT
  5
240
100
AcDbEntity
  8
DIMENSIONS
100
AcDbBlockReference
 62
2
  6
CONTINUOUS
  2
_FILLED
 10
78.1572665399
 20
968.119142233
 41
2.5
 42
2.5
 43
2.5
 50
180.0
  0
INSERT
  5
241
100
AcDbEntity
  8
DIMENSIONS
100
AcDbBlockReference
 62
2
  6
CONTINUOUS
  2
_FILLED
 10
400.1572665399
 20
968.119142233
 41
2.5
 42
2.5
 43
2.5
  0
ENDBLK
  5
242
100
AcDbEntity
  8
0
  6
BYBLOCK
 62
0
100
AcDbBlockEnd
  0
BLOCK
  5
243
100
AcDbEntity
  8
DIMENSIONS
100
AcDbBlockBegin
 62
2
  6
CONTINUOUS
  2
*D3
 70
65
 10
0.0
 20
0.0
  3
*D3
  1

  0
LINE
  5
244
100
AcDbEntity
  8
DIMENSIONS
100
AcDbLine
 62
2
  6
CONTINUOUS
 10
77.1572665399
 20
171.5790309598
 11
55.2476448722
 21
171.5790309598
  0
LINE
  5
245
100
AcDbEntity
  8
DIMENSIONS
100
AcDbLine
 62
2
  6
CONTINUOUS
 10
79.1572665399
 20
176.5790309598
 11
55.2476448722
 21
176.5790309598
  0
LINE
  5
246
100
AcDbEntity
  8
DIMENSIONS
100
AcDbLine
 62
2
  6
CONTINUOUS
 10
56.2476448722
 20
171.5790309598
 11
56.2476448722
 21
164.0790309598
  0
LINE
  5
247
100
AcDbEntity
  8
DIMENSIONS
100
AcDbLine
 62
2
  6
CONTINUOUS
 10
56.2476448722
 20
164.0790309598
 11
56.2476448722
 21
174.0790309598
  0
LINE
  5
248
100
AcDbEntity
  8
DIMENSIONS
100
AcDbLine
 62
2
  6
CONTINUOUS
 10
56.2476448722
 20
176.5790309598
 11
56.2476448722
 21
184.0790309598
  0
LINE
  5
249
100
AcDbEntity
  8
DIMENSIONS
100
AcDbLine
 62
2
  6
CONTINUOUS
 10
56.2476448722
 20
184.0790309598
 11
56.2476448722
 21
174.0790309598
  0
INSERT
  5
24A
100
AcDbEntity
  8
DIMENSIONS
100
AcDbBlockReference
 62
2
  6
CONTINUOUS
  2
_FILLED
 10
56.2476448722
 20
171.5790309598
 41
2.5
 42
2.5
 43
2.5
 50
90.0
  0
INSERT
  5
24B
100
AcDbEntity
  8
DIMENSIONS
100
AcDbBlockReference
 62
2
  6
CONTINUOUS
  2
_FILLED
 10
56.2476448722
 20
176.5790309598
 41
2.5
 42
2.5
 43
2.5
 50
270.0
  0
ENDBLK
  5
24C
100
AcDbEntity
  8
0
  6
BYBLOCK
 62
0
100
AcDbBlockEnd
  0
BLOCK
  5
24D
100
AcDbEntity
  8
DIMENSIONS
100
AcDbBlockBegin
 62
2
  6
CONTINUOUS
  2
*D4
 70
65
 10
0.0
 20
0.0
  3
*D4
  1

  0
LINE
  5
24E
100
AcDbEntity
  8
DIMENSIONS
100
AcDbLine
 62
2
  6
CONTINUOUS
 10
77.6864551745
 20
171.5790309598
 11
60.2029219158
 21
171.5790309598
  0
LINE
  5
24F
100
AcDbEntity
  8
DIMENSIONS
100
AcDbLine
 62
2
  6
CONTINUOUS
 10
77.9589102697
 20
167.5790309598
 11
60.2029219158
 21
167.5790309598
  0
LINE
  5
250
100
AcDbEntity
  8
DIMENSIONS
100
AcDbLine
 62
2
  6
CONTINUOUS
 10
61.2029219158
 20
171.5790309598
 11
61.2029219158
 21
179.0790309598
  0
LINE
  5
251
100
AcDbEntity
  8
DIMENSIONS
100
AcDbLine
 62
2
  6
CONTINUOUS
 10
61.2029219158
 20
179.0790309598
 11
61.2029219158
 21
169.5790309598
  0
LINE
  5
252
100
AcDbEntity
  8
DIMENSIONS
100
AcDbLine
 62
2
  6
CONTINUOUS
 10
61.2029219158
 20
167.5790309598
 11
61.2029219158
 21
161.2397100455
  0
LINE
  5
253
100
AcDbEntity
  8
DIMENSIONS
100
AcDbLine
 62
2
  6
CONTINUOUS
 10
61.2029219158
 20
161.2397100455
 11
61.2029219158
 21
169.5790309598
  0
INSERT
  5
254
100
AcDbEntity
  8
DIMENSIONS
100
AcDbBlockReference
 62
2
  6
CONTINUOUS
  2
_FILLED
 10
61.2029219158
 20
171.5790309598
 41
2.5
 42
2.5
 43
2.5
 50
270.0
  0
INSERT
  5
255
100
AcDbEntity
  8
DIMENSIONS
100
AcDbBlockReference
 62
2
  6
CONTINUOUS
  2
_FILLED
 10
61.2029219158
 20
167.5790309598
 41
2.5
 42
2.5
 43
2.5
 50
90.0
  0
ENDBLK
  5
256
100
AcDbEntity
  8
0
  6
BYBLOCK
 62
0
100
AcDbBlockEnd
  0
BLOCK
  5
257
100
AcDbEntity
  8
DIMENSIONS
100
AcDbBlockBegin
 62
2
  6
CONTINUOUS
  2
*D5
 70
65
 10
0.0
 20
0.0
  3
*D5
  1

  0
LINE
  5
258
100
AcDbEntity
  8
DIMENSIONS
100
AcDbLine
 62
2
  6
CONTINUOUS
 10
86.1572665399
 20
171.9518439718
 11
86.1572665399
 21
188.2093293021
  0
LINE
  5
259
100
AcDbEntity
  8
DIMENSIONS
100
AcDbLine
 62
2
  6
CONTINUOUS
 10
78.1572665399
 20
175.7662153043
 11
78.1572665399
 21
188.2093293021
  0
LINE
  5
25A
100
AcDbEntity
  8
DIMENSIONS
100
AcDbLine
 62
2
  6
CONTINUOUS
 10
86.1572665399
 20
187.2093293021
 11
82.1572665399
 21
187.2093293021
  0
LINE
  5
25B
100
AcDbEntity
  8
DIMENSIONS
100
AcDbLine
 62
2
  6
CONTINUOUS
 10
78.1572665399
 20
187.2093293021
 11
82.1572665399
 21
187.2093293021
  0
INSERT
  5
25C
100
AcDbEntity
  8
DIMENSIONS
100
AcDbBlockReference
 62
2
  6
CONTINUOUS
  2
_FILLED
 10
86.1572665399
 20
187.2093293021
 41
2.5
 42
2.5
 43
2.5
  0
INSERT
  5
25D
100
AcDbEntity
  8
DIMENSIONS
100
AcDbBlockReference
 62
2
  6
CONTINUOUS
  2
_FILLED
 10
78.1572665399
 20
187.2093293021
 41
2.5
 42
2.5
 43
2.5
 50
180.0
  0
ENDBLK
  5
25E
100
AcDbEntity
  8
0
  6
BYBLOCK
 62
0
100
AcDbBlockEnd
  0
BLOCK
  5
25F
100
AcDbEntity
  8
0
100
AcDbBlockBegin
  2
_FILLED
 70
64
 10
0.0
 20
0.0
  3
_FILLED
  1

  0
SOLID
  5
260
100
AcDbEntity
  8
0
  6
BYBLOCK
 62
0
100
AcDbTrace
 10
0.0
 20
0.0
 11
-1.0
 21
0.15
 12
-1.0
 22
-0.15
 13
-1.0
 23
-0.15
  0
ENDBLK
  5
261
100
AcDbEntity
  8
0
  6
BYBLOCK
 62
0
100
AcDbBlockEnd
  0
ENDSEC
  0
SECTION
  2
ENTITIES
  0
LINE
  5
262
100
AcDbEntity
  8
0
100
AcDbLine
 62
7
  6
CONTINUOUS
 10
450.6880372707
 20
880.3766770225
 11
450.6880372707
 21
897.9766770225
  0
SOLID
  5
263
100
AcDbEntity
  8
0
100
AcDbTrace
 62
7
  6
CONTINUOUS
 10
449.9380372707
 20
884.3766770225
 11
450.6880372707
 21
880.3766770225
 12
451.4380372707
 22
884.3766770225
 13
451.4380372707
 23
884.3766770225
  0
LINE
  5
264
100
AcDbEntity
  8
0
100
AcDbLine
 62
7
  6
CONTINUOUS
 10
55.6264958091
 20
880.3766770225
 11
55.6264958091
 21
897.9766770225
  0
SOLID
  5
265
100
AcDbEntity
  8
0
100
AcDbTrace
 62
7
  6
CONTINUOUS
 10
54.8764958091
 20
884.3766770225
 11
55.6264958091
 21
880.3766770225
 12
56.3764958091
 22
884.3766770225
 13
56.3764958091
 23
884.3766770225
  0
DIMENSION
  5
266
100
AcDbEntity
  8
DIMENSIONS
100
AcDbDimension
 62
2
  6
CONTINUOUS
  2
*D0
 10
68.1572665399
 20
936.3766770225
 11
67.5322665399
 21
944.1802484511
 70
160
 42
19.0
  3
DIMSTYLE_1
100
AcDbAlignedDimension
 13
77.1572665399
 23
955.3766770225
 14
77.1572665399
 24
936.3766770225
 50
270.0
100
AcDbRotatedDimension
  0
DIMENSION
  5
267
100
AcDbEntity
  8
DIMENSIONS
100
AcDbDimension
 62
2
  6
CONTINUOUS
  2
*D1
 10
68.1572665399
 20
782.3766770225
 11
67.5322665399
 21
856.7873913082
 70
160
 42
154.0
  3
DIMSTYLE_2
100
AcDbAlignedDimension
 13
77.1572665399
 23
936.3766770225
 14
77.1572665399
 24
782.3766770225
 50
270.0
100
AcDbRotatedDimension
  0
DIMENSION
  5
268
100
AcDbEntity
  8
DIMENSIONS
100
AcDbDimension
 62
2
  6
CONTINUOUS
  2
*D2
 10
400.1572665399
 20
968.119142233
 11
236.3001236828
 21
968.744142233
 70
160
 42
322.0
  3
DIMSTYLE_2
100
AcDbAlignedDimension
 13
78.1572665399
 23
956.3766770225
 14
400.1572665399
 24
907.3766770225
100
AcDbRotatedDimension
  0
DIMENSION
  5
269
100
AcDbEntity
  8
DIMENSIONS
100
AcDbDimension
 62
2
  6
CONTINUOUS
  2
*D3
 10
56.2476448722
 20
176.5790309598
 11
55.6226448722
 21
173.1861738169
 70
160
 42
5.0
  3
DIMSTYLE_3
100
AcDbAlignedDimension
 13
77.1572665399
 23
171.5790309598
 14
79.1572665399
 24
176.5790309598
 50
90.0
100
AcDbRotatedDimension
  0
DIMENSION
  5
26A
100
AcDbEntity
  8
DIMENSIONS
100
AcDbDimension
 62
2
  6
CONTINUOUS
  2
*D4
 10
61.2029219158
 20
167.5790309598
 11
60.5779219158
 21
161.2397100455
 70
160
 42
4.0
  3
DIMSTYLE_3
100
AcDbAlignedDimension
 13
77.6864551745
 23
171.5790309598
 14
77.9589102697
 24
167.5790309598
 50
270.0
100
AcDbRotatedDimension
  0
DIMENSION
  5
26B
100
AcDbEntity
  8
DIMENSIONS
100
AcDbDimension
 62
2
  6
CONTINUOUS
  2
*D5
 10
78.1572665399
 20
187.2093293021
 11
81.1751236828
 21
187.8343293021
 70
160
 42
8.0
  3
DIMSTYLE_1
100
AcDbAlignedDimension
 13
86.1572665399
 23
171.9518439718
 14
78.1572665399
 24
175.7662153043
 50
180.0
100
AcDbRotatedDimension
  0
SOLID
  5
26C
100
AcDbEntity
  8
0
100
AcDbTrace
 62
5
  6
CONTINUOUS
 10
170.8965197314
 20
870.0101150944
 11
162.452075287
 21
861.8619669463
 12
157.5631863981
 22
860.3804854648
 13
157.5631863981
 23
860.3804854648
  0
SOLID
  5
26D
100
AcDbEntity
  8
0
100
AcDbTrace
 62
5
  6
CONTINUOUS
 10
170.8965197314
 20
870.0101150944
 11
157.5631863981
 21
860.3804854648
 12
167.0446678796
 22
870.0101150944
 13
167.0446678796
 23
870.0101150944
  0
SOLID
  5
26E
100
AcDbEntity
  8
0
100
AcDbTrace
 62
5
  6
CONTINUOUS
 10
157.5631863981
 20
860.3804854648
 11
160.6742975092
 21
860.0841891685
 12
157.5631863981
 22
856.9730780574
 13
157.5631863981
 23
856.9730780574
  0
SOLID
  5
26F
100
AcDbEntity
  8
0
100
AcDbTrace
 62
5
  6
CONTINUOUS
 10
157.5631863981
 20
860.3804854648
 11
157.5631863981
 21
856.9730780574
 12
154.8965197314
 22
850.0101150944
 13
154.8965197314
 23
850.0101150944
  0
SOLID
  5
270
100
AcDbEntity
  8
0
100
AcDbTrace
 62
5
  6
CONTINUOUS
 10
157.5631863981
 20
870.0101150944
 11
157.5631863981
 21
860.3804854648
 12
154.8965197314
 22
850.0101150944
 13
154.8965197314
 23
850.0101150944
  0
SOLID
  5
271
100
AcDbEntity
  8
0
100
AcDbTrace
 62
5
  6
CONTINUOUS
 10
157.5631863981
 20
870.0101150944
 11
154.8965197314
 21
850.0101150944
 12
154.8965197314
 22
870.0101150944
 13
154.8965197314
 23
870.0101150944
  0
SOLID
  5
272
100
AcDbEntity
  8
0
100
AcDbTrace
 62
5
  6
CONTINUOUS
 10
154.8965197314
 20
850.0101150944
 11
157.5631863981
 21
856.9730780574
 12
157.5631863981
 22
850.0101150944
 13
157.5631863981
 23
850.0101150944
  0
SOLID
  5
273
100
AcDbEntity
  8
0
100
AcDbTrace
 62
5
  6
CONTINUOUS
 10
160.6742975092
 20
860.0841891685
 11
157.5631863981
 21
860.3804854648
 12
162.452075287
 22
861.8619669463
 13
162.452075287
 23
861.8619669463
  0
SOLID
  5
274
100
AcDbEntity
  8
0
100
AcDbTrace
 62
5
  6
CONTINUOUS
 10
167.9335567685
 20
850.0101150944
 11
160.6742975092
 21
860.0841891685
 12
162.452075287
 22
861.8619669463
 13
162.452075287
 23
861.8619669463
  0
SOLID
  5
275
100
AcDbEntity
  8
0
100
AcDbTrace
 62
5
  6
CONTINUOUS
 10
167.9335567685
 20
850.0101150944
 11
162.452075287
 21
861.8619669463
 12
171.3409641759
 22
850.0101150944
 13
171.3409641759
 23
850.0101150944
  0
SOLID
  5
276
100
AcDbEntity
  8
0
100
AcDbTrace
 62
5
  6
CONTINUOUS
 10
179.3409641759
 20
870.1582587214
 11
180.3780012129
 21
870.3064113907
 12
181.4150382499
 22
870.1582587214
 13
181.4150382499
 23
870.1582587214
  0
SOLID
  5
277
100
AcDbEntity
  8
0
100
AcDbTrace
 62
5
  6
CONTINUOUS
 10
181.4150382499
 20
870.1582587214
 11
178.452075287
 21
870.0101150944
 12
179.3409641759
 22
870.1582587214
 13
179.3409641759
 23
870.1582587214
  0
SOLID
  5
278
100
AcDbEntity
  8
0
100
AcDbTrace
 62
5
  6
CONTINUOUS
 10
178.452075287
 20
870.0101150944
 11
181.4150382499
 21
870.1582587214
 12
182.452075287
 22
870.0101150944
 13
182.452075287
 23
870.0101150944
  0
SOLID
  5
279
100
AcDbEntity
  8
0
100
AcDbTrace
 62
5
  6
CONTINUOUS
 10
182.452075287
 20
870.0101150944
 11
177.5631863981
 21
869.8619714674
 12
178.452075287
 22
870.0101150944
 13
178.452075287
 23
870.0101150944
  0
SOLID
  5
27A
100
AcDbEntity
  8
0
100
AcDbTrace
 62
5
  6
CONTINUOUS
 10
177.5631863981
 20
869.8619714674
 11
182.452075287
 21
870.0101150944
 12
183.3409641759
 22
869.8619714674
 13
183.3409641759
 23
869.8619714674
  0
SOLID
  5
27B
100
AcDbEntity
  8
0
100
AcDbTrace
 62
5
  6
CONTINUOUS
 10
183.3409641759
 20
869.8619714674
 11
176.6742975092
 21
869.5656638683
 12
177.5631863981
 22
869.8619714674
 13
177.5631863981
 23
869.8619714674
  0
SOLID
  5
27C
100
AcDbEntity
  8
0
100
AcDbTrace
 62
5
  6
CONTINUOUS
 10
176.6742975092
 20
869.5656638683
 11
183.3409641759
 21
869.8619714674
 12
184.2298530648
 22
869.5656638683
 13
184.2298530648
 23
869.5656638683
  0
SOLID
  5
27D
100
AcDbEntity
  8
0
100
AcDbTrace
 62
5
  6
CONTINUOUS
 10
184.2298530648
 20
869.5656638683
 11
175.9335567685
 21
869.1212352478
 12
176.6742975092
 22
869.5656638683
 13
176.6742975092
 23
869.5656638683
  0
SOLID
  5
27E
100
AcDbEntity
  8
0
100
AcDbTrace
 62
5
  6
CONTINUOUS
 10
175.9335567685
 20
869.1212352478
 11
184.2298530648
 21
869.5656638683
 12
185.1187419536
 22
869.1212352478
 13
185.1187419536
 23
869.1212352478
  0
SOLID
  5
27F
100
AcDbEntity
  8
0
100
AcDbTrace
 62
5
  6
CONTINUOUS
 10
185.1187419536
 20
869.1212352478
 11
175.1928160277
 21
868.6767851519
 12
175.9335567685
 22
869.1212352478
 13
175.9335567685
 23
869.1212352478
  0
SOLID
  5
280
100
AcDbEntity
  8
0
100
AcDbTrace
 62
5
  6
CONTINUOUS
 10
175.1928160277
 20
868.6767851519
 11
185.1187419536
 21
869.1212352478
 12
185.7113345462
 22
868.6767851519
 13
185.7113345462
 23
868.6767851519
  0
SOLID
  5
281
100
AcDbEntity
  8
0
100
AcDbTrace
 62
5
  6
CONTINUOUS
 10
185.7113345462
 20
868.6767851519
 11
174.7483715833
 21
868.2323373166
 12
175.1928160277
 22
868.6767851519
 13
175.1928160277
 23
868.6767851519
  0
SOLID
  5
282
100
AcDbEntity
  8
0
100
AcDbTrace
 62
5
  6
CONTINUOUS
 10
174.7483715833
 20
868.2323373166
 11
185.7113345462
 21
868.6767851519
 12
186.452075287
 22
868.0841891685
 13
186.452075287
 23
868.0841891685
  0
SOLID
  5
283
100
AcDbEntity
  8
0
100
AcDbTrace
 62
5
  6
CONTINUOUS
 10
179.3409641759
 20
867.7878860905
 11
178.452075287
 21
867.6397424635
 12
174.1557789907
 22
867.4915988365
 13
174.1557789907
 23
867.4915988365
  0
SOLID
  5
284
100
AcDbEntity
  8
0
100
AcDbTrace
 62
5
  6
CONTINUOUS
 10
180.5261493611
 20
867.9360410203
 11
179.3409641759
 21
867.7878860905
 12
174.1557789907
 22
867.4915988365
 13
174.1557789907
 23
867.4915988365
  0
SOLID
  5
285
100
AcDbEntity
  8
0
100
AcDbTrace
 62
5
  6
CONTINUOUS
 10
174.7483715833
 20
868.2323373166
 11
186.452075287
 21
868.0841891685
 12
180.5261493611
 22
867.9360410203
 13
180.5261493611
 23
867.9360410203
  0
SOLID
  5
286
100
AcDbEntity
  8
0
100
AcDbTrace
 62
5
  6
CONTINUOUS
 10
180.5261493611
 20
867.9360410203
 11
174.1557789907
 21
867.4915988365
 12
174.7483715833
 22
868.2323373166
 13
174.7483715833
 23
868.2323373166
  0
SOLID
  5
287
100
AcDbEntity
  8
0
100
AcDbTrace
 62
5
  6
CONTINUOUS
 10
181.5631863981
 20
867.7878860905
 11
180.5261493611
 21
867.9360410203
 12
186.452075287
 22
868.0841891685
 13
186.452075287
 23
868.0841891685
  0
SOLID
  5
288
100
AcDbEntity
  8
0
100
AcDbTrace
 62
5
  6
CONTINUOUS
 10
182.452075287
 20
867.6397424635
 11
181.5631863981
 21
867.7878860905
 12
186.452075287
 22
868.0841891685
 13
186.452075287
 23
868.0841891685
  0
SOLID
  5
289
100
AcDbEntity
  8
0
100
AcDbTrace
 62
5
  6
CONTINUOUS
 10
182.452075287
 20
867.6397424635
 11
186.452075287
 21
868.0841891685
 12
186.8965197314
 22
867.4915988365
 13
186.8965197314
 23
867.4915988365
  0
SOLID
  5
28A
100
AcDbEntity
  8
0
100
AcDbTrace
 62
5
  6
CONTINUOUS
 10
174.1557789907
 20
867.4915988365
 11
178.452075287
 21
867.6397424635
 12
177.7113345462
 22
867.3434563397
 13
177.7113345462
 23
867.3434563397
  0
SOLID
  5
28B
100
AcDbEntity
  8
0
100
AcDbTrace
 62
5
  6
CONTINUOUS
 10
186.8965197314
 20
867.4915988365
 11
183.1928160277
 21
867.3434563397
 12
182.452075287
 22
867.6397424635
 13
182.452075287
 23
867.6397424635
  0
SOLID
  5
28C
100
AcDbEntity
  8
0
100
AcDbTrace
 62
5
  6
CONTINUOUS
 10
177.7113345462
 20
867.3434563397
 11
177.1187419536
 21
867.0471521315
 12
173.8594826944
 22
866.8990062439
 13
173.8594826944
 23
866.8990062439
  0
SOLID
  5
28D
100
AcDbEntity
  8
0
100
AcDbTrace
 62
5
  6
CONTINUOUS
 10
177.7113345462
 20
867.3434563397
 11
173.8594826944
 21
866.8990062439
 12
174.1557789907
 22
867.4915988365
 13
174.1557789907
 23
867.4915988365
  0
SOLID
  5
28E
100
AcDbEntity
  8
0
100
AcDbTrace
 62
5
  6
CONTINUOUS
 10
183.7854086203
 20
866.8990062439
 11
183.1928160277
 21
867.3434563397
 12
186.8965197314
 22
867.4915988365
 13
186.8965197314
 23
867.4915988365
  0
SOLID
  5
28F
100
AcDbEntity
  8
0
100
AcDbTrace
 62
5
  6
CONTINUOUS
 10
183.7854086203
 20
866.8990062439
 11
186.8965197314
 21
867.4915988365
 12
187.3409641759
 22
866.7508558352
 13
187.3409641759
 23
866.7508558352
  0
SOLID
  5
290
100
AcDbEntity
  8
0
100
AcDbTrace
 62
5
  6
CONTINUOUS
 10
173.8594826944
 20
866.8990062439
 11
177.1187419536
 21
867.0471521315
 12
176.6742975092
 22
866.602707687
 13
176.6742975092
 23
866.602707687
  0
SOLID
  5
291
100
AcDbEntity
  8
0
100
AcDbTrace
 62
5
  6
CONTINUOUS
 10
187.3409641759
 20
866.7508558352
 11
184.3780012129
 21
866.4545595389
 12
183.7854086203
 22
866.8990062439
 13
183.7854086203
 23
866.8990062439
  0
SOLID
  5
292
100
AcDbEntity
  8
0
100
AcDbTrace
 62
5
  6
CONTINUOUS
 10
176.6742975092
 20
866.602707687
 11
173.5631863981
 21
866.1582632426
 12
173.8594826944
 22
866.8990062439
 13
173.8594826944
 23
866.8990062439
  0
SOLID
  5
293
100
AcDbEntity
  8
0
100
AcDbTrace
 62
5
  6
CONTINUOUS
 10
173.5631863981
 20
866.1582632426
 11
176.6742975092
 21
866.602707687
 12
176.2298530648
 22
866.0101060522
 13
176.2298530648
 23
866.0101060522
  0
SOLID
  5
294
100
AcDbEntity
  8
0
100
AcDbTrace
 62
5
  6
CONTINUOUS
 10
184.3780012129
 20
866.4545595389
 11
187.3409641759
 21
866.7508558352
 12
187.6372604722
 22
866.0101060522
 13
187.6372604722
 23
866.0101060522
  0
SOLID
  5
295
100
AcDbEntity
  8
0
100
AcDbTrace
 62
5
  6
CONTINUOUS
 10
187.6372604722
 20
866.0101060522
 11
184.8224456574
 21
865.7138187981
 12
184.3780012129
 22
866.4545595389
 13
184.3780012129
 23
866.4545595389
  0
SOLID
  5
296
100
AcDbEntity
  8
0
100
AcDbTrace
 62
5
  6
CONTINUOUS
 10
176.2298530648
 20
866.0101060522
 11
173.4150382499
 21
865.4175134596
 12
173.5631863981
 22
866.1582632426
 13
173.5631863981
 23
866.1582632426
  0
SOLID
  5
297
100
AcDbEntity
  8
0
100
AcDbTrace
 62
5
  6
CONTINUOUS
 10
173.4150382499
 20
865.4175134596
 11
176.2298530648
 21
866.0101060522
 12
176.0817049166
 22
865.4175134596
 13
176.0817049166
 23
865.4175134596
  0
SOLID
  5
298
100
AcDbEntity
  8
0
100
AcDbTrace
 62
5
  6
CONTINUOUS
 10
184.8224456574
 20
865.7138187981
 11
187.6372604722
 21
866.0101060522
 12
187.7854086203
 22
865.1212262055
 13
187.7854086203
 23
865.1212262055
  0
SOLID
  5
299
100
AcDbEntity
  8
0
100
AcDbTrace
 62
5
  6
CONTINUOUS
 10
187.7854086203
 20
865.1212262055
 11
184.9705938055
 21
864.9730780574
 12
184.8224456574
 22
865.7138187981
 13
184.8224456574
 23
865.7138187981
  0
SOLID
  5
29A
100
AcDbEntity
  8
0
100
AcDbTrace
 62
5
  6
CONTINUOUS
 10
176.0817049166
 20
865.4175134596
 11
176.0817049166
 21
864.8249299092
 12
173.4150382499
 22
864.6767817611
 13
173.4150382499
 23
864.6767817611
  0
SOLID
  5
29B
100
AcDbEntity
  8
0
100
AcDbTrace
 62
5
  6
CONTINUOUS
 10
176.0817049166
 20
865.4175134596
 11
173.4150382499
 21
864.6767817611
 12
173.4150382499
 22
865.4175134596
 13
173.4150382499
 23
865.4175134596
  0
SOLID
  5
29C
100
AcDbEntity
  8
0
100
AcDbTrace
 62
5
  6
CONTINUOUS
 10
173.4150382499
 20
864.6767817611
 11
176.0817049166
 21
864.8249299092
 12
176.0817049166
 22
864.3804911162
 13
176.0817049166
 23
864.3804911162
  0
SOLID
  5
29D
100
AcDbEntity
  8
0
100
AcDbTrace
 62
5
  6
CONTINUOUS
 10
184.9705938055
 20
864.9730780574
 11
187.7854086203
 21
865.1212262055
 12
187.9335567685
 22
864.3804911162
 13
187.9335567685
 23
864.3804911162
  0
SOLID
  5
29E
100
AcDbEntity
  8
0
100
AcDbTrace
 62
5
  6
CONTINUOUS
 10
187.9335567685
 20
864.3804911162
 11
185.2668901018
 21
864.2323373166
 12
184.9705938055
 22
864.9730780574
 13
184.9705938055
 23
864.9730780574
  0
SOLID
  5
29F
100
AcDbEntity
  8
0
100
AcDbTrace
 62
5
  6
CONTINUOUS
 10
176.0817049166
 20
864.3804911162
 11
173.4150382499
 21
864.0841891685
 12
173.4150382499
 22
864.6767817611
 13
173.4150382499
 23
864.6767817611
  0
SOLID
  5
2A0
100
AcDbEntity
  8
0
100
AcDbTrace
 62
5
  6
CONTINUOUS
 10
173.4150382499
 20
864.0841891685
 11
176.0817049166
 21
864.3804911162
 12
176.2298530648
 22
863.9360410203
 13
176.2298530648
 23
863.9360410203
  0
SOLID
  5
2A1
100
AcDbEntity
  8
0
100
AcDbTrace
 62
5
  6
CONTINUOUS
 10
176.2298530648
 20
863.9360410203
 11
173.5631863981
 21
863.4915909245
 12
173.4150382499
 22
864.0841891685
 13
173.4150382499
 23
864.0841891685
  0
SOLID
  5
2A2
100
AcDbEntity
  8
0
100
AcDbTrace
 62
5
  6
CONTINUOUS
 10
173.5631863981
 20
863.4915909245
 11
176.2298530648
 21
863.9360410203
 12
176.3780012129
 22
863.4915909245
 13
176.3780012129
 23
863.4915909245
  0
SOLID
  5
2A3
100
AcDbEntity
  8
0
100
AcDbTrace
 62
5
  6
CONTINUOUS
 10
176.8224456574
 20
863.1953002796
 11
176.9705938055
 21
862.8990039833
 12
173.7113345462
 22
862.7508547049
 13
173.7113345462
 23
862.7508547049
  0
SOLID
  5
2A4
100
AcDbEntity
  8
0
100
AcDbTrace
 62
5
  6
CONTINUOUS
 10
176.3780012129
 20
863.4915909245
 11
176.8224456574
 21
863.1953002796
 12
173.7113345462
 22
862.7508547049
 13
173.7113345462
 23
862.7508547049
  0
SOLID
  5
2A5
100
AcDbEntity
  8
0
100
AcDbTrace
 62
5
  6
CONTINUOUS
 10
176.3780012129
 20
863.4915909245
 11
173.7113345462
 21
862.7508547049
 12
173.5631863981
 22
863.4915909245
 13
173.5631863981
 23
863.4915909245
  0
SOLID
  5
2A6
100
AcDbEntity
  8
0
100
AcDbTrace
 62
5
  6
CONTINUOUS
 10
173.7113345462
 20
862.7508547049
 11
176.9705938055
 21
862.8990039833
 12
177.2668901018
 22
862.7508547049
 13
177.2668901018
 23
862.7508547049
  0
SOLID
  5
2A7
100
AcDbEntity
  8
0
100
AcDbTrace
 62
5
  6
CONTINUOUS
 10
177.7113345462
 20
862.602707687
 11
178.1557789907
 21
862.4545595389
 12
174.0076308425
 22
862.306404609
 13
174.0076308425
 23
862.306404609
  0
SOLID
  5
2A8
100
AcDbEntity
  8
0
100
AcDbTrace
 62
5
  6
CONTINUOUS
 10
177.2668901018
 20
862.7508547049
 11
177.7113345462
 21
862.602707687
 12
174.0076308425
 22
862.306404609
 13
174.0076308425
 23
862.306404609
  0
SOLID
  5
2A9
100
AcDbEntity
  8
0
100
AcDbTrace
 62
5
  6
CONTINUOUS
 10
177.2668901018
 20
862.7508547049
 11
174.0076308425
 21
862.306404609
 12
173.7113345462
 22
862.7508547049
 13
173.7113345462
 23
862.7508547049
  0
SOLID
  5
2AA
100
AcDbEntity
  8
0
100
AcDbTrace
 62
5
  6
CONTINUOUS
 10
174.0076308425
 20
862.306404609
 11
178.1557789907
 21
862.4545595389
 12
178.6002234351
 22
862.306404609
 13
178.6002234351
 23
862.306404609
  0
SOLID
  5
2AB
100
AcDbEntity
  8
0
100
AcDbTrace
 62
5
  6
CONTINUOUS
 10
179.1928160277
 20
862.0101150944
 11
179.9335567685
 21
861.8619669463
 12
174.452075287
 22
861.7138120164
 13
174.452075287
 23
861.7138120164
  0
SOLID
  5
2AC
100
AcDbEntity
  8
0
100
AcDbTrace
 62
5
  6
CONTINUOUS
 10
178.6002234351
 20
862.306404609
 11
179.1928160277
 21
862.0101150944
 12
174.452075287
 22
861.7138120164
 13
174.452075287
 23
861.7138120164
  0
SOLID
  5
2AD
100
AcDbEntity
  8
0
100
AcDbTrace
 62
5
  6
CONTINUOUS
 10
178.6002234351
 20
862.306404609
 11
174.452075287
 21
861.7138120164
 12
174.0076308425
 22
862.306404609
 13
174.0076308425
 23
862.306404609
  0
SOLID
  5
2AE
100
AcDbEntity
  8
0
100
AcDbTrace
 62
5
  6
CONTINUOUS
 10
174.452075287
 20
861.7138120164
 11
179.9335567685
 21
861.8619669463
 12
180.6742975092
 22
861.7138120164
 13
180.6742975092
 23
861.7138120164
  0
SOLID
  5
2AF
100
AcDbEntity
  8
0
100
AcDbTrace
 62
5
  6
CONTINUOUS
 10
180.6742975092
 20
861.7138120164
 11
182.0076308425
 21
861.4175225018
 12
174.8965197314
 22
861.2693743537
 13
174.8965197314
 23
861.2693743537
  0
SOLID
  5
2B0
100
AcDbEntity
  8
0
100
AcDbTrace
 62
5
  6
CONTINUOUS
 10
180.6742975092
 20
861.7138120164
 11
174.8965197314
 21
861.2693743537
 12
174.452075287
 22
861.7138120164
 13
174.452075287
 23
861.7138120164
  0
SOLID
  5
2B1
100
AcDbEntity
  8
0
100
AcDbTrace
 62
5
  6
CONTINUOUS
 10
174.8965197314
 20
861.2693743537
 11
182.0076308425
 21
861.4175225018
 12
183.3409641759
 22
860.9730780574
 13
183.3409641759
 23
860.9730780574
  0
SOLID
  5
2B2
100
AcDbEntity
  8
0
100
AcDbTrace
 62
5
  6
CONTINUOUS
 10
183.3409641759
 20
860.9730780574
 11
175.489112324
 21
860.8249299092
 12
174.8965197314
 22
861.2693743537
 13
174.8965197314
 23
861.2693743537
  0
SOLID
  5
2B3
100
AcDbEntity
  8
0
100
AcDbTrace
 62
5
  6
CONTINUOUS
 10
175.489112324
 20
860.8249299092
 11
183.3409641759
 21
860.9730780574
 12
184.2298530648
 22
860.6767817611
 13
184.2298530648
 23
860.6767817611
  0
SOLID
  5
2B4
100
AcDbEntity
  8
0
100
AcDbTrace
 62
5
  6
CONTINUOUS
 10
184.2298530648
 20
860.6767817611
 11
176.2298530648
 21
860.3804832042
 12
175.489112324
 22
860.8249299092
 13
175.489112324
 23
860.8249299092
  0
SOLID
  5
2B5
100
AcDbEntity
  8
0
100
AcDbTrace
 62
5
  6
CONTINUOUS
 10
176.2298530648
 20
860.3804832042
 11
184.2298530648
 21
860.6767817611
 12
184.9705938055
 22
860.3804832042
 13
184.9705938055
 23
860.3804832042
  0
SOLID
  5
2B6
100
AcDbEntity
  8
0
100
AcDbTrace
 62
5
  6
CONTINUOUS
 10
184.9705938055
 20
860.3804832042
 11
176.8224456574
 21
860.0841970805
 12
176.2298530648
 22
860.3804832042
 13
176.2298530648
 23
860.3804832042
  0
SOLID
  5
2B7
100
AcDbEntity
  8
0
100
AcDbTrace
 62
5
  6
CONTINUOUS
 10
176.8224456574
 20
860.0841970805
 11
184.9705938055
 21
860.3804832042
 12
185.7113345462
 22
860.0841970805
 13
185.7113345462
 23
860.0841970805
  0
SOLID
  5
2B8
100
AcDbEntity
  8
0
100
AcDbTrace
 62
5
  6
CONTINUOUS
 10
185.7113345462
 20
860.0841970805
 11
177.7113345462
 21
859.7878928722
 12
176.8224456574
 22
860.0841970805
 13
176.8224456574
 23
860.0841970805
  0
SOLID
  5
2B9
100
AcDbEntity
  8
0
100
AcDbTrace
 62
5
  6
CONTINUOUS
 10
178.7483715833
 20
859.4916033576
 11
177.7113345462
 21
859.7878928722
 12
185.7113345462
 22
860.0841970805
 13
185.7113345462
 23
860.0841970805
  0
SOLID
  5
2BA
100
AcDbEntity
  8
0
100
AcDbTrace
 62
5
  6
CONTINUOUS
 10
178.7483715833
 20
859.4916033576
 11
185.7113345462
 21
860.0841970805
 12
186.452075287
 22
859.4916033576
 13
186.452075287
 23
859.4916033576
  0
SOLID
  5
2BB
100
AcDbEntity
  8
0
100
AcDbTrace
 62
5
  6
CONTINUOUS
 10
186.452075287
 20
859.4916033576
 11
180.0817049166
 21
859.1953002796
 12
178.7483715833
 22
859.4916033576
 13
178.7483715833
 23
859.4916033576
  0
SOLID
  5
2BC
100
AcDbEntity
  8
0
100
AcDbTrace
 62
5
  6
CONTINUOUS
 10
180.0817049166
 20
859.1953002796
 11
186.452075287
 21
859.4916033576
 12
187.0446678796
 22
859.0471521315
 13
187.0446678796
 23
859.0471521315
  0
SOLID
  5
2BD
100
AcDbEntity
  8
0
100
AcDbTrace
 62
5
  6
CONTINUOUS
 10
187.0446678796
 20
859.0471521315
 11
181.2668901018
 21
858.8990039833
 12
180.0817049166
 22
859.1953002796
 13
180.0817049166
 23
859.1953002796
  0
SOLID
  5
2BE
100
AcDbEntity
  8
0
100
AcDbTrace
 62
5
  6
CONTINUOUS
 10
182.3039271388
 20
858.602707687
 11
181.2668901018
 21
858.8990039833
 12
187.0446678796
 22
859.0471521315
 13
187.0446678796
 23
859.0471521315
  0
SOLID
  5
2BF
100
AcDbEntity
  8
0
100
AcDbTrace
 62
5
  6
CONTINUOUS
 10
182.3039271388
 20
858.602707687
 11
187.0446678796
 21
859.0471521315
 12
187.489112324
 22
858.4545595389
 13
187.489112324
 23
858.4545595389
  0
SOLID
  5
2C0
100
AcDbEntity
  8
0
100
AcDbTrace
 62
5
  6
CONTINUOUS
 10
187.489112324
 20
858.4545595389
 11
183.0446678796
 21
858.3064113907
 12
182.3039271388
 22
858.602707687
 13
182.3039271388
 23
858.602707687
  0
SOLID
  5
2C1
100
AcDbEntity
  8
0
100
AcDbTrace
 62
5
  6
CONTINUOUS
 10
183.489112324
 20
858.1582632426
 11
183.0446678796
 21
858.3064113907
 12
187.489112324
 22
858.4545595389
 13
187.489112324
 23
858.4545595389
  0
SOLID
  5
2C2
100
AcDbEntity
  8
0
100
AcDbTrace
 62
5
  6
CONTINUOUS
 10
184.0817049166
 20
858.0101150944
 11
183.489112324
 21
858.1582632426
 12
187.489112324
 22
858.4545595389
 13
187.489112324
 23
858.4545595389
  0
SOLID
  5
2C3
100
AcDbEntity
  8
0
100
AcDbTrace
 62
5
  6
CONTINUOUS
 10
184.5261493611
 20
857.7138244495
 11
184.0817049166
 21
858.0101150944
 12
187.489112324
 22
858.4545595389
 13
187.489112324
 23
858.4545595389
  0
SOLID
  5
2C4
100
AcDbEntity
  8
0
100
AcDbTrace
 62
5
  6
CONTINUOUS
 10
184.5261493611
 20
857.7138244495
 11
187.489112324
 21
858.4545595389
 12
187.7854086203
 22
857.7138244495
 13
187.7854086203
 23
857.7138244495
  0
SOLID
  5
2C5
100
AcDbEntity
  8
0
100
AcDbTrace
 62
5
  6
CONTINUOUS
 10
187.7854086203
 20
857.7138244495
 11
184.8224456574
 21
857.4175225018
 12
184.5261493611
 22
857.7138244495
 13
184.5261493611
 23
857.7138244495
  0
SOLID
  5
2C6
100
AcDbEntity
  8
0
100
AcDbTrace
 62
5
  6
CONTINUOUS
 10
184.8224456574
 20
857.4175225018
 11
187.7854086203
 21
857.7138244495
 12
188.0817049166
 22
857.1212262055
 13
188.0817049166
 23
857.1212262055
  0
SOLID
  5
2C7
100
AcDbEntity
  8
0
100
AcDbTrace
 62
5
  6
CONTINUOUS
 10
188.0817049166
 20
857.1212262055
 11
185.1187419536
 21
856.9730780574
 12
184.8224456574
 22
857.4175225018
 13
184.8224456574
 23
857.4175225018
  0
SOLID
  5
2C8
100
AcDbEntity
  8
0
100
AcDbTrace
 62
5
  6
CONTINUOUS
 10
185.1187419536
 20
856.9730780574
 11
188.0817049166
 21
857.1212262055
 12
188.2298530648
 22
856.3804854648
 13
188.2298530648
 23
856.3804854648
  0
SOLID
  5
2C9
100
AcDbEntity
  8
0
100
AcDbTrace
 62
5
  6
CONTINUOUS
 10
188.2298530648
 20
856.3804854648
 11
185.5631863981
 21
856.2323373166
 12
185.1187419536
 22
856.9730780574
 13
185.1187419536
 23
856.9730780574
  0
SOLID
  5
2CA
100
AcDbEntity
  8
0
100
AcDbTrace
 62
5
  6
CONTINUOUS
 10
172.6742975092
 20
856.6767817611
 11
175.3409641759
 21
856.8249299092
 12
175.3409641759
 22
856.0841891685
 13
175.3409641759
 23
856.0841891685
  0
SOLID
  5
2CB
100
AcDbEntity
  8
0
100
AcDbTrace
 62
5
  6
CONTINUOUS
 10
175.3409641759
 20
856.0841891685
 11
172.6742975092
 21
855.6397385075
 12
172.6742975092
 22
856.6767817611
 13
172.6742975092
 23
856.6767817611
  0
SOLID
  5
2CC
100
AcDbEntity
  8
0
100
AcDbTrace
 62
5
  6
CONTINUOUS
 10
185.5631863981
 20
856.2323373166
 11
188.2298530648
 21
856.3804854648
 12
188.3780012129
 22
855.6397385075
 13
188.3780012129
 23
855.6397385075
  0
SOLID
  5
2CD
100
AcDbEntity
  8
0
100
AcDbTrace
 62
5
  6
CONTINUOUS
 10
188.3780012129
 20
855.6397385075
 11
185.7113345462
 21
855.4915965759
 12
185.5631863981
 22
856.2323373166
 13
185.5631863981
 23
856.2323373166
  0
SOLID
  5
2CE
100
AcDbEntity
  8
0
100
AcDbTrace
 62
5
  6
CONTINUOUS
 10
172.6742975092
 20
855.6397385075
 11
175.3409641759
 21
856.0841891685
 12
175.489112324
 22
855.3434484277
 13
175.489112324
 23
855.3434484277
  0
SOLID
  5
2CF
100
AcDbEntity
  8
0
100
AcDbTrace
 62
5
  6
CONTINUOUS
 10
185.7113345462
 20
855.4915965759
 11
188.3780012129
 21
855.6397385075
 12
188.2298530648
 22
854.750859226
 13
188.2298530648
 23
854.750859226
  0
SOLID
  5
2D0
100
AcDbEntity
  8
0
100
AcDbTrace
 62
5
  6
CONTINUOUS
 10
175.489112324
 20
855.3434484277
 11
175.7854086203
 21
854.750859226
 12
172.9705938055
 22
854.6027161641
 13
172.9705938055
 23
854.6027161641
  0
SOLID
  5
2D1
100
AcDbEntity
  8
0
100
AcDbTrace
 62
5
  6
CONTINUOUS
 10
175.489112324
 20
855.3434484277
 11
172.9705938055
 21
854.6027161641
 12
172.6742975092
 22
855.6397385075
 13
172.6742975092
 23
855.6397385075
  0
SOLID
  5
2D2
100
AcDbEntity
  8
0
100
AcDbTrace
 62
5
  6
CONTINUOUS
 10
188.2298530648
 20
854.750859226
 11
185.5631863981
 21
854.6027161641
 12
185.7113345462
 22
855.4915965759
 13
185.7113345462
 23
855.4915965759
  0
SOLID
  5
2D3
100
AcDbEntity
  8
0
100
AcDbTrace
 62
5
  6
CONTINUOUS
 10
172.9705938055
 20
854.6027161641
 11
175.7854086203
 21
854.750859226
 12
176.0817049166
 22
854.1582632426
 13
176.0817049166
 23
854.1582632426
  0
SOLID
  5
2D4
100
AcDbEntity
  8
0
100
AcDbTrace
 62
5
  6
CONTINUOUS
 10
185.5631863981
 20
854.6027161641
 11
188.2298530648
 21
854.750859226
 12
188.0817049166
 22
854.0101150944
 13
188.0817049166
 23
854.0101150944
  0
SOLID
  5
2D5
100
AcDbEntity
  8
0
100
AcDbTrace
 62
5
  6
CONTINUOUS
 10
176.0817049166
 20
854.1582632426
 11
173.2668901018
 21
853.7138165376
 12
172.9705938055
 22
854.6027161641
 13
172.9705938055
 23
854.6027161641
  0
SOLID
  5
2D6
100
AcDbEntity
  8
0
100
AcDbTrace
 62
5
  6
CONTINUOUS
 10
173.2668901018
 20
853.7138165376
 11
176.0817049166
 21
854.1582632426
 12
176.3780012129
 22
853.7138165376
 13
176.3780012129
 23
853.7138165376
  0
SOLID
  5
2D7
100
AcDbEntity
  8
0
100
AcDbTrace
 62
5
  6
CONTINUOUS
 10
188.0817049166
 20
854.0101150944
 11
185.1187419536
 21
853.7138165376
 12
185.5631863981
 22
854.6027161641
 13
185.5631863981
 23
854.6027161641
  0
SOLID
  5
2D8
100
AcDbEntity
  8
0
100
AcDbTrace
 62
5
  6
CONTINUOUS
 10
184.8224456574
 20
853.4175225018
 11
185.1187419536
 21
853.7138165376
 12
188.0817049166
 22
854.0101150944
 13
188.0817049166
 23
854.0101150944
  0
SOLID
  5
2D9
100
AcDbEntity
  8
0
100
AcDbTrace
 62
5
  6
CONTINUOUS
 10
184.8224456574
 20
853.4175225018
 11
188.0817049166
 21
854.0101150944
 12
187.7854086203
 22
853.2693664417
 13
187.7854086203
 23
853.2693664417
  0
SOLID
  5
2DA
100
AcDbEntity
  8
0
100
AcDbTrace
 62
5
  6
CONTINUOUS
 10
176.3780012129
 20
853.7138165376
 11
176.8224456574
 21
853.2693664417
 12
173.7113345462
 22
852.9730803179
 13
173.7113345462
 23
852.9730803179
  0
SOLID
  5
2DB
100
AcDbEntity
  8
0
100
AcDbTrace
 62
5
  6
CONTINUOUS
 10
176.3780012129
 20
853.7138165376
 11
173.7113345462
 21
852.9730803179
 12
173.2668901018
 22
853.7138165376
 13
173.2668901018
 23
853.7138165376
  0
SOLID
  5
2DC
100
AcDbEntity
  8
0
100
AcDbTrace
 62
5
  6
CONTINUOUS
 10
173.7113345462
 20
852.9730803179
 11
176.8224456574
 21
853.2693664417
 12
177.4150382499
 22
852.9730803179
 13
177.4150382499
 23
852.9730803179
  0
SOLID
  5
2DD
100
AcDbEntity
  8
0
100
AcDbTrace
 62
5
  6
CONTINUOUS
 10
187.7854086203
 20
853.2693664417
 11
184.3780012129
 21
852.9730803179
 12
184.8224456574
 22
853.4175225018
 13
184.8224456574
 23
853.4175225018
  0
SOLID
  5
2DE
100
AcDbEntity
  8
0
100
AcDbTrace
 62
5
  6
CONTINUOUS
 10
183.9335567685
 20
852.6767735665
 11
184.3780012129
 21
852.9730803179
 12
187.7854086203
 22
853.2693664417
 13
187.7854086203
 23
853.2693664417
  0
SOLID
  5
2DF
100
AcDbEntity
  8
0
100
AcDbTrace
 62
5
  6
CONTINUOUS
 10
183.489112324
 20
852.5286302221
 11
183.9335567685
 21
852.6767735665
 12
187.7854086203
 22
853.2693664417
 13
187.7854086203
 23
853.2693664417
  0
SOLID
  5
2E0
100
AcDbEntity
  8
0
100
AcDbTrace
 62
5
  6
CONTINUOUS
 10
183.489112324
 20
852.5286302221
 11
187.7854086203
 21
853.2693664417
 12
187.3409641759
 22
852.5286302221
 13
187.3409641759
 23
852.5286302221
  0
SOLID
  5
2E1
100
AcDbEntity
  8
0
100
AcDbTrace
 62
5
  6
CONTINUOUS
 10
187.3409641759
 20
852.5286302221
 11
182.8965197314
 21
852.2323440983
 12
183.489112324
 22
852.5286302221
 13
183.489112324
 23
852.5286302221
  0
SOLID
  5
2E2
100
AcDbEntity
  8
0
100
AcDbTrace
 62
5
  6
CONTINUOUS
 10
178.6002234351
 20
852.3804854648
 11
179.3409641759
 21
852.2323440983
 12
174.3039271388
 22
852.0841804088
 13
174.3039271388
 23
852.0841804088
  0
SOLID
  5
2E3
100
AcDbEntity
  8
0
100
AcDbTrace
 62
5
  6
CONTINUOUS
 10
178.0076308425
 20
852.6767735665
 11
178.6002234351
 21
852.3804854648
 12
174.3039271388
 22
852.0841804088
 13
174.3039271388
 23
852.0841804088
  0
SOLID
  5
2E4
100
AcDbEntity
  8
0
100
AcDbTrace
 62
5
  6
CONTINUOUS
 10
177.4150382499
 20
852.9730803179
 11
178.0076308425
 21
852.6767735665
 12
174.3039271388
 22
852.0841804088
 13
174.3039271388
 23
852.0841804088
  0
SOLID
  5
2E5
100
AcDbEntity
  8
0
100
AcDbTrace
 62
5
  6
CONTINUOUS
 10
177.4150382499
 20
852.9730803179
 11
174.3039271388
 21
852.0841804088
 12
173.7113345462
 22
852.9730803179
 13
173.7113345462
 23
852.9730803179
  0
SOLID
  5
2E6
100
AcDbEntity
  8
0
100
AcDbTrace
 62
5
  6
CONTINUOUS
 10
174.3039271388
 20
852.0841804088
 11
179.3409641759
 21
852.2323440983
 12
180.0817049166
 22
852.0841804088
 13
180.0817049166
 23
852.0841804088
  0
SOLID
  5
2E7
100
AcDbEntity
  8
0
100
AcDbTrace
 62
5
  6
CONTINUOUS
 10
182.3039271388
 20
852.0841804088
 11
182.8965197314
 21
852.2323440983
 12
187.3409641759
 22
852.5286302221
 13
187.3409641759
 23
852.5286302221
  0
SOLID
  5
2E8
100
AcDbEntity
  8
0
100
AcDbTrace
 62
5
  6
CONTINUOUS
 10
182.3039271388
 20
852.0841804088
 11
187.3409641759
 21
852.5286302221
 12
186.8965197314
 22
851.9360410203
 13
186.8965197314
 23
851.9360410203
  0
SOLID
  5
2E9
100
AcDbEntity
  8
0
100
AcDbTrace
 62
5
  6
CONTINUOUS
 10
182.3039271388
 20
852.0841804088
 11
186.8965197314
 21
851.9360410203
 12
174.8965197314
 22
851.4915965759
 13
174.8965197314
 23
851.4915965759
  0
SOLID
  5
2EA
100
AcDbEntity
  8
0
100
AcDbTrace
 62
5
  6
CONTINUOUS
 10
181.5631863981
 20
852.0841804088
 11
182.3039271388
 21
852.0841804088
 12
174.8965197314
 22
851.4915965759
 13
174.8965197314
 23
851.4915965759
  0
SOLID
  5
2EB
100
AcDbEntity
  8
0
100
AcDbTrace
 62
5
  6
CONTINUOUS
 10
180.9705938055
 20
852.0841804088
 11
181.5631863981
 21
852.0841804088
 12
174.8965197314
 22
851.4915965759
 13
174.8965197314
 23
851.4915965759
  0
SOLID
  5
2EC
100
AcDbEntity
  8
0
100
AcDbTrace
 62
5
  6
CONTINUOUS
 10
180.0817049166
 20
852.0841804088
 11
180.9705938055
 21
852.0841804088
 12
174.8965197314
 22
851.4915965759
 13
174.8965197314
 23
851.4915965759
  0
SOLID
  5
2ED
100
AcDbEntity
  8
0
100
AcDbTrace
 62
5
  6
CONTINUOUS
 10
180.0817049166
 20
852.0841804088
 11
174.8965197314
 21
851.4915965759
 12
174.3039271388
 22
852.0841804088
 13
174.3039271388
 23
852.0841804088
  0
SOLID
  5
2EE
100
AcDbEntity
  8
0
100
AcDbTrace
 62
5
  6
CONTINUOUS
 10
174.8965197314
 20
851.4915965759
 11
186.8965197314
 21
851.9360410203
 12
186.3039271388
 22
851.3434484277
 13
186.3039271388
 23
851.3434484277
  0
SOLID
  5
2EF
100
AcDbEntity
  8
0
100
AcDbTrace
 62
5
  6
CONTINUOUS
 10
186.3039271388
 20
851.3434484277
 11
175.6372604722
 21
850.8989943759
 12
174.8965197314
 22
851.4915965759
 13
174.8965197314
 23
851.4915965759
  0
SOLID
  5
2F0
100
AcDbEntity
  8
0
100
AcDbTrace
 62
5
  6
CONTINUOUS
 10
175.6372604722
 20
850.8989943759
 11
186.3039271388
 21
851.3434484277
 12
185.5631863981
 22
850.8989943759
 13
185.5631863981
 23
850.8989943759
  0
SOLID
  5
2F1
100
AcDbEntity
  8
0
100
AcDbTrace
 62
5
  6
CONTINUOUS
 10
185.5631863981
 20
850.8989943759
 11
176.5261493611
 21
850.4545650137
 12
175.6372604722
 22
850.8989943759
 13
175.6372604722
 23
850.8989943759
  0
SOLID
  5
2F2
100
AcDbEntity
  8
0
100
AcDbTrace
 62
5
  6
CONTINUOUS
 10
176.5261493611
 20
850.4545650137
 11
185.5631863981
 21
850.8989943759
 12
184.8224456574
 22
850.4545650137
 13
184.8224456574
 23
850.4545650137
  0
SOLID
  5
2F3
100
AcDbEntity
  8
0
100
AcDbTrace
 62
5
  6
CONTINUOUS
 10
184.8224456574
 20
850.4545650137
 11
177.4150382499
 21
850.1582632426
 12
176.5261493611
 22
850.4545650137
 13
176.5261493611
 23
850.4545650137
  0
SOLID
  5
2F4
100
AcDbEntity
  8
0
100
AcDbTrace
 62
5
  6
CONTINUOUS
 10
178.6002234351
 20
850.0101150944
 11
177.4150382499
 21
850.1582632426
 12
184.8224456574
 22
850.4545650137
 13
184.8224456574
 23
850.4545650137
  0
SOLID
  5
2F5
100
AcDbEntity
  8
0
100
AcDbTrace
 62
5
  6
CONTINUOUS
 10
183.0446678796
 20
850.0101150944
 11
178.6002234351
 21
850.0101150944
 12
184.8224456574
 22
850.4545650137
 13
184.8224456574
 23
850.4545650137
  0
SOLID
  5
2F6
100
AcDbEntity
  8
0
100
AcDbTrace
 62
5
  6
CONTINUOUS
 10
183.0446678796
 20
850.0101150944
 11
184.8224456574
 21
850.4545650137
 12
183.9335567685
 22
850.0101150944
 13
183.9335567685
 23
850.0101150944
  0
SOLID
  5
2F7
100
AcDbEntity
  8
0
100
AcDbTrace
 62
5
  6
CONTINUOUS
 10
183.0446678796
 20
850.0101150944
 11
179.7854086203
 21
849.8619719795
 12
178.6002234351
 22
850.0101150944
 13
178.6002234351
 23
850.0101150944
  0
SOLID
  5
2F8
100
AcDbEntity
  8
0
100
AcDbTrace
 62
5
  6
CONTINUOUS
 10
179.7854086203
 20
849.8619719795
 11
183.0446678796
 21
850.0101150944
 12
182.0076308425
 22
849.8619719795
 13
182.0076308425
 23
849.8619719795
  0
SOLID
  5
2F9
100
AcDbEntity
  8
0
100
AcDbTrace
 62
5
  6
CONTINUOUS
 10
182.0076308425
 20
849.8619719795
 11
180.9705938055
 21
849.7138187981
 12
179.7854086203
 22
849.8619719795
 13
179.7854086203
 23
849.8619719795
  0
SOLID
  5
2FA
100
AcDbEntity
  8
0
100
AcDbTrace
 62
5
  6
CONTINUOUS
 10
201.4150382499
 20
870.0101150944
 11
198.8965197314
 21
865.7138187981
 12
190.1557789907
 22
856.9730752317
 13
190.1557789907
 23
856.9730752317
  0
SOLID
  5
2FB
100
AcDbEntity
  8
0
100
AcDbTrace
 62
5
  6
CONTINUOUS
 10
201.4150382499
 20
870.0101150944
 11
190.1557789907
 21
856.9730752317
 12
199.489112324
 22
870.0101150944
 13
199.489112324
 23
870.0101150944
  0
SOLID
  5
2FC
100
AcDbEntity
  8
0
100
AcDbTrace
 62
5
  6
CONTINUOUS
 10
190.1557789907
 20
856.9730752317
 11
198.8965197314
 21
865.7138187981
 12
192.5261493611
 22
856.9730752317
 13
192.5261493611
 23
856.9730752317
  0
SOLID
  5
2FD
100
AcDbEntity
  8
0
100
AcDbTrace
 62
5
  6
CONTINUOUS
 10
198.8965197314
 20
856.9730752317
 11
198.8965197314
 21
865.7138187981
 12
201.4150382499
 22
870.0101150944
 13
201.4150382499
 23
870.0101150944
  0
SOLID
  5
2FE
100
AcDbEntity
  8
0
100
AcDbTrace
 62
5
  6
CONTINUOUS
 10
198.8965197314
 20
856.9730752317
 11
201.4150382499
 21
870.0101150944
 12
201.4150382499
 22
856.9730752317
 13
201.4150382499
 23
856.9730752317
  0
SOLID
  5
2FF
100
AcDbEntity
  8
0
100
AcDbTrace
 62
5
  6
CONTINUOUS
 10
201.4150382499
 20
856.9730752317
 11
204.0817049166
 21
856.9730752317
 12
190.1557789907
 22
854.7508549874
 13
190.1557789907
 23
854.7508549874
  0
SOLID
  5
300
100
AcDbEntity
  8
0
100
AcDbTrace
 62
5
  6
CONTINUOUS
 10
198.8965197314
 20
856.9730752317
 11
201.4150382499
 21
856.9730752317
 12
190.1557789907
 22
854.7508549874
 13
190.1557789907
 23
854.7508549874
  0
SOLID
  5
301
100
AcDbEntity
  8
0
100
AcDbTrace
 62
5
  6
CONTINUOUS
 10
192.5261493611
 20
856.9730752317
 11
198.8965197314
 21
856.9730752317
 12
190.1557789907
 22
854.7508549874
 13
190.1557789907
 23
854.7508549874
  0
SOLID
  5
302
100
AcDbEntity
  8
0
100
AcDbTrace
 62
5
  6
CONTINUOUS
 10
192.5261493611
 20
856.9730752317
 11
190.1557789907
 21
854.7508549874
 12
190.1557789907
 22
856.9730752317
 13
190.1557789907
 23
856.9730752317
  0
SOLID
  5
303
100
AcDbEntity
  8
0
100
AcDbTrace
 62
5
  6
CONTINUOUS
 10
198.8965197314
 20
854.7508549874
 11
190.1557789907
 21
854.7508549874
 12
204.0817049166
 22
856.9730752317
 13
204.0817049166
 23
856.9730752317
  0
SOLID
  5
304
100
AcDbEntity
  8
0
100
AcDbTrace
 62
5
  6
CONTINUOUS
 10
201.4150382499
 20
854.7508549874
 11
198.8965197314
 21
854.7508549874
 12
204.0817049166
 22
856.9730752317
 13
204.0817049166
 23
856.9730752317
  0
SOLID
  5
305
100
AcDbEntity
  8
0
100
AcDbTrace
 62
5
  6
CONTINUOUS
 10
201.4150382499
 20
854.7508549874
 11
204.0817049166
 21
856.9730752317
 12
204.0817049166
 22
854.7508549874
 13
204.0817049166
 23
854.7508549874
  0
SOLID
  5
306
100
AcDbEntity
  8
0
100
AcDbTrace
 62
5
  6
CONTINUOUS
 10
201.4150382499
 20
854.7508549874
 11
198.8965197314
 21
850.0101150944
 12
198.8965197314
 22
854.7508549874
 13
198.8965197314
 23
854.7508549874
  0
SOLID
  5
307
100
AcDbEntity
  8
0
100
AcDbTrace
 62
5
  6
CONTINUOUS
 10
198.8965197314
 20
850.0101150944
 11
201.4150382499
 21
854.7508549874
 12
201.4150382499
 22
850.0101150944
 13
201.4150382499
 23
850.0101150944
  0
SOLID
  5
308
100
AcDbEntity
  8
0
100
AcDbTrace
 62
5
  6
CONTINUOUS
 10
211.9335567685
 20
869.8619624251
 11
212.9705938055
 21
870.0101150944
 12
213.7113345462
 22
869.8619624251
 13
213.7113345462
 23
869.8619624251
  0
SOLID
  5
309
100
AcDbEntity
  8
0
100
AcDbTrace
 62
5
  6
CONTINUOUS
 10
213.7113345462
 20
869.8619624251
 11
211.0446678796
 21
869.7138210587
 12
211.9335567685
 22
869.8619624251
 13
211.9335567685
 23
869.8619624251
  0
SOLID
  5
30A
100
AcDbEntity
  8
0
100
AcDbTrace
 62
5
  6
CONTINUOUS
 10
211.0446678796
 20
869.7138210587
 11
213.7113345462
 21
869.8619624251
 12
214.452075287
 22
869.7138210587
 13
214.452075287
 23
869.7138210587
  0
SOLID
  5
30B
100
AcDbEntity
  8
0
100
AcDbTrace
 62
5
  6
CONTINUOUS
 10
214.452075287
 20
869.7138210587
 11
215.1928160277
 21
869.56567065
 12
210.1557789907
 22
869.2693720931
 13
210.1557789907
 23
869.2693720931
  0
SOLID
  5
30C
100
AcDbEntity
  8
0
100
AcDbTrace
 62
5
  6
CONTINUOUS
 10
214.452075287
 20
869.7138210587
 11
210.1557789907
 21
869.2693720931
 12
211.0446678796
 22
869.7138210587
 13
211.0446678796
 23
869.7138210587
  0
SOLID
  5
30D
100
AcDbEntity
  8
0
100
AcDbTrace
 62
5
  6
CONTINUOUS
 10
210.1557789907
 20
869.2693720931
 11
215.1928160277
 21
869.56567065
 12
215.7854086203
 22
869.2693720931
 13
215.7854086203
 23
869.2693720931
  0
SOLID
  5
30E
100
AcDbEntity
  8
0
100
AcDbTrace
 62
5
  6
CONTINUOUS
 10
215.7854086203
 20
869.2693720931
 11
216.3780012129
 21
868.9730780574
 12
209.4150382499
 22
868.8249299092
 13
209.4150382499
 23
868.8249299092
  0
SOLID
  5
30F
100
AcDbEntity
  8
0
100
AcDbTrace
 62
5
  6
CONTINUOUS
 10
215.7854086203
 20
869.2693720931
 11
209.4150382499
 21
868.8249299092
 12
210.1557789907
 22
869.2693720931
 13
210.1557789907
 23
869.2693720931
  0
SOLID
  5
310
100
AcDbEntity
  8
0
100
AcDbTrace
 62
5
  6
CONTINUOUS
 10
209.4150382499
 20
868.8249299092
 11
216.3780012129
 21
868.9730780574
 12
216.9705938055
 22
868.5286336129
 13
216.9705938055
 23
868.5286336129
  0
SOLID
  5
311
100
AcDbEntity
  8
0
100
AcDbTrace
 62
5
  6
CONTINUOUS
 10
216.9705938055
 20
868.5286336129
 11
208.6742975092
 21
868.2323373166
 12
209.4150382499
 22
868.8249299092
 13
209.4150382499
 23
868.8249299092
  0
SOLID
  5
312
100
AcDbEntity
  8
0
100
AcDbTrace
 62
5
  6
CONTINUOUS
 10
212.9705938055
 20
867.936047802
 11
208.6742975092
 21
868.2323373166
 12
216.9705938055
 22
868.5286336129
 13
216.9705938055
 23
868.5286336129
  0
SOLID
  5
313
100
AcDbEntity
  8
0
100
AcDbTrace
 62
5
  6
CONTINUOUS
 10
212.9705938055
 20
867.936047802
 11
216.9705938055
 21
868.5286336129
 12
217.4150382499
 22
867.936047802
 13
217.4150382499
 23
867.936047802
  0
SOLID
  5
314
100
AcDbEntity
  8
0
100
AcDbTrace
 62
5
  6
CONTINUOUS
 10
217.4150382499
 20
867.936047802
 11
213.7113345462
 21
867.7878849602
 12
212.9705938055
 22
867.936047802
 13
212.9705938055
 23
867.936047802
  0
SOLID
  5
315
100
AcDbEntity
  8
0
100
AcDbTrace
 62
5
  6
CONTINUOUS
 10
214.452075287
 20
867.4915988365
 11
213.7113345462
 21
867.7878849602
 12
217.4150382499
 22
867.936047802
 13
217.4150382499
 23
867.936047802
  0
SOLID
  5
316
100
AcDbEntity
  8
0
100
AcDbTrace
 62
5
  6
CONTINUOUS
 10
214.452075287
 20
867.4915988365
 11
217.4150382499
 21
867.936047802
 12
217.7113345462
 22
867.4915988365
 13
217.7113345462
 23
867.4915988365
  0
SOLID
  5
317
100
AcDbEntity
  8
0
100
AcDbTrace
 62
5
  6
CONTINUOUS
 10
212.0817049166
 20
867.7878849602
 11
211.489112324
 21
867.4915988365
 12
208.0817049166
 22
867.3434484277
 13
208.0817049166
 23
867.3434484277
  0
SOLID
  5
318
100
AcDbEntity
  8
0
100
AcDbTrace
 62
5
  6
CONTINUOUS
 10
212.9705938055
 20
867.936047802
 11
212.0817049166
 21
867.7878849602
 12
208.0817049166
 22
867.3434484277
 13
208.0817049166
 23
867.3434484277
  0
SOLID
  5
319
100
AcDbEntity
  8
0
100
AcDbTrace
 62
5
  6
CONTINUOUS
 10
212.9705938055
 20
867.936047802
 11
208.0817049166
 21
867.3434484277
 12
208.6742975092
 22
868.2323373166
 13
208.6742975092
 23
868.2323373166
  0
SOLID
  5
31A
100
AcDbEntity
  8
0
100
AcDbTrace
 62
5
  6
CONTINUOUS
 10
208.0817049166
 20
867.3434484277
 11
211.489112324
 21
867.4915988365
 12
210.7483715833
 22
867.0471521315
 13
210.7483715833
 23
867.0471521315
  0
SOLID
  5
31B
100
AcDbEntity
  8
0
100
AcDbTrace
 62
5
  6
CONTINUOUS
 10
217.7113345462
 20
867.4915988365
 11
215.1928160277
 21
866.8990039833
 12
214.452075287
 22
867.4915988365
 13
214.452075287
 23
867.4915988365
  0
SOLID
  5
31C
100
AcDbEntity
  8
0
100
AcDbTrace
 62
5
  6
CONTINUOUS
 10
215.1928160277
 20
866.8990039833
 11
217.7113345462
 21
867.4915988365
 12
218.1557789907
 22
866.7508558352
 13
218.1557789907
 23
866.7508558352
  0
SOLID
  5
31D
100
AcDbEntity
  8
0
100
AcDbTrace
 62
5
  6
CONTINUOUS
 10
210.7483715833
 20
867.0471521315
 11
207.6372604722
 21
866.4545595389
 12
208.0817049166
 22
867.3434484277
 13
208.0817049166
 23
867.3434484277
  0
SOLID
  5
31E
100
AcDbEntity
  8
0
100
AcDbTrace
 62
5
  6
CONTINUOUS
 10
207.6372604722
 20
866.4545595389
 11
210.7483715833
 21
867.0471521315
 12
210.3039271388
 22
866.4545595389
 13
210.3039271388
 23
866.4545595389
  0
SOLID
  5
31F
100
AcDbEntity
  8
0
100
AcDbTrace
 62
5
  6
CONTINUOUS
 10
218.1557789907
 20
866.7508558352
 11
215.7854086203
 21
866.3064113907
 12
215.1928160277
 22
866.8990039833
 13
215.1928160277
 23
866.8990039833
  0
SOLID
  5
320
100
AcDbEntity
  8
0
100
AcDbTrace
 62
5
  6
CONTINUOUS
 10
215.7854086203
 20
866.3064113907
 11
218.1557789907
 21
866.7508558352
 12
218.452075287
 22
866.1582632426
 13
218.452075287
 23
866.1582632426
  0
SOLID
  5
321
100
AcDbEntity
  8
0
100
AcDbTrace
 62
5
  6
CONTINUOUS
 10
218.452075287
 20
866.1582632426
 11
216.0817049166
 21
865.8619669463
 12
215.7854086203
 22
866.3064113907
 13
215.7854086203
 23
866.3064113907
  0
SOLID
  5
322
100
AcDbEntity
  8
0
100
AcDbTrace
 62
5
  6
CONTINUOUS
 10
210.3039271388
 20
866.4545595389
 11
210.0076308425
 21
866.0101150944
 12
207.1928160277
 22
865.56567065
 13
207.1928160277
 23
865.56567065
  0
SOLID
  5
323
100
AcDbEntity
  8
0
100
AcDbTrace
 62
5
  6
CONTINUOUS
 10
210.3039271388
 20
866.4545595389
 11
207.1928160277
 21
865.56567065
 12
207.6372604722
 22
866.4545595389
 13
207.6372604722
 23
866.4545595389
  0
SOLID
  5
324
100
AcDbEntity
  8
0
100
AcDbTrace
 62
5
  6
CONTINUOUS
 10
207.1928160277
 20
865.56567065
 11
210.0076308425
 21
866.0101150944
 12
209.7113345462
 22
865.4175225018
 13
209.7113345462
 23
865.4175225018
  0
SOLID
  5
325
100
AcDbEntity
  8
0
100
AcDbTrace
 62
5
  6
CONTINUOUS
 10
216.2298530648
 20
865.2693777445
 11
216.0817049166
 21
865.8619669463
 12
218.452075287
 22
866.1582632426
 13
218.452075287
 23
866.1582632426
  0
SOLID
  5
326
100
AcDbEntity
  8
0
100
AcDbTrace
 62
5
  6
CONTINUOUS
 10
216.2298530648
 20
865.2693777445
 11
218.452075287
 21
866.1582632426
 12
218.7483715833
 22
865.2693777445
 13
218.7483715833
 23
865.2693777445
  0
SOLID
  5
327
100
AcDbEntity
  8
0
100
AcDbTrace
 62
5
  6
CONTINUOUS
 10
218.7483715833
 20
865.2693777445
 11
216.5261493611
 21
864.5286245707
 12
216.2298530648
 22
865.2693777445
 13
216.2298530648
 23
865.2693777445
  0
SOLID
  5
328
100
AcDbEntity
  8
0
100
AcDbTrace
 62
5
  6
CONTINUOUS
 10
216.5261493611
 20
864.5286245707
 11
218.7483715833
 21
865.2693777445
 12
219.0446678796
 22
864.5286245707
 13
219.0446678796
 23
864.5286245707
  0
SOLID
  5
329
100
AcDbEntity
  8
0
100
AcDbTrace
 62
5
  6
CONTINUOUS
 10
209.7113345462
 20
865.4175225018
 11
209.5631863981
 21
864.6767817611
 12
206.8965197314
 22
864.3804854648
 13
206.8965197314
 23
864.3804854648
  0
SOLID
  5
32A
100
AcDbEntity
  8
0
100
AcDbTrace
 62
5
  6
CONTINUOUS
 10
209.7113345462
 20
865.4175225018
 11
206.8965197314
 21
864.3804854648
 12
207.1928160277
 22
865.56567065
 13
207.1928160277
 23
865.56567065
  0
SOLID
  5
32B
100
AcDbEntity
  8
0
100
AcDbTrace
 62
5
  6
CONTINUOUS
 10
206.8965197314
 20
864.3804854648
 11
209.5631863981
 21
864.6767817611
 12
209.4150382499
 22
863.9360410203
 13
209.4150382499
 23
863.9360410203
  0
SOLID
  5
32C
100
AcDbEntity
  8
0
100
AcDbTrace
 62
5
  6
CONTINUOUS
 10
219.0446678796
 20
864.5286245707
 11
216.6742975092
 21
863.7878928722
 12
216.5261493611
 22
864.5286245707
 13
216.5261493611
 23
864.5286245707
  0
SOLID
  5
32D
100
AcDbEntity
  8
0
100
AcDbTrace
 62
5
  6
CONTINUOUS
 10
216.6742975092
 20
863.7878928722
 11
219.0446678796
 21
864.5286245707
 12
219.1928160277
 22
863.4915965759
 13
219.1928160277
 23
863.4915965759
  0
SOLID
  5
32E
100
AcDbEntity
  8
0
100
AcDbTrace
 62
5
  6
CONTINUOUS
 10
209.4150382499
 20
863.9360410203
 11
206.7483715833
 21
863.0471566526
 12
206.8965197314
 22
864.3804854648
 13
206.8965197314
 23
864.3804854648
  0
SOLID
  5
32F
100
AcDbEntity
  8
0
100
AcDbTrace
 62
5
  6
CONTINUOUS
 10
206.7483715833
 20
863.0471566526
 11
209.4150382499
 21
863.9360410203
 12
209.2668901018
 22
863.0471566526
 13
209.2668901018
 23
863.0471566526
  0
SOLID
  5
330
100
AcDbEntity
  8
0
100
AcDbTrace
 62
5
  6
CONTINUOUS
 10
219.1928160277
 20
863.4915965759
 11
216.6742975092
 21
863.0471566526
 12
216.6742975092
 22
863.7878928722
 13
216.6742975092
 23
863.7878928722
  0
SOLID
  5
331
100
AcDbEntity
  8
0
100
AcDbTrace
 62
5
  6
CONTINUOUS
 10
216.6742975092
 20
863.0471566526
 11
219.1928160277
 21
863.4915965759
 12
219.3409641759
 22
862.4545595389
 13
219.3409641759
 23
862.4545595389
  0
SOLID
  5
332
100
AcDbEntity
  8
0
100
AcDbTrace
 62
5
  6
CONTINUOUS
 10
219.3409641759
 20
862.4545595389
 11
216.8224456574
 21
862.010117355
 12
216.6742975092
 22
863.0471566526
 13
216.6742975092
 23
863.0471566526
  0
SOLID
  5
333
100
AcDbEntity
  8
0
100
AcDbTrace
 62
5
  6
CONTINUOUS
 10
209.2668901018
 20
863.0471566526
 11
209.1187419536
 21
862.010117355
 12
206.6002234351
 22
861.4175225018
 13
206.6002234351
 23
861.4175225018
  0
SOLID
  5
334
100
AcDbEntity
  8
0
100
AcDbTrace
 62
5
  6
CONTINUOUS
 10
209.2668901018
 20
863.0471566526
 11
206.6002234351
 21
861.4175225018
 12
206.7483715833
 22
863.0471566526
 13
206.7483715833
 23
863.0471566526
  0
SOLID
  5
335
100
AcDbEntity
  8
0
100
AcDbTrace
 62
5
  6
CONTINUOUS
 10
216.8224456574
 20
862.010117355
 11
219.3409641759
 21
862.4545595389
 12
219.3409641759
 22
861.1212262055
 13
219.3409641759
 23
861.1212262055
  0
SOLID
  5
336
100
AcDbEntity
  8
0
100
AcDbTrace
 62
5
  6
CONTINUOUS
 10
206.6002234351
 20
861.4175225018
 11
209.1187419536
 21
862.010117355
 12
209.1187419536
 22
860.9730780574
 13
209.1187419536
 23
860.9730780574
  0
SOLID
  5
337
100
AcDbEntity
  8
0
100
AcDbTrace
 62
5
  6
CONTINUOUS
 10
219.3409641759
 20
861.1212262055
 11
216.8224456574
 21
860.9730780574
 12
216.8224456574
 22
862.010117355
 13
216.8224456574
 23
862.010117355
  0
SOLID
  5
338
100
AcDbEntity
  8
0
100
AcDbTrace
 62
5
  6
CONTINUOUS
 10
209.1187419536
 20
860.9730780574
 11
206.6002234351
 21
859.787896263
 12
206.6002234351
 22
861.4175225018
 13
206.6002234351
 23
861.4175225018
  0
SOLID
  5
339
100
AcDbEntity
  8
0
100
AcDbTrace
 62
5
  6
CONTINUOUS
 10
206.6002234351
 20
859.787896263
 11
209.1187419536
 21
860.9730780574
 12
209.1187419536
 22
859.787896263
 13
209.1187419536
 23
859.787896263
  0
SOLID
  5
33A
100
AcDbEntity
  8
0
100
AcDbTrace
 62
5
  6
CONTINUOUS
 10
216.9705938055
 20
859.787896263
 11
216.8224456574
 21
860.9730780574
 12
219.3409641759
 22
861.1212262055
 13
219.3409641759
 23
861.1212262055
  0
SOLID
  5
33B
100
AcDbEntity
  8
0
100
AcDbTrace
 62
5
  6
CONTINUOUS
 10
216.9705938055
 20
859.787896263
 11
219.3409641759
 21
861.1212262055
 12
219.489112324
 22
859.787896263
 13
219.489112324
 23
859.787896263
  0
SOLID
  5
33C
100
AcDbEntity
  8
0
100
AcDbTrace
 62
5
  6
CONTINUOUS
 10
219.489112324
 20
859.787896263
 11
216.8224456574
 21
858.6027144687
 12
216.9705938055
 22
859.787896263
 13
216.9705938055
 23
859.787896263
  0
SOLID
  5
33D
100
AcDbEntity
  8
0
100
AcDbTrace
 62
5
  6
CONTINUOUS
 10
209.1187419536
 20
859.787896263
 11
209.1187419536
 21
858.6027144687
 12
206.6002234351
 22
858.4545595389
 13
206.6002234351
 23
858.4545595389
  0
SOLID
  5
33E
100
AcDbEntity
  8
0
100
AcDbTrace
 62
5
  6
CONTINUOUS
 10
209.1187419536
 20
859.787896263
 11
206.6002234351
 21
858.4545595389
 12
206.6002234351
 22
859.787896263
 13
206.6002234351
 23
859.787896263
  0
SOLID
  5
33F
100
AcDbEntity
  8
0
100
AcDbTrace
 62
5
  6
CONTINUOUS
 10
216.8224456574
 20
858.6027144687
 11
219.489112324
 21
859.787896263
 12
219.3409641759
 22
858.1582632426
 13
219.3409641759
 23
858.1582632426
  0
SOLID
  5
340
100
AcDbEntity
  8
0
100
AcDbTrace
 62
5
  6
CONTINUOUS
 10
206.6002234351
 20
858.4545595389
 11
209.1187419536
 21
858.6027144687
 12
209.1187419536
 22
857.5656751711
 13
209.1187419536
 23
857.5656751711
  0
SOLID
  5
341
100
AcDbEntity
  8
0
100
AcDbTrace
 62
5
  6
CONTINUOUS
 10
219.3409641759
 20
858.1582632426
 11
216.8224456574
 21
857.5656751711
 12
216.8224456574
 22
858.6027144687
 13
216.8224456574
 23
858.6027144687
  0
SOLID
  5
342
100
AcDbEntity
  8
0
100
AcDbTrace
 62
5
  6
CONTINUOUS
 10
209.1187419536
 20
857.5656751711
 11
206.6002234351
 21
857.1212262055
 12
206.6002234351
 22
858.4545595389
 13
206.6002234351
 23
858.4545595389
  0
SOLID
  5
343
100
AcDbEntity
  8
0
100
AcDbTrace
 62
5
  6
CONTINUOUS
 10
216.8224456574
 20
857.5656751711
 11
219.3409641759
 21
858.1582632426
 12
219.1928160277
 22
856.6767817611
 13
219.1928160277
 23
856.6767817611
  0
SOLID
  5
344
100
AcDbEntity
  8
0
100
AcDbTrace
 62
5
  6
CONTINUOUS
 10
206.6002234351
 20
857.1212262055
 11
209.1187419536
 21
857.5656751711
 12
209.2668901018
 22
856.5286358735
 13
209.2668901018
 23
856.5286358735
  0
SOLID
  5
345
100
AcDbEntity
  8
0
100
AcDbTrace
 62
5
  6
CONTINUOUS
 10
219.1928160277
 20
856.6767817611
 11
216.6742975092
 21
856.5286358735
 12
216.8224456574
 22
857.5656751711
 13
216.8224456574
 23
857.5656751711
  0
SOLID
  5
346
100
AcDbEntity
  8
0
100
AcDbTrace
 62
5
  6
CONTINUOUS
 10
209.2668901018
 20
856.5286358735
 11
206.7483715833
 21
856.0841891685
 12
206.6002234351
 22
857.1212262055
 13
206.6002234351
 23
857.1212262055
  0
SOLID
  5
347
100
AcDbEntity
  8
0
100
AcDbTrace
 62
5
  6
CONTINUOUS
 10
206.7483715833
 20
856.0841891685
 11
209.2668901018
 21
856.5286358735
 12
209.2668901018
 22
855.6397396378
 13
209.2668901018
 23
855.6397396378
  0
SOLID
  5
348
100
AcDbEntity
  8
0
100
AcDbTrace
 62
5
  6
CONTINUOUS
 10
216.6742975092
 20
855.6397396378
 11
216.6742975092
 21
856.5286358735
 12
219.1928160277
 22
856.6767817611
 13
219.1928160277
 23
856.6767817611
  0
SOLID
  5
349
100
AcDbEntity
  8
0
100
AcDbTrace
 62
5
  6
CONTINUOUS
 10
216.6742975092
 20
855.6397396378
 11
219.1928160277
 21
856.6767817611
 12
219.0446678796
 22
855.3434484277
 13
219.0446678796
 23
855.3434484277
  0
SOLID
  5
34A
100
AcDbEntity
  8
0
100
AcDbTrace
 62
5
  6
CONTINUOUS
 10
209.2668901018
 20
855.6397396378
 11
207.0446678796
 21
854.8990056787
 12
206.7483715833
 22
856.0841891685
 13
206.7483715833
 23
856.0841891685
  0
SOLID
  5
34B
100
AcDbEntity
  8
0
100
AcDbTrace
 62
5
  6
CONTINUOUS
 10
207.0446678796
 20
854.8990056787
 11
209.2668901018
 21
855.6397396378
 12
209.5631863981
 22
854.8990056787
 13
209.5631863981
 23
854.8990056787
  0
SOLID
  5
34C
100
AcDbEntity
  8
0
100
AcDbTrace
 62
5
  6
CONTINUOUS
 10
219.0446678796
 20
855.3434484277
 11
216.5261493611
 21
854.8990056787
 12
216.6742975092
 22
855.6397396378
 13
216.6742975092
 23
855.6397396378
  0
SOLID
  5
34D
100
AcDbEntity
  8
0
100
AcDbTrace
 62
5
  6
CONTINUOUS
 10
216.2298530648
 20
854.3064147816
 11
216.5261493611
 21
854.8990056787
 12
219.0446678796
 22
855.3434484277
 13
219.0446678796
 23
855.3434484277
  0
SOLID
  5
34E
100
AcDbEntity
  8
0
100
AcDbTrace
 62
5
  6
CONTINUOUS
 10
216.2298530648
 20
854.3064147816
 11
219.0446678796
 21
855.3434484277
 12
218.7483715833
 22
854.1582632426
 13
218.7483715833
 23
854.1582632426
  0
SOLID
  5
34F
100
AcDbEntity
  8
0
100
AcDbTrace
 62
5
  6
CONTINUOUS
 10
209.5631863981
 20
854.8990056787
 11
209.7113345462
 21
854.3064147816
 12
207.3409641759
 22
854.0101150944
 13
207.3409641759
 23
854.0101150944
  0
SOLID
  5
350
100
AcDbEntity
  8
0
100
AcDbTrace
 62
5
  6
CONTINUOUS
 10
209.5631863981
 20
854.8990056787
 11
207.3409641759
 21
854.0101150944
 12
207.0446678796
 22
854.8990056787
 13
207.0446678796
 23
854.8990056787
  0
SOLID
  5
351
100
AcDbEntity
  8
0
100
AcDbTrace
 62
5
  6
CONTINUOUS
 10
207.3409641759
 20
854.0101150944
 11
209.7113345462
 21
854.3064147816
 12
209.8594826944
 22
853.7138238844
 13
209.8594826944
 23
853.7138238844
  0
SOLID
  5
352
100
AcDbEntity
  8
0
100
AcDbTrace
 62
5
  6
CONTINUOUS
 10
218.7483715833
 20
854.1582632426
 11
216.0817049166
 21
853.7138238844
 12
216.2298530648
 22
854.3064147816
 13
216.2298530648
 23
854.3064147816
  0
SOLID
  5
353
100
AcDbEntity
  8
0
100
AcDbTrace
 62
5
  6
CONTINUOUS
 10
209.8594826944
 20
853.7138238844
 11
210.1557789907
 21
853.269375484
 12
207.6372604722
 22
853.1212329872
 13
207.6372604722
 23
853.1212329872
  0
SOLID
  5
354
100
AcDbEntity
  8
0
100
AcDbTrace
 62
5
  6
CONTINUOUS
 10
209.8594826944
 20
853.7138238844
 11
207.6372604722
 21
853.1212329872
 12
207.3409641759
 22
854.0101150944
 13
207.3409641759
 23
854.0101150944
  0
SOLID
  5
355
100
AcDbEntity
  8
0
100
AcDbTrace
 62
5
  6
CONTINUOUS
 10
215.7854086203
 20
853.269375484
 11
216.0817049166
 21
853.7138238844
 12
218.7483715833
 22
854.1582632426
 13
218.7483715833
 23
854.1582632426
  0
SOLID
  5
356
100
AcDbEntity
  8
0
100
AcDbTrace
 62
5
  6
CONTINUOUS
 10
215.7854086203
 20
853.269375484
 11
218.7483715833
 21
854.1582632426
 12
218.3039271388
 22
853.1212329872
 13
218.3039271388
 23
853.1212329872
  0
SOLID
  5
357
100
AcDbEntity
  8
0
100
AcDbTrace
 62
5
  6
CONTINUOUS
 10
218.3039271388
 20
853.1212329872
 11
215.1928160277
 21
852.6767817611
 12
215.7854086203
 22
853.269375484
 13
215.7854086203
 23
853.269375484
  0
SOLID
  5
358
100
AcDbEntity
  8
0
100
AcDbTrace
 62
5
  6
CONTINUOUS
 10
207.6372604722
 20
853.1212329872
 11
210.1557789907
 21
853.269375484
 12
210.7483715833
 22
852.5286336129
 13
210.7483715833
 23
852.5286336129
  0
SOLID
  5
359
100
AcDbEntity
  8
0
100
AcDbTrace
 62
5
  6
CONTINUOUS
 10
210.7483715833
 20
852.5286336129
 11
208.0817049166
 21
852.3804854648
 12
207.6372604722
 22
853.1212329872
 13
207.6372604722
 23
853.1212329872
  0
SOLID
  5
35A
100
AcDbEntity
  8
0
100
AcDbTrace
 62
5
  6
CONTINUOUS
 10
215.1928160277
 20
852.6767817611
 11
218.3039271388
 21
853.1212329872
 12
217.8594826944
 22
852.2323373166
 13
217.8594826944
 23
852.2323373166
  0
SOLID
  5
35B
100
AcDbEntity
  8
0
100
AcDbTrace
 62
5
  6
CONTINUOUS
 10
208.0817049166
 20
852.3804854648
 11
210.7483715833
 21
852.5286336129
 12
211.489112324
 22
852.0841935483
 13
211.489112324
 23
852.0841935483
  0
SOLID
  5
35C
100
AcDbEntity
  8
0
100
AcDbTrace
 62
5
  6
CONTINUOUS
 10
217.8594826944
 20
852.2323373166
 11
214.452075287
 21
852.0841935483
 12
215.1928160277
 22
852.6767817611
 13
215.1928160277
 23
852.6767817611
  0
SOLID
  5
35D
100
AcDbEntity
  8
0
100
AcDbTrace
 62
5
  6
CONTINUOUS
 10
212.9705938055
 20
851.7878879272
 11
213.7113345462
 21
851.7878879272
 12
208.5261493611
 22
851.639744724
 13
208.5261493611
 23
851.639744724
  0
SOLID
  5
35E
100
AcDbEntity
  8
0
100
AcDbTrace
 62
5
  6
CONTINUOUS
 10
212.2298530648
 20
851.7878879272
 11
212.9705938055
 21
851.7878879272
 12
208.5261493611
 22
851.639744724
 13
208.5261493611
 23
851.639744724
  0
SOLID
  5
35F
100
AcDbEntity
  8
0
100
AcDbTrace
 62
5
  6
CONTINUOUS
 10
211.489112324
 20
852.0841935483
 11
212.2298530648
 21
851.7878879272
 12
208.5261493611
 22
851.639744724
 13
208.5261493611
 23
851.639744724
  0
SOLID
  5
360
100
AcDbEntity
  8
0
100
AcDbTrace
 62
5
  6
CONTINUOUS
 10
211.489112324
 20
852.0841935483
 11
208.5261493611
 21
851.639744724
 12
208.0817049166
 22
852.3804854648
 13
208.0817049166
 23
852.3804854648
  0
SOLID
  5
361
100
AcDbEntity
  8
0
100
AcDbTrace
 62
5
  6
CONTINUOUS
 10
213.7113345462
 20
851.7878879272
 11
214.452075287
 21
852.0841935483
 12
217.8594826944
 22
852.2323373166
 13
217.8594826944
 23
852.2323373166
  0
SOLID
  5
362
100
AcDbEntity
  8
0
100
AcDbTrace
 62
5
  6
CONTINUOUS
 10
217.2668901018
 20
851.3434484277
 11
208.5261493611
 21
851.639744724
 12
213.7113345462
 22
851.7878879272
 13
213.7113345462
 23
851.7878879272
  0
SOLID
  5
363
100
AcDbEntity
  8
0
100
AcDbTrace
 62
5
  6
CONTINUOUS
 10
213.7113345462
 20
851.7878879272
 11
217.8594826944
 21
852.2323373166
 12
217.2668901018
 22
851.3434484277
 13
217.2668901018
 23
851.3434484277
  0
SOLID
  5
364
100
AcDbEntity
  8
0
100
AcDbTrace
 62
5
  6
CONTINUOUS
 10
217.2668901018
 20
851.3434484277
 11
208.9705938055
 21
851.1953002796
 12
208.5261493611
 22
851.639744724
 13
208.5261493611
 23
851.639744724
  0
SOLID
  5
365
100
AcDbEntity
  8
0
100
AcDbTrace
 62
5
  6
CONTINUOUS
 10
209.4150382499
 20
850.7508487003
 11
208.9705938055
 21
851.1953002796
 12
217.2668901018
 22
851.3434484277
 13
217.2668901018
 23
851.3434484277
  0
SOLID
  5
366
100
AcDbEntity
  8
0
100
AcDbTrace
 62
5
  6
CONTINUOUS
 10
209.4150382499
 20
850.7508487003
 11
217.2668901018
 21
851.3434484277
 12
216.5261493611
 22
850.7508487003
 13
216.5261493611
 23
850.7508487003
  0
SOLID
  5
367
100
AcDbEntity
  8
0
100
AcDbTrace
 62
5
  6
CONTINUOUS
 10
216.5261493611
 20
850.7508487003
 11
209.8594826944
 21
850.4545595389
 12
209.4150382499
 22
850.7508487003
 13
209.4150382499
 23
850.7508487003
  0
SOLID
  5
368
100
AcDbEntity
  8
0
100
AcDbTrace
 62
5
  6
CONTINUOUS
 10
209.8594826944
 20
850.4545595389
 11
216.5261493611
 21
850.7508487003
 12
215.7854086203
 22
850.3064113907
 13
215.7854086203
 23
850.3064113907
  0
SOLID
  5
369
100
AcDbEntity
  8
0
100
AcDbTrace
 62
5
  6
CONTINUOUS
 10
215.7854086203
 20
850.3064113907
 11
210.452075287
 21
850.1582632426
 12
209.8594826944
 22
850.4545595389
 13
209.8594826944
 23
850.4545595389
  0
SOLID
  5
36A
100
AcDbEntity
  8
0
100
AcDbTrace
 62
5
  6
CONTINUOUS
 10
211.0446678796
 20
850.0101150944
 11
210.452075287
 21
850.1582632426
 12
215.7854086203
 22
850.3064113907
 13
215.7854086203
 23
850.3064113907
  0
SOLID
  5
36B
100
AcDbEntity
  8
0
100
AcDbTrace
 62
5
  6
CONTINUOUS
 10
211.0446678796
 20
850.0101150944
 11
215.7854086203
 21
850.3064113907
 12
214.8965197314
 22
850.0101150944
 13
214.8965197314
 23
850.0101150944
  0
SOLID
  5
36C
100
AcDbEntity
  8
0
100
AcDbTrace
 62
5
  6
CONTINUOUS
 10
214.8965197314
 20
850.0101150944
 11
211.6372604722
 21
849.8619724299
 12
211.0446678796
 22
850.0101150944
 13
211.0446678796
 23
850.0101150944
  0
SOLID
  5
36D
100
AcDbEntity
  8
0
100
AcDbTrace
 62
5
  6
CONTINUOUS
 10
212.2298530648
 20
849.8619724299
 11
211.6372604722
 21
849.8619724299
 12
214.8965197314
 22
850.0101150944
 13
214.8965197314
 23
850.0101150944
  0
SOLID
  5
36E
100
AcDbEntity
  8
0
100
AcDbTrace
 62
5
  6
CONTINUOUS
 10
212.2298530648
 20
849.8619724299
 11
214.8965197314
 21
850.0101150944
 12
214.0076308425
 22
849.8619724299
 13
214.0076308425
 23
849.8619724299
  0
SOLID
  5
36F
100
AcDbEntity
  8
0
100
AcDbTrace
 62
5
  6
CONTINUOUS
 10
214.0076308425
 20
849.8619724299
 11
212.9705938055
 21
849.7138187981
 12
212.2298530648
 22
849.8619724299
 13
212.2298530648
 23
849.8619724299
  0
SOLID
  5
370
100
AcDbEntity
  8
0
100
AcDbTrace
 62
5
  6
CONTINUOUS
 10
228.5261493611
 20
870.306420433
 11
220.6742975092
 21
849.7138288647
 12
226.452075287
 22
870.306420433
 13
226.452075287
 23
870.306420433
  0
SOLID
  5
371
100
AcDbEntity
  8
0
100
AcDbTrace
 62
5
  6
CONTINUOUS
 10
220.6742975092
 20
849.7138288647
 11
228.5261493611
 21
870.306420433
 12
222.7483715833
 22
849.7138288647
 13
222.7483715833
 23
849.7138288647
  0
SOLID
  5
372
100
AcDbEntity
  8
0
100
AcDbTrace
 62
5
  6
CONTINUOUS
 10
238.1557789907
 20
870.1582587214
 11
239.6372604722
 21
870.3064113907
 12
240.6742975092
 22
870.1582587214
 13
240.6742975092
 23
870.1582587214
  0
SOLID
  5
373
100
AcDbEntity
  8
0
100
AcDbTrace
 62
5
  6
CONTINUOUS
 10
240.6742975092
 20
870.1582587214
 11
241.7113345462
 21
870.0101150944
 12
236.8224456574
 22
869.8619714674
 13
236.8224456574
 23
869.8619714674
  0
SOLID
  5
374
100
AcDbEntity
  8
0
100
AcDbTrace
 62
5
  6
CONTINUOUS
 10
240.6742975092
 20
870.1582587214
 11
236.8224456574
 21
869.8619714674
 12
238.1557789907
 22
870.1582587214
 13
238.1557789907
 23
870.1582587214
  0
SOLID
  5
375
100
AcDbEntity
  8
0
100
AcDbTrace
 62
5
  6
CONTINUOUS
 10
236.8224456574
 20
869.8619714674
 11
241.7113345462
 21
870.0101150944
 12
242.7483715833
 22
869.8619714674
 13
242.7483715833
 23
869.8619714674
  0
SOLID
  5
376
100
AcDbEntity
  8
0
100
AcDbTrace
 62
5
  6
CONTINUOUS
 10
242.7483715833
 20
869.8619714674
 11
235.6372604722
 21
869.5656638683
 12
236.8224456574
 22
869.8619714674
 13
236.8224456574
 23
869.8619714674
  0
SOLID
  5
377
100
AcDbEntity
  8
0
100
AcDbTrace
 62
5
  6
CONTINUOUS
 10
235.6372604722
 20
869.5656638683
 11
242.7483715833
 21
869.8619714674
 12
243.6372604722
 22
869.5656638683
 13
243.6372604722
 23
869.5656638683
  0
SOLID
  5
378
100
AcDbEntity
  8
0
100
AcDbTrace
 62
5
  6
CONTINUOUS
 10
243.6372604722
 20
869.5656638683
 11
244.3780012129
 21
869.1212262055
 12
234.3039271388
 22
868.9730780574
 13
234.3039271388
 23
868.9730780574
  0
SOLID
  5
379
100
AcDbEntity
  8
0
100
AcDbTrace
 62
5
  6
CONTINUOUS
 10
243.6372604722
 20
869.5656638683
 11
234.3039271388
 21
868.9730780574
 12
235.6372604722
 22
869.5656638683
 13
235.6372604722
 23
869.5656638683
  0
SOLID
  5
37A
100
AcDbEntity
  8
0
100
AcDbTrace
 62
5
  6
CONTINUOUS
 10
234.3039271388
 20
868.9730780574
 11
244.3780012129
 21
869.1212262055
 12
245.1187419536
 22
868.6767817611
 13
245.1187419536
 23
868.6767817611
  0
SOLID
  5
37B
100
AcDbEntity
  8
0
100
AcDbTrace
 62
5
  6
CONTINUOUS
 10
245.1187419536
 20
868.6767817611
 11
233.2668901018
 21
868.3804854648
 12
234.3039271388
 22
868.9730780574
 13
234.3039271388
 23
868.9730780574
  0
SOLID
  5
37C
100
AcDbEntity
  8
0
100
AcDbTrace
 62
5
  6
CONTINUOUS
 10
233.2668901018
 20
868.3804854648
 11
245.1187419536
 21
868.6767817611
 12
245.8594826944
 22
868.2323373166
 13
245.8594826944
 23
868.2323373166
  0
SOLID
  5
37D
100
AcDbEntity
  8
0
100
AcDbTrace
 62
5
  6
CONTINUOUS
 10
237.8594826944
 20
867.7878860905
 11
239.6372604722
 21
867.9360410203
 12
238.7483715833
 22
867.7878860905
 13
238.7483715833
 23
867.7878860905
  0
SOLID
  5
37E
100
AcDbEntity
  8
0
100
AcDbTrace
 62
5
  6
CONTINUOUS
 10
239.6372604722
 20
867.9360410203
 11
237.8594826944
 21
867.7878860905
 12
232.3780012129
 22
867.4915988365
 13
232.3780012129
 23
867.4915988365
  0
SOLID
  5
37F
100
AcDbEntity
  8
0
100
AcDbTrace
 62
5
  6
CONTINUOUS
 10
233.2668901018
 20
868.3804854648
 11
245.8594826944
 21
868.2323373166
 12
239.6372604722
 22
867.9360410203
 13
239.6372604722
 23
867.9360410203
  0
SOLID
  5
380
100
AcDbEntity
  8
0
100
AcDbTrace
 62
5
  6
CONTINUOUS
 10
239.6372604722
 20
867.9360410203
 11
232.3780012129
 21
867.4915988365
 12
233.2668901018
 22
868.3804854648
 13
233.2668901018
 23
868.3804854648
  0
SOLID
  5
381
100
AcDbEntity
  8
0
100
AcDbTrace
 62
5
  6
CONTINUOUS
 10
232.3780012129
 20
867.4915988365
 11
237.8594826944
 21
867.7878860905
 12
237.1187419536
 22
867.4915988365
 13
237.1187419536
 23
867.4915988365
  0
SOLID
  5
382
100
AcDbEntity
  8
0
100
AcDbTrace
 62
5
  6
CONTINUOUS
 10
240.3780012129
 20
867.7878860905
 11
239.6372604722
 21
867.9360410203
 12
245.8594826944
 22
868.2323373166
 13
245.8594826944
 23
868.2323373166
  0
SOLID
  5
383
100
AcDbEntity
  8
0
100
AcDbTrace
 62
5
  6
CONTINUOUS
 10
241.1187419536
 20
867.7878860905
 11
240.3780012129
 21
867.7878860905
 12
245.8594826944
 22
868.2323373166
 13
245.8594826944
 23
868.2323373166
  0
SOLID
  5
384
100
AcDbEntity
  8
0
100
AcDbTrace
 62
5
  6
CONTINUOUS
 10
241.7113345462
 20
867.639744724
 11
241.1187419536
 21
867.7878860905
 12
245.8594826944
 22
868.2323373166
 13
245.8594826944
 23
868.2323373166
  0
SOLID
  5
385
100
AcDbEntity
  8
0
100
AcDbTrace
 62
5
  6
CONTINUOUS
 10
241.7113345462
 20
867.639744724
 11
245.8594826944
 21
868.2323373166
 12
246.3039271388
 22
867.4915988365
 13
246.3039271388
 23
867.4915988365
  0
SOLID
  5
386
100
AcDbEntity
  8
0
100
AcDbTrace
 62
5
  6
CONTINUOUS
 10
246.3039271388
 20
867.4915988365
 11
242.3039271388
 21
867.3434563397
 12
241.7113345462
 22
867.639744724
 13
241.7113345462
 23
867.639744724
  0
SOLID
  5
387
100
AcDbEntity
  8
0
100
AcDbTrace
 62
5
  6
CONTINUOUS
 10
242.8965197314
 20
867.0471498709
 11
242.3039271388
 21
867.3434563397
 12
246.3039271388
 22
867.4915988365
 13
246.3039271388
 23
867.4915988365
  0
SOLID
  5
388
100
AcDbEntity
  8
0
100
AcDbTrace
 62
5
  6
CONTINUOUS
 10
242.8965197314
 20
867.0471498709
 11
246.3039271388
 21
867.4915988365
 12
246.7483715833
 22
866.8990039833
 13
246.7483715833
 23
866.8990039833
  0
SOLID
  5
389
100
AcDbEntity
  8
0
100
AcDbTrace
 62
5
  6
CONTINUOUS
 10
246.7483715833
 20
866.8990039833
 11
243.489112324
 21
866.7508637471
 12
242.8965197314
 22
867.0471498709
 13
242.8965197314
 23
867.0471498709
  0
SOLID
  5
38A
100
AcDbEntity
  8
0
100
AcDbTrace
 62
5
  6
CONTINUOUS
 10
235.7854086203
 20
867.0471498709
 11
235.3409641759
 21
866.7508637471
 12
231.489112324
 22
866.454556148
 13
231.489112324
 23
866.454556148
  0
SOLID
  5
38B
100
AcDbEntity
  8
0
100
AcDbTrace
 62
5
  6
CONTINUOUS
 10
236.5261493611
 20
867.3434563397
 11
235.7854086203
 21
867.0471498709
 12
231.489112324
 22
866.454556148
 13
231.489112324
 23
866.454556148
  0
SOLID
  5
38C
100
AcDbEntity
  8
0
100
AcDbTrace
 62
5
  6
CONTINUOUS
 10
237.1187419536
 20
867.4915988365
 11
236.5261493611
 21
867.3434563397
 12
231.489112324
 22
866.454556148
 13
231.489112324
 23
866.454556148
  0
SOLID
  5
38D
100
AcDbEntity
  8
0
100
AcDbTrace
 62
5
  6
CONTINUOUS
 10
237.1187419536
 20
867.4915988365
 11
231.489112324
 21
866.454556148
 12
232.3780012129
 22
867.4915988365
 13
232.3780012129
 23
867.4915988365
  0
SOLID
  5
38E
100
AcDbEntity
  8
0
100
AcDbTrace
 62
5
  6
CONTINUOUS
 10
231.489112324
 20
866.454556148
 11
235.3409641759
 21
866.7508637471
 12
234.7483715833
 22
866.3064113907
 13
234.7483715833
 23
866.3064113907
  0
SOLID
  5
38F
100
AcDbEntity
  8
0
100
AcDbTrace
 62
5
  6
CONTINUOUS
 10
243.9335567685
 20
866.454556148
 11
243.489112324
 21
866.7508637471
 12
246.7483715833
 22
866.8990039833
 13
246.7483715833
 23
866.8990039833
  0
SOLID
  5
390
100
AcDbEntity
  8
0
100
AcDbTrace
 62
5
  6
CONTINUOUS
 10
243.9335567685
 20
866.454556148
 11
246.7483715833
 21
866.8990039833
 12
247.1928160277
 22
866.1582632426
 13
247.1928160277
 23
866.1582632426
  0
SOLID
  5
391
100
AcDbEntity
  8
0
100
AcDbTrace
 62
5
  6
CONTINUOUS
 10
247.1928160277
 20
866.1582632426
 11
244.2298530648
 21
866.0101150944
 12
243.9335567685
 22
866.454556148
 13
243.9335567685
 23
866.454556148
  0
SOLID
  5
392
100
AcDbEntity
  8
0
100
AcDbTrace
 62
5
  6
CONTINUOUS
 10
234.7483715833
 20
866.3064113907
 11
234.3039271388
 21
865.8619669463
 12
230.8965197314
 22
865.2693698325
 13
230.8965197314
 23
865.2693698325
  0
SOLID
  5
393
100
AcDbEntity
  8
0
100
AcDbTrace
 62
5
  6
CONTINUOUS
 10
234.7483715833
 20
866.3064113907
 11
230.8965197314
 21
865.2693698325
 12
231.489112324
 22
866.454556148
 13
231.489112324
 23
866.454556148
  0
SOLID
  5
394
100
AcDbEntity
  8
0
100
AcDbTrace
 62
5
  6
CONTINUOUS
 10
244.5261493611
 20
865.56567065
 11
244.2298530648
 21
866.0101150944
 12
247.1928160277
 22
866.1582632426
 13
247.1928160277
 23
866.1582632426
  0
SOLID
  5
395
100
AcDbEntity
  8
0
100
AcDbTrace
 62
5
  6
CONTINUOUS
 10
244.5261493611
 20
865.56567065
 11
247.1928160277
 21
866.1582632426
 12
247.489112324
 22
865.2693698325
 13
247.489112324
 23
865.2693698325
  0
SOLID
  5
396
100
AcDbEntity
  8
0
100
AcDbTrace
 62
5
  6
CONTINUOUS
 10
230.8965197314
 20
865.2693698325
 11
234.3039271388
 21
865.8619669463
 12
233.5631863981
 22
864.9730837088
 13
233.5631863981
 23
864.9730837088
  0
SOLID
  5
397
100
AcDbEntity
  8
0
100
AcDbTrace
 62
5
  6
CONTINUOUS
 10
247.489112324
 20
865.2693698325
 11
244.8224456574
 21
864.9730837088
 12
244.5261493611
 22
865.56567065
 13
244.5261493611
 23
865.56567065
  0
SOLID
  5
398
100
AcDbEntity
  8
0
100
AcDbTrace
 62
5
  6
CONTINUOUS
 10
245.1187419536
 20
864.3804854648
 11
244.8224456574
 21
864.9730837088
 12
247.489112324
 22
865.2693698325
 13
247.489112324
 23
865.2693698325
  0
SOLID
  5
399
100
AcDbEntity
  8
0
100
AcDbTrace
 62
5
  6
CONTINUOUS
 10
245.1187419536
 20
864.3804854648
 11
247.489112324
 21
865.2693698325
 12
247.7854086203
 22
864.2323373166
 13
247.7854086203
 23
864.2323373166
  0
SOLID
  5
39A
100
AcDbEntity
  8
0
100
AcDbTrace
 62
5
  6
CONTINUOUS
 10
233.5631863981
 20
864.9730837088
 11
230.3039271388
 21
863.9360410203
 12
230.8965197314
 22
865.2693698325
 13
230.8965197314
 23
865.2693698325
  0
SOLID
  5
39B
100
AcDbEntity
  8
0
100
AcDbTrace
 62
5
  6
CONTINUOUS
 10
230.3039271388
 20
863.9360410203
 11
233.5631863981
 21
864.9730837088
 12
233.1187419536
 22
863.9360410203
 13
233.1187419536
 23
863.9360410203
  0
SOLID
  5
39C
100
AcDbEntity
  8
0
100
AcDbTrace
 62
5
  6
CONTINUOUS
 10
247.7854086203
 20
864.2323373166
 11
245.4150382499
 21
863.639744724
 12
245.1187419536
 22
864.3804854648
 13
245.1187419536
 23
864.3804854648
  0
SOLID
  5
39D
100
AcDbEntity
  8
0
100
AcDbTrace
 62
5
  6
CONTINUOUS
 10
233.1187419536
 20
863.9360410203
 11
232.6742975092
 21
863.0471521315
 12
230.0076308425
 22
862.602707687
 13
230.0076308425
 23
862.602707687
  0
SOLID
  5
39E
100
AcDbEntity
  8
0
100
AcDbTrace
 62
5
  6
CONTINUOUS
 10
233.1187419536
 20
863.9360410203
 11
230.0076308425
 21
862.602707687
 12
230.3039271388
 22
863.9360410203
 13
230.3039271388
 23
863.9360410203
  0
SOLID
  5
39F
100
AcDbEntity
  8
0
100
AcDbTrace
 62
5
  6
CONTINUOUS
 10
230.0076308425
 20
862.602707687
 11
232.6742975092
 21
863.0471521315
 12
232.5261493611
 22
862.0101150944
 13
232.5261493611
 23
862.0101150944
  0
SOLID
  5
3A0
100
AcDbEntity
  8
0
100
AcDbTrace
 62
5
  6
CONTINUOUS
 10
232.5261493611
 20
862.0101150944
 11
229.7113345462
 21
861.2693743537
 12
230.0076308425
 22
862.602707687
 13
230.0076308425
 23
862.602707687
  0
SOLID
  5
3A1
100
AcDbEntity
  8
0
100
AcDbTrace
 62
5
  6
CONTINUOUS
 10
229.7113345462
 20
861.2693743537
 11
232.5261493611
 21
862.0101150944
 12
232.3780012129
 22
860.9730780574
 13
232.3780012129
 23
860.9730780574
  0
SOLID
  5
3A2
100
AcDbEntity
  8
0
100
AcDbTrace
 62
5
  6
CONTINUOUS
 10
232.3780012129
 20
860.9730780574
 11
232.3780012129
 21
859.9360410203
 12
229.7113345462
 22
859.7878928722
 13
229.7113345462
 23
859.7878928722
  0
SOLID
  5
3A3
100
AcDbEntity
  8
0
100
AcDbTrace
 62
5
  6
CONTINUOUS
 10
232.3780012129
 20
860.9730780574
 11
229.7113345462
 21
859.7878928722
 12
229.7113345462
 22
861.2693743537
 13
229.7113345462
 23
861.2693743537
  0
SOLID
  5
3A4
100
AcDbEntity
  8
0
100
AcDbTrace
 62
5
  6
CONTINUOUS
 10
229.7113345462
 20
859.7878928722
 11
232.3780012129
 21
859.9360410203
 12
232.3780012129
 22
858.7508558352
 13
232.3780012129
 23
858.7508558352
  0
SOLID
  5
3A5
100
AcDbEntity
  8
0
100
AcDbTrace
 62
5
  6
CONTINUOUS
 10
232.3780012129
 20
858.7508558352
 11
229.7113345462
 21
858.4545595389
 12
229.7113345462
 22
859.7878928722
 13
229.7113345462
 23
859.7878928722
  0
SOLID
  5
3A6
100
AcDbEntity
  8
0
100
AcDbTrace
 62
5
  6
CONTINUOUS
 10
248.2298530648
 20
860.2323395772
 11
239.7854086203
 21
857.8619675114
 12
239.7854086203
 22
860.2323395772
 13
239.7854086203
 23
860.2323395772
  0
SOLID
  5
3A7
100
AcDbEntity
  8
0
100
AcDbTrace
 62
5
  6
CONTINUOUS
 10
229.7113345462
 20
858.4545595389
 11
232.3780012129
 21
858.7508558352
 12
232.5261493611
 22
857.56567065
 13
232.5261493611
 23
857.56567065
  0
SOLID
  5
3A8
100
AcDbEntity
  8
0
100
AcDbTrace
 62
5
  6
CONTINUOUS
 10
232.5261493611
 20
857.56567065
 11
230.0076308425
 21
857.1212262055
 12
229.7113345462
 22
858.4545595389
 13
229.7113345462
 23
858.4545595389
  0
SOLID
  5
3A9
100
AcDbEntity
  8
0
100
AcDbTrace
 62
5
  6
CONTINUOUS
 10
230.0076308425
 20
857.1212262055
 11
232.5261493611
 21
857.56567065
 12
232.8224456574
 22
856.5286336129
 13
232.8224456574
 23
856.5286336129
  0
SOLID
  5
3AA
100
AcDbEntity
  8
0
100
AcDbTrace
 62
5
  6
CONTINUOUS
 10
232.8224456574
 20
856.5286336129
 11
230.3039271388
 21
855.7878928722
 12
230.0076308425
 22
857.1212262055
 13
230.0076308425
 23
857.1212262055
  0
SOLID
  5
3AB
100
AcDbEntity
  8
0
100
AcDbTrace
 62
5
  6
CONTINUOUS
 10
230.3039271388
 20
855.7878928722
 11
232.8224456574
 21
856.5286336129
 12
233.2668901018
 22
855.4915965759
 13
233.2668901018
 23
855.4915965759
  0
SOLID
  5
3AC
100
AcDbEntity
  8
0
100
AcDbTrace
 62
5
  6
CONTINUOUS
 10
233.2668901018
 20
855.4915965759
 11
233.7113345462
 21
854.7508558352
 12
230.8965197314
 22
854.602707687
 13
230.8965197314
 23
854.602707687
  0
SOLID
  5
3AD
100
AcDbEntity
  8
0
100
AcDbTrace
 62
5
  6
CONTINUOUS
 10
233.2668901018
 20
855.4915965759
 11
230.8965197314
 21
854.602707687
 12
230.3039271388
 22
855.7878928722
 13
230.3039271388
 23
855.7878928722
  0
SOLID
  5
3AE
100
AcDbEntity
  8
0
100
AcDbTrace
 62
5
  6
CONTINUOUS
 10
230.8965197314
 20
854.602707687
 11
233.7113345462
 21
854.7508558352
 12
234.3039271388
 22
854.0101232889
 13
234.3039271388
 23
854.0101232889
  0
SOLID
  5
3AF
100
AcDbEntity
  8
0
100
AcDbTrace
 62
5
  6
CONTINUOUS
 10
234.3039271388
 20
854.0101232889
 11
231.489112324
 21
853.4175301312
 12
230.8965197314
 22
854.602707687
 13
230.8965197314
 23
854.602707687
  0
SOLID
  5
3B0
100
AcDbEntity
  8
0
100
AcDbTrace
 62
5
  6
CONTINUOUS
 10
231.489112324
 20
853.4175301312
 11
234.3039271388
 21
854.0101232889
 12
235.0446678796
 22
853.4175301312
 13
235.0446678796
 23
853.4175301312
  0
SOLID
  5
3B1
100
AcDbEntity
  8
0
100
AcDbTrace
 62
5
  6
CONTINUOUS
 10
245.5631863981
 20
857.8619675114
 11
239.7854086203
 21
857.8619675114
 12
248.2298530648
 22
860.2323395772
 13
248.2298530648
 23
860.2323395772
  0
SOLID
  5
3B2
100
AcDbEntity
  8
0
100
AcDbTrace
 62
5
  6
CONTINUOUS
 10
245.5631863981
 20
854.0101232889
 11
245.5631863981
 21
857.8619675114
 12
248.2298530648
 22
860.2323395772
 13
248.2298530648
 23
860.2323395772
  0
SOLID
  5
3B3
100
AcDbEntity
  8
0
100
AcDbTrace
 62
5
  6
CONTINUOUS
 10
243.7854086203
 20
852.9730780574
 11
244.3780012129
 21
853.4175301312
 12
244.9705938055
 22
853.7138187981
 13
244.9705938055
 23
853.7138187981
  0
SOLID
  5
3B4
100
AcDbEntity
  8
0
100
AcDbTrace
 62
5
  6
CONTINUOUS
 10
243.7854086203
 20
852.9730780574
 11
244.9705938055
 21
853.7138187981
 12
245.5631863981
 22
854.0101232889
 13
245.5631863981
 23
854.0101232889
  0
SOLID
  5
3B5
100
AcDbEntity
  8
0
100
AcDbTrace
 62
5
  6
CONTINUOUS
 10
248.2298530648
 20
852.8249372561
 11
243.7854086203
 21
852.9730780574
 12
245.5631863981
 22
854.0101232889
 13
245.5631863981
 23
854.0101232889
  0
SOLID
  5
3B6
100
AcDbEntity
  8
0
100
AcDbTrace
 62
5
  6
CONTINUOUS
 10
245.5631863981
 20
854.0101232889
 11
248.2298530648
 21
860.2323395772
 12
248.2298530648
 22
852.8249372561
 13
248.2298530648
 23
852.8249372561
  0
SOLID
  5
3B7
100
AcDbEntity
  8
0
100
AcDbTrace
 62
5
  6
CONTINUOUS
 10
248.2298530648
 20
852.8249372561
 11
243.0446678796
 21
852.6767817611
 12
243.7854086203
 22
852.9730780574
 13
243.7854086203
 23
852.9730780574
  0
SOLID
  5
3B8
100
AcDbEntity
  8
0
100
AcDbTrace
 62
5
  6
CONTINUOUS
 10
235.9335567685
 20
852.8249372561
 11
236.8224456574
 21
852.5286336129
 12
232.3780012129
 22
852.3804871602
 13
232.3780012129
 23
852.3804871602
  0
SOLID
  5
3B9
100
AcDbEntity
  8
0
100
AcDbTrace
 62
5
  6
CONTINUOUS
 10
235.0446678796
 20
853.4175301312
 11
235.9335567685
 21
852.8249372561
 12
232.3780012129
 22
852.3804871602
 13
232.3780012129
 23
852.3804871602
  0
SOLID
  5
3BA
100
AcDbEntity
  8
0
100
AcDbTrace
 62
5
  6
CONTINUOUS
 10
235.0446678796
 20
853.4175301312
 11
232.3780012129
 21
852.3804871602
 12
231.489112324
 22
853.4175301312
 13
231.489112324
 23
853.4175301312
  0
SOLID
  5
3BB
100
AcDbEntity
  8
0
100
AcDbTrace
 62
5
  6
CONTINUOUS
 10
232.3780012129
 20
852.3804871602
 11
236.8224456574
 21
852.5286336129
 12
237.7113345462
 22
852.2323440983
 13
237.7113345462
 23
852.2323440983
  0
SOLID
  5
3BC
100
AcDbEntity
  8
0
100
AcDbTrace
 62
5
  6
CONTINUOUS
 10
242.1557789907
 20
852.3804871602
 11
243.0446678796
 21
852.6767817611
 12
248.2298530648
 22
852.8249372561
 13
248.2298530648
 23
852.8249372561
  0
SOLID
  5
3BD
100
AcDbEntity
  8
0
100
AcDbTrace
 62
5
  6
CONTINUOUS
 10
241.4150382499
 20
852.2323440983
 11
242.1557789907
 21
852.3804871602
 12
248.2298530648
 22
852.8249372561
 13
248.2298530648
 23
852.8249372561
  0
SOLID
  5
3BE
100
AcDbEntity
  8
0
100
AcDbTrace
 62
5
  6
CONTINUOUS
 10
240.5261493611
 20
852.0841804088
 11
241.4150382499
 21
852.2323440983
 12
248.2298530648
 22
852.8249372561
 13
248.2298530648
 23
852.8249372561
  0
SOLID
  5
3BF
100
AcDbEntity
  8
0
100
AcDbTrace
 62
5
  6
CONTINUOUS
 10
240.5261493611
 20
852.0841804088
 11
248.2298530648
 21
852.8249372561
 12
247.1928160277
 22
852.0841804088
 13
247.1928160277
 23
852.0841804088
  0
SOLID
  5
3C0
100
AcDbEntity
  8
0
100
AcDbTrace
 62
5
  6
CONTINUOUS
 10
240.5261493611
 20
852.0841804088
 11
247.1928160277
 21
852.0841804088
 12
233.4150382499
 22
851.639744724
 13
233.4150382499
 23
851.639744724
  0
SOLID
  5
3C1
100
AcDbEntity
  8
0
100
AcDbTrace
 62
5
  6
CONTINUOUS
 10
239.6372604722
 20
852.0841804088
 11
240.5261493611
 21
852.0841804088
 12
233.4150382499
 22
851.639744724
 13
233.4150382499
 23
851.639744724
  0
SOLID
  5
3C2
100
AcDbEntity
  8
0
100
AcDbTrace
 62
5
  6
CONTINUOUS
 10
238.6002234351
 20
852.0841804088
 11
239.6372604722
 21
852.0841804088
 12
233.4150382499
 22
851.639744724
 13
233.4150382499
 23
851.639744724
  0
SOLID
  5
3C3
100
AcDbEntity
  8
0
100
AcDbTrace
 62
5
  6
CONTINUOUS
 10
237.7113345462
 20
852.2323440983
 11
238.6002234351
 21
852.0841804088
 12
233.4150382499
 22
851.639744724
 13
233.4150382499
 23
851.639744724
  0
SOLID
  5
3C4
100
AcDbEntity
  8
0
100
AcDbTrace
 62
5
  6
CONTINUOUS
 10
237.7113345462
 20
852.2323440983
 11
233.4150382499
 21
851.639744724
 12
232.3780012129
 22
852.3804871602
 13
232.3780012129
 23
852.3804871602
  0
SOLID
  5
3C5
100
AcDbEntity
  8
0
100
AcDbTrace
 62
5
  6
CONTINUOUS
 10
233.4150382499
 20
851.639744724
 11
247.1928160277
 21
852.0841804088
 12
246.1557789907
 22
851.3434484277
 13
246.1557789907
 23
851.3434484277
  0
SOLID
  5
3C6
100
AcDbEntity
  8
0
100
AcDbTrace
 62
5
  6
CONTINUOUS
 10
246.1557789907
 20
851.3434484277
 11
234.452075287
 21
850.8989943759
 12
233.4150382499
 22
851.639744724
 13
233.4150382499
 23
851.639744724
  0
SOLID
  5
3C7
100
AcDbEntity
  8
0
100
AcDbTrace
 62
5
  6
CONTINUOUS
 10
234.452075287
 20
850.8989943759
 11
246.1557789907
 21
851.3434484277
 12
245.1187419536
 22
850.8989943759
 13
245.1187419536
 23
850.8989943759
  0
SOLID
  5
3C8
100
AcDbEntity
  8
0
100
AcDbTrace
 62
5
  6
CONTINUOUS
 10
245.1187419536
 20
850.8989943759
 11
244.0817049166
 21
850.4545595389
 12
235.7854086203
 22
850.3064113907
 13
235.7854086203
 23
850.3064113907
  0
SOLID
  5
3C9
100
AcDbEntity
  8
0
100
AcDbTrace
 62
5
  6
CONTINUOUS
 10
245.1187419536
 20
850.8989943759
 11
235.7854086203
 21
850.3064113907
 12
234.452075287
 22
850.8989943759
 13
234.452075287
 23
850.8989943759
  0
SOLID
  5
3CA
100
AcDbEntity
  8
0
100
AcDbTrace
 62
5
  6
CONTINUOUS
 10
237.1187419536
 20
850.0101150944
 11
235.7854086203
 21
850.3064113907
 12
244.0817049166
 22
850.4545595389
 13
244.0817049166
 23
850.4545595389
  0
SOLID
  5
3CB
100
AcDbEntity
  8
0
100
AcDbTrace
 62
5
  6
CONTINUOUS
 10
242.0076308425
 20
850.0101150944
 11
237.1187419536
 21
850.0101150944
 12
244.0817049166
 22
850.4545595389
 13
244.0817049166
 23
850.4545595389
  0
SOLID
  5
3CC
100
AcDbEntity
  8
0
100
AcDbTrace
 62
5
  6
CONTINUOUS
 10
242.0076308425
 20
850.0101150944
 11
244.0817049166
 21
850.4545595389
 12
243.0446678796
 22
850.0101150944
 13
243.0446678796
 23
850.0101150944
  0
SOLID
  5
3CD
100
AcDbEntity
  8
0
100
AcDbTrace
 62
5
  6
CONTINUOUS
 10
242.0076308425
 20
850.0101150944
 11
238.452075287
 21
849.8619719795
 12
237.1187419536
 22
850.0101150944
 13
237.1187419536
 23
850.0101150944
  0
SOLID
  5
3CE
100
AcDbEntity
  8
0
100
AcDbTrace
 62
5
  6
CONTINUOUS
 10
238.452075287
 20
849.8619719795
 11
242.0076308425
 21
850.0101150944
 12
240.9705938055
 22
849.8619719795
 13
240.9705938055
 23
849.8619719795
  0
SOLID
  5
3CF
100
AcDbEntity
  8
0
100
AcDbTrace
 62
5
  6
CONTINUOUS
 10
240.9705938055
 20
849.8619719795
 11
239.9335567685
 21
849.7138187981
 12
238.452075287
 22
849.8619719795
 13
238.452075287
 23
849.8619719795
  0
SOLID
  5
3D0
100
AcDbEntity
  8
0
100
AcDbTrace
 62
5
  6
CONTINUOUS
 10
254.452075287
 20
870.0101150944
 11
251.9335567685
 21
850.0101150944
 12
251.9335567685
 22
870.0101150944
 13
251.9335567685
 23
870.0101150944
  0
SOLID
  5
3D1
100
AcDbEntity
  8
0
100
AcDbTrace
 62
5
  6
CONTINUOUS
 10
251.9335567685
 20
850.0101150944
 11
254.452075287
 21
870.0101150944
 12
254.452075287
 22
850.0101150944
 13
254.452075287
 23
850.0101150944
  0
SOLID
  5
3D2
100
AcDbEntity
  8
0
100
AcDbTrace
 62
5
  6
CONTINUOUS
 10
263.3409641759
 20
864.6767783702
 11
264.2298530648
 21
864.8249299092
 12
265.1187419536
 22
864.6767783702
 13
265.1187419536
 23
864.6767783702
  0
SOLID
  5
3D3
100
AcDbEntity
  8
0
100
AcDbTrace
 62
5
  6
CONTINUOUS
 10
265.1187419536
 20
864.6767783702
 11
265.8594826944
 21
864.6767783702
 12
261.5631863981
 22
864.5286290918
 13
261.5631863981
 23
864.5286290918
  0
SOLID
  5
3D4
100
AcDbEntity
  8
0
100
AcDbTrace
 62
5
  6
CONTINUOUS
 10
263.3409641759
 20
864.6767783702
 11
265.1187419536
 21
864.6767783702
 12
261.5631863981
 22
864.5286290918
 13
261.5631863981
 23
864.5286290918
  0
SOLID
  5
3D5
100
AcDbEntity
  8
0
100
AcDbTrace
 62
5
  6
CONTINUOUS
 10
263.3409641759
 20
864.6767783702
 11
261.5631863981
 21
864.5286290918
 12
262.452075287
 22
864.6767783702
 13
262.452075287
 23
864.6767783702
  0
SOLID
  5
3D6
100
AcDbEntity
  8
0
100
AcDbTrace
 62
5
  6
CONTINUOUS
 10
261.5631863981
 20
864.5286290918
 11
265.8594826944
 21
864.6767783702
 12
266.6002234351
 22
864.5286290918
 13
266.6002234351
 23
864.5286290918
  0
SOLID
  5
3D7
100
AcDbEntity
  8
0
100
AcDbTrace
 62
5
  6
CONTINUOUS
 10
266.6002234351
 20
864.5286290918
 11
267.1928160277
 21
864.3804854648
 12
260.8224456574
 22
864.2323373166
 13
260.8224456574
 23
864.2323373166
  0
SOLID
  5
3D8
100
AcDbEntity
  8
0
100
AcDbTrace
 62
5
  6
CONTINUOUS
 10
266.6002234351
 20
864.5286290918
 11
260.8224456574
 21
864.2323373166
 12
261.5631863981
 22
864.5286290918
 13
261.5631863981
 23
864.5286290918
  0
SOLID
  5
3D9
100
AcDbEntity
  8
0
100
AcDbTrace
 62
5
  6
CONTINUOUS
 10
260.8224456574
 20
864.2323373166
 11
267.1928160277
 21
864.3804854648
 12
267.7854086203
 22
864.0841891685
 13
267.7854086203
 23
864.0841891685
  0
SOLID
  5
3DA
100
AcDbEntity
  8
0
100
AcDbTrace
 62
5
  6
CONTINUOUS
 10
267.7854086203
 20
864.0841891685
 11
260.2298530648
 21
863.9360410203
 12
260.8224456574
 22
864.2323373166
 13
260.8224456574
 23
864.2323373166
  0
SOLID
  5
3DB
100
AcDbEntity
  8
0
100
AcDbTrace
 62
5
  6
CONTINUOUS
 10
260.2298530648
 20
863.9360410203
 11
267.7854086203
 21
864.0841891685
 12
268.2298530648
 22
863.7878928722
 13
268.2298530648
 23
863.7878928722
  0
SOLID
  5
3DC
100
AcDbEntity
  8
0
100
AcDbTrace
 62
5
  6
CONTINUOUS
 10
268.2298530648
 20
863.7878928722
 11
259.6372604722
 21
863.639744724
 12
260.2298530648
 22
863.9360410203
 13
260.2298530648
 23
863.9360410203
  0
SOLID
  5
3DD
100
AcDbEntity
  8
0
100
AcDbTrace
 62
5
  6
CONTINUOUS
 10
259.6372604722
 20
863.639744724
 11
268.2298530648
 21
863.7878928722
 12
268.5261493611
 22
863.4915965759
 13
268.5261493611
 23
863.4915965759
  0
SOLID
  5
3DE
100
AcDbEntity
  8
0
100
AcDbTrace
 62
5
  6
CONTINUOUS
 10
268.5261493611
 20
863.4915965759
 11
259.1928160277
 21
863.1953002796
 12
259.6372604722
 22
863.639744724
 13
259.6372604722
 23
863.639744724
  0
SOLID
  5
3DF
100
AcDbEntity
  8
0
100
AcDbTrace
 62
5
  6
CONTINUOUS
 10
259.1928160277
 20
863.1953002796
 11
268.5261493611
 21
863.4915965759
 12
268.9705938055
 22
863.1953002796
 13
268.9705938055
 23
863.1953002796
  0
SOLID
  5
3E0
100
AcDbEntity
  8
0
100
AcDbTrace
 62
5
  6
CONTINUOUS
 10
268.9705938055
 20
863.1953002796
 11
258.7483715833
 21
862.7508524443
 12
259.1928160277
 22
863.1953002796
 13
259.1928160277
 23
863.1953002796
  0
SOLID
  5
3E1
100
AcDbEntity
  8
0
100
AcDbTrace
 62
5
  6
CONTINUOUS
 10
262.3039271388
 20
862.6027031659
 11
263.7854086203
 21
862.7508524443
 12
263.0446678796
 22
862.6027031659
 13
263.0446678796
 23
862.6027031659
  0
SOLID
  5
3E2
100
AcDbEntity
  8
0
100
AcDbTrace
 62
5
  6
CONTINUOUS
 10
263.7854086203
 20
862.7508524443
 11
258.7483715833
 21
862.7508524443
 12
268.9705938055
 22
863.1953002796
 13
268.9705938055
 23
863.1953002796
  0
SOLID
  5
3E3
100
AcDbEntity
  8
0
100
AcDbTrace
 62
5
  6
CONTINUOUS
 10
264.6742975092
 20
862.6027031659
 11
263.7854086203
 21
862.7508524443
 12
268.9705938055
 22
863.1953002796
 13
268.9705938055
 23
863.1953002796
  0
SOLID
  5
3E4
100
AcDbEntity
  8
0
100
AcDbTrace
 62
5
  6
CONTINUOUS
 10
265.2668901018
 20
862.4545527572
 11
264.6742975092
 21
862.6027031659
 12
268.9705938055
 22
863.1953002796
 13
268.9705938055
 23
863.1953002796
  0
SOLID
  5
3E5
100
AcDbEntity
  8
0
100
AcDbTrace
 62
5
  6
CONTINUOUS
 10
265.2668901018
 20
862.4545527572
 11
268.9705938055
 21
863.1953002796
 12
269.4150382499
 22
862.4545527572
 13
269.4150382499
 23
862.4545527572
  0
SOLID
  5
3E6
100
AcDbEntity
  8
0
100
AcDbTrace
 62
5
  6
CONTINUOUS
 10
263.7854086203
 20
862.7508524443
 11
262.3039271388
 21
862.6027031659
 12
258.3039271388
 22
862.3064034787
 13
258.3039271388
 23
862.3064034787
  0
SOLID
  5
3E7
100
AcDbEntity
  8
0
100
AcDbTrace
 62
5
  6
CONTINUOUS
 10
263.7854086203
 20
862.7508524443
 11
258.3039271388
 21
862.3064034787
 12
258.7483715833
 22
862.7508524443
 13
258.7483715833
 23
862.7508524443
  0
SOLID
  5
3E8
100
AcDbEntity
  8
0
100
AcDbTrace
 62
5
  6
CONTINUOUS
 10
258.3039271388
 20
862.3064034787
 11
262.3039271388
 21
862.6027031659
 12
261.7113345462
 22
862.3064034787
 13
261.7113345462
 23
862.3064034787
  0
SOLID
  5
3E9
100
AcDbEntity
  8
0
100
AcDbTrace
 62
5
  6
CONTINUOUS
 10
269.4150382499
 20
862.4545527572
 11
266.0076308425
 21
862.1582700242
 12
265.2668901018
 22
862.4545527572
 13
265.2668901018
 23
862.4545527572
  0
SOLID
  5
3EA
100
AcDbEntity
  8
0
100
AcDbTrace
 62
5
  6
CONTINUOUS
 10
261.7113345462
 20
862.3064034787
 11
261.2668901018
 21
862.1582700242
 12
258.0076308425
 22
861.713822189
 13
258.0076308425
 23
861.713822189
  0
SOLID
  5
3EB
100
AcDbEntity
  8
0
100
AcDbTrace
 62
5
  6
CONTINUOUS
 10
261.7113345462
 20
862.3064034787
 11
258.0076308425
 21
861.713822189
 12
258.3039271388
 22
862.3064034787
 13
258.3039271388
 23
862.3064034787
  0
SOLID
  5
3EC
100
AcDbEntity
  8
0
100
AcDbTrace
 62
5
  6
CONTINUOUS
 10
258.0076308425
 20
861.713822189
 11
261.2668901018
 21
862.1582700242
 12
260.9705938055
 22
861.713822189
 13
260.9705938055
 23
861.713822189
  0
SOLID
  5
3ED
100
AcDbEntity
  8
0
100
AcDbTrace
 62
5
  6
CONTINUOUS
 10
266.452075287
 20
861.8619669463
 11
266.0076308425
 21
862.1582700242
 12
269.4150382499
 22
862.4545527572
 13
269.4150382499
 23
862.4545527572
  0
SOLID
  5
3EE
100
AcDbEntity
  8
0
100
AcDbTrace
 62
5
  6
CONTINUOUS
 10
266.7483715833
 20
861.5656729105
 11
266.452075287
 21
861.8619669463
 12
269.4150382499
 22
862.4545527572
 13
269.4150382499
 23
862.4545527572
  0
SOLID
  5
3EF
100
AcDbEntity
  8
0
100
AcDbTrace
 62
5
  6
CONTINUOUS
 10
266.7483715833
 20
861.5656729105
 11
269.4150382499
 21
862.4545527572
 12
269.7113345462
 22
861.5656729105
 13
269.7113345462
 23
861.5656729105
  0
SOLID
  5
3F0
100
AcDbEntity
  8
0
100
AcDbTrace
 62
5
  6
CONTINUOUS
 10
260.9705938055
 20
861.713822189
 11
260.6742975092
 21
861.2693743537
 12
257.8594826944
 22
860.9730746665
 13
257.8594826944
 23
860.9730746665
  0
SOLID
  5
3F1
100
AcDbEntity
  8
0
100
AcDbTrace
 62
5
  6
CONTINUOUS
 10
260.9705938055
 20
861.713822189
 11
257.8594826944
 21
860.9730746665
 12
258.0076308425
 22
861.713822189
 13
258.0076308425
 23
861.713822189
  0
SOLID
  5
3F2
100
AcDbEntity
  8
0
100
AcDbTrace
 62
5
  6
CONTINUOUS
 10
269.7113345462
 20
861.5656729105
 11
269.7113345462
 21
861.1212262055
 12
266.8965197314
 22
860.9730746665
 13
266.8965197314
 23
860.9730746665
  0
SOLID
  5
3F3
100
AcDbEntity
  8
0
100
AcDbTrace
 62
5
  6
CONTINUOUS
 10
269.7113345462
 20
861.5656729105
 11
266.8965197314
 21
860.9730746665
 12
266.7483715833
 22
861.5656729105
 13
266.7483715833
 23
861.5656729105
  0
SOLID
  5
3F4
100
AcDbEntity
  8
0
100
AcDbTrace
 62
5
  6
CONTINUOUS
 10
257.8594826944
 20
860.9730746665
 11
260.6742975092
 21
861.2693743537
 12
260.3780012129
 22
860.6767761097
 13
260.3780012129
 23
860.6767761097
  0
SOLID
  5
3F5
100
AcDbEntity
  8
0
100
AcDbTrace
 62
5
  6
CONTINUOUS
 10
266.8965197314
 20
860.9730746665
 11
269.7113345462
 21
861.1212262055
 12
269.7113345462
 22
860.6767761097
 13
269.7113345462
 23
860.6767761097
  0
SOLID
  5
3F6
100
AcDbEntity
  8
0
100
AcDbTrace
 62
5
  6
CONTINUOUS
 10
260.3780012129
 20
860.6767761097
 11
257.7113345462
 21
860.3804933767
 12
257.8594826944
 22
860.9730746665
 13
257.8594826944
 23
860.9730746665
  0
SOLID
  5
3F7
100
AcDbEntity
  8
0
100
AcDbTrace
 62
5
  6
CONTINUOUS
 10
269.7113345462
 20
860.6767761097
 11
267.0446678796
 21
860.3804933767
 12
266.8965197314
 22
860.9730746665
 13
266.8965197314
 23
860.9730746665
  0
SOLID
  5
3F8
100
AcDbEntity
  8
0
100
AcDbTrace
 62
5
  6
CONTINUOUS
 10
257.7113345462
 20
860.3804933767
 11
260.3780012129
 21
860.6767761097
 12
260.2298530648
 22
860.0841936896
 13
260.2298530648
 23
860.0841936896
  0
SOLID
  5
3F9
100
AcDbEntity
  8
0
100
AcDbTrace
 62
5
  6
CONTINUOUS
 10
267.0446678796
 20
860.3804933767
 11
269.7113345462
 21
860.6767761097
 12
269.7113345462
 22
860.0841936896
 13
269.7113345462
 23
860.0841936896
  0
SOLID
  5
3FA
100
AcDbEntity
  8
0
100
AcDbTrace
 62
5
  6
CONTINUOUS
 10
269.7113345462
 20
860.0841936896
 11
267.1928160277
 21
859.7878928722
 12
267.0446678796
 22
860.3804933767
 13
267.0446678796
 23
860.3804933767
  0
SOLID
  5
3FB
100
AcDbEntity
  8
0
100
AcDbTrace
 62
5
  6
CONTINUOUS
 10
267.0446678796
 20
859.4915965759
 11
267.1928160277
 21
859.7878928722
 12
269.7113345462
 22
860.0841936896
 13
269.7113345462
 23
860.0841936896
  0
SOLID
  5
3FC
100
AcDbEntity
  8
0
100
AcDbTrace
 62
5
  6
CONTINUOUS
 10
267.0446678796
 20
859.4915965759
 11
269.7113345462
 21
860.0841936896
 12
269.8594826944
 22
859.3434484277
 13
269.8594826944
 23
859.3434484277
  0
SOLID
  5
3FD
100
AcDbEntity
  8
0
100
AcDbTrace
 62
5
  6
CONTINUOUS
 10
269.8594826944
 20
859.3434484277
 11
267.0446678796
 21
859.1953002796
 12
267.0446678796
 22
859.4915965759
 13
267.0446678796
 23
859.4915965759
  0
SOLID
  5
3FE
100
AcDbEntity
  8
0
100
AcDbTrace
 62
5
  6
CONTINUOUS
 10
262.1557789907
 20
858.1582677637
 11
261.1187419536
 21
858.0101150944
 12
261.5631863981
 22
858.1582677637
 13
261.5631863981
 23
858.1582677637
  0
SOLID
  5
3FF
100
AcDbEntity
  8
0
100
AcDbTrace
 62
5
  6
CONTINUOUS
 10
267.1928160277
 20
857.2693743537
 11
259.0446678796
 21
857.1212262055
 12
259.7854086203
 22
857.56567065
 13
259.7854086203
 23
857.56567065
  0
SOLID
  5
400
100
AcDbEntity
  8
0
100
AcDbTrace
 62
5
  6
CONTINUOUS
 10
259.0446678796
 20
857.1212262055
 11
267.1928160277
 21
857.2693743537
 12
266.452075287
 22
856.9730780574
 13
266.452075287
 23
856.9730780574
  0
SOLID
  5
401
100
AcDbEntity
  8
0
100
AcDbTrace
 62
5
  6
CONTINUOUS
 10
266.452075287
 20
856.9730780574
 11
265.5631863981
 21
856.6767817611
 12
258.3039271388
 22
856.5286403946
 13
258.3039271388
 23
856.5286403946
  0
SOLID
  5
402
100
AcDbEntity
  8
0
100
AcDbTrace
 62
5
  6
CONTINUOUS
 10
266.452075287
 20
856.9730780574
 11
258.3039271388
 21
856.5286403946
 12
259.0446678796
 22
857.1212262055
 13
259.0446678796
 23
857.1212262055
  0
SOLID
  5
403
100
AcDbEntity
  8
0
100
AcDbTrace
 62
5
  6
CONTINUOUS
 10
258.3039271388
 20
856.5286403946
 11
265.5631863981
 21
856.6767817611
 12
264.3780012129
 22
856.5286403946
 13
264.3780012129
 23
856.5286403946
  0
SOLID
  5
404
100
AcDbEntity
  8
0
100
AcDbTrace
 62
5
  6
CONTINUOUS
 10
262.6002234351
 20
856.2323418378
 11
264.3780012129
 21
856.5286403946
 12
263.1928160277
 22
856.2323418378
 13
263.1928160277
 23
856.2323418378
  0
SOLID
  5
405
100
AcDbEntity
  8
0
100
AcDbTrace
 62
5
  6
CONTINUOUS
 10
266.3039271388
 20
858.8990039833
 11
267.0446678796
 21
859.1953002796
 12
269.8594826944
 22
859.3434484277
 13
269.8594826944
 23
859.3434484277
  0
SOLID
  5
406
100
AcDbEntity
  8
0
100
AcDbTrace
 62
5
  6
CONTINUOUS
 10
265.4150382499
 20
858.602707687
 11
266.3039271388
 21
858.8990039833
 12
269.8594826944
 22
859.3434484277
 13
269.8594826944
 23
859.3434484277
  0
SOLID
  5
407
100
AcDbEntity
  8
0
100
AcDbTrace
 62
5
  6
CONTINUOUS
 10
262.1557789907
 20
858.1582677637
 11
262.8965197314
 21
858.3064113907
 12
264.2298530648
 22
858.4545595389
 13
264.2298530648
 23
858.4545595389
  0
SOLID
  5
408
100
AcDbEntity
  8
0
100
AcDbTrace
 62
5
  6
CONTINUOUS
 10
262.1557789907
 20
858.1582677637
 11
264.2298530648
 21
858.4545595389
 12
265.4150382499
 22
858.602707687
 13
265.4150382499
 23
858.602707687
  0
SOLID
  5
409
100
AcDbEntity
  8
0
100
AcDbTrace
 62
5
  6
CONTINUOUS
 10
261.1187419536
 20
858.0101150944
 11
262.1557789907
 21
858.1582677637
 12
265.4150382499
 22
858.602707687
 13
265.4150382499
 23
858.602707687
  0
SOLID
  5
40A
100
AcDbEntity
  8
0
100
AcDbTrace
 62
5
  6
CONTINUOUS
 10
260.8224456574
 20
857.8619669463
 11
261.1187419536
 21
858.0101150944
 12
265.4150382499
 22
858.602707687
 13
265.4150382499
 23
858.602707687
  0
SOLID
  5
40B
100
AcDbEntity
  8
0
100
AcDbTrace
 62
5
  6
CONTINUOUS
 10
259.7854086203
 20
857.56567065
 11
260.8224456574
 21
857.8619669463
 12
265.4150382499
 22
858.602707687
 13
265.4150382499
 23
858.602707687
  0
SOLID
  5
40C
100
AcDbEntity
  8
0
100
AcDbTrace
 62
5
  6
CONTINUOUS
 10
259.7854086203
 20
857.56567065
 11
265.4150382499
 21
858.602707687
 12
269.8594826944
 22
859.3434484277
 13
269.8594826944
 23
859.3434484277
  0
SOLID
  5
40D
100
AcDbEntity
  8
0
100
AcDbTrace
 62
5
  6
CONTINUOUS
 10
267.1928160277
 20
857.2693743537
 11
259.7854086203
 21
857.56567065
 12
269.8594826944
 22
859.3434484277
 13
269.8594826944
 23
859.3434484277
  0
SOLID
  5
40E
100
AcDbEntity
  8
0
100
AcDbTrace
 62
5
  6
CONTINUOUS
 10
267.0446678796
 20
856.2323418378
 11
267.1928160277
 21
857.2693743537
 12
269.8594826944
 22
859.3434484277
 13
269.8594826944
 23
859.3434484277
  0
SOLID
  5
40F
100
AcDbEntity
  8
0
100
AcDbTrace
 62
5
  6
CONTINUOUS
 10
267.0446678796
 20
856.2323418378
 11
269.8594826944
 21
859.3434484277
 12
269.8594826944
 22
856.0841925593
 13
269.8594826944
 23
856.0841925593
  0
SOLID
  5
410
100
AcDbEntity
  8
0
100
AcDbTrace
 62
5
  6
CONTINUOUS
 10
261.5631863981
 20
855.9360410203
 11
261.1187419536
 21
855.7878928722
 12
257.8594826944
 22
855.639744724
 13
257.8594826944
 23
855.639744724
  0
SOLID
  5
411
100
AcDbEntity
  8
0
100
AcDbTrace
 62
5
  6
CONTINUOUS
 10
262.0076308425
 20
856.0841925593
 11
261.5631863981
 21
855.9360410203
 12
257.8594826944
 22
855.639744724
 13
257.8594826944
 23
855.639744724
  0
SOLID
  5
412
100
AcDbEntity
  8
0
100
AcDbTrace
 62
5
  6
CONTINUOUS
 10
262.6002234351
 20
856.2323418378
 11
262.0076308425
 21
856.0841925593
 12
257.8594826944
 22
855.639744724
 13
257.8594826944
 23
855.639744724
  0
SOLID
  5
413
100
AcDbEntity
  8
0
100
AcDbTrace
 62
5
  6
CONTINUOUS
 10
264.3780012129
 20
856.5286403946
 11
262.6002234351
 21
856.2323418378
 12
257.8594826944
 22
855.639744724
 13
257.8594826944
 23
855.639744724
  0
SOLID
  5
414
100
AcDbEntity
  8
0
100
AcDbTrace
 62
5
  6
CONTINUOUS
 10
264.3780012129
 20
856.5286403946
 11
257.8594826944
 21
855.639744724
 12
258.3039271388
 22
856.5286403946
 13
258.3039271388
 23
856.5286403946
  0
SOLID
  5
415
100
AcDbEntity
  8
0
100
AcDbTrace
 62
5
  6
CONTINUOUS
 10
257.8594826944
 20
855.639744724
 11
261.1187419536
 21
855.7878928722
 12
260.5261493611
 22
855.4915948805
 13
260.5261493611
 23
855.4915948805
  0
SOLID
  5
416
100
AcDbEntity
  8
0
100
AcDbTrace
 62
5
  6
CONTINUOUS
 10
269.8594826944
 20
856.0841925593
 11
267.0446678796
 21
855.4915948805
 12
267.0446678796
 22
856.2323418378
 13
267.0446678796
 23
856.2323418378
  0
SOLID
  5
417
100
AcDbEntity
  8
0
100
AcDbTrace
 62
5
  6
CONTINUOUS
 10
267.0446678796
 20
855.4915948805
 11
269.8594826944
 21
856.0841925593
 12
269.8594826944
 22
855.1953002796
 13
269.8594826944
 23
855.1953002796
  0
SOLID
  5
418
100
AcDbEntity
  8
0
100
AcDbTrace
 62
5
  6
CONTINUOUS
 10
269.8594826944
 20
855.1953002796
 11
267.0446678796
 21
854.8990039833
 12
267.0446678796
 22
855.4915948805
 13
267.0446678796
 23
855.4915948805
  0
SOLID
  5
419
100
AcDbEntity
  8
0
100
AcDbTrace
 62
5
  6
CONTINUOUS
 10
260.5261493611
 20
855.4915948805
 11
260.2298530648
 21
855.0471521315
 12
257.4150382499
 22
854.7508558352
 13
257.4150382499
 23
854.7508558352
  0
SOLID
  5
41A
100
AcDbEntity
  8
0
100
AcDbTrace
 62
5
  6
CONTINUOUS
 10
260.5261493611
 20
855.4915948805
 11
257.4150382499
 21
854.7508558352
 12
257.8594826944
 22
855.639744724
 13
257.8594826944
 23
855.639744724
  0
SOLID
  5
41B
100
AcDbEntity
  8
0
100
AcDbTrace
 62
5
  6
CONTINUOUS
 10
257.4150382499
 20
854.7508558352
 11
260.2298530648
 21
855.0471521315
 12
259.9335567685
 22
854.4545649077
 13
259.9335567685
 23
854.4545649077
  0
SOLID
  5
41C
100
AcDbEntity
  8
0
100
AcDbTrace
 62
5
  6
CONTINUOUS
 10
267.0446678796
 20
854.8990039833
 11
269.8594826944
 21
855.1953002796
 12
269.8594826944
 22
854.4545649077
 13
269.8594826944
 23
854.4545649077
  0
SOLID
  5
41D
100
AcDbEntity
  8
0
100
AcDbTrace
 62
5
  6
CONTINUOUS
 10
269.8594826944
 20
854.4545649077
 11
266.8965197314
 21
854.3064113907
 12
267.0446678796
 22
854.8990039833
 13
267.0446678796
 23
854.8990039833
  0
SOLID
  5
41E
100
AcDbEntity
  8
0
100
AcDbTrace
 62
5
  6
CONTINUOUS
 10
266.7483715833
 20
853.8619675114
 11
266.8965197314
 21
854.3064113907
 12
269.8594826944
 22
854.4545649077
 13
269.8594826944
 23
854.4545649077
  0
SOLID
  5
41F
100
AcDbEntity
  8
0
100
AcDbTrace
 62
5
  6
CONTINUOUS
 10
266.7483715833
 20
853.8619675114
 11
269.8594826944
 21
854.4545649077
 12
269.8594826944
 22
853.8619675114
 13
269.8594826944
 23
853.8619675114
  0
SOLID
  5
420
100
AcDbEntity
  8
0
100
AcDbTrace
 62
5
  6
CONTINUOUS
 10
259.9335567685
 20
854.4545649077
 11
259.9335567685
 21
853.8619675114
 12
257.4150382499
 22
853.7138187981
 13
257.4150382499
 23
853.7138187981
  0
SOLID
  5
421
100
AcDbEntity
  8
0
100
AcDbTrace
 62
5
  6
CONTINUOUS
 10
259.9335567685
 20
854.4545649077
 11
257.4150382499
 21
853.7138187981
 12
257.4150382499
 22
854.7508558352
 13
257.4150382499
 23
854.7508558352
  0
SOLID
  5
422
100
AcDbEntity
  8
0
100
AcDbTrace
 62
5
  6
CONTINUOUS
 10
257.4150382499
 20
853.7138187981
 11
259.9335567685
 21
853.8619675114
 12
259.9335567685
 22
853.4175196761
 13
259.9335567685
 23
853.4175196761
  0
SOLID
  5
423
100
AcDbEntity
  8
0
100
AcDbTrace
 62
5
  6
CONTINUOUS
 10
269.8594826944
 20
853.8619675114
 11
266.452075287
 21
853.4175196761
 12
266.7483715833
 22
853.8619675114
 13
266.7483715833
 23
853.8619675114
  0
SOLID
  5
424
100
AcDbEntity
  8
0
100
AcDbTrace
 62
5
  6
CONTINUOUS
 10
266.452075287
 20
853.4175196761
 11
269.8594826944
 21
853.8619675114
 12
269.8594826944
 22
853.2693743537
 13
269.8594826944
 23
853.2693743537
  0
SOLID
  5
425
100
AcDbEntity
  8
0
100
AcDbTrace
 62
5
  6
CONTINUOUS
 10
259.9335567685
 20
853.4175196761
 11
257.4150382499
 21
852.9730715583
 12
257.4150382499
 22
853.7138187981
 13
257.4150382499
 23
853.7138187981
  0
SOLID
  5
426
100
AcDbEntity
  8
0
100
AcDbTrace
 62
5
  6
CONTINUOUS
 10
257.4150382499
 20
852.9730715583
 11
259.9335567685
 21
853.4175196761
 12
260.0817049166
 22
852.9730715583
 13
260.0817049166
 23
852.9730715583
  0
SOLID
  5
427
100
AcDbEntity
  8
0
100
AcDbTrace
 62
5
  6
CONTINUOUS
 10
269.8594826944
 20
853.2693743537
 11
266.0076308425
 21
852.9730715583
 12
266.452075287
 22
853.4175196761
 13
266.452075287
 23
853.4175196761
  0
SOLID
  5
428
100
AcDbEntity
  8
0
100
AcDbTrace
 62
5
  6
CONTINUOUS
 10
266.0076308425
 20
852.9730715583
 11
269.8594826944
 21
853.2693743537
 12
269.8594826944
 22
852.6767817611
 13
269.8594826944
 23
852.6767817611
  0
SOLID
  5
429
100
AcDbEntity
  8
0
100
AcDbTrace
 62
5
  6
CONTINUOUS
 10
269.8594826944
 20
852.6767817611
 11
265.7113345462
 21
852.5286386992
 12
266.0076308425
 22
852.9730715583
 13
266.0076308425
 23
852.9730715583
  0
SOLID
  5
42A
100
AcDbEntity
  8
0
100
AcDbTrace
 62
5
  6
CONTINUOUS
 10
265.7113345462
 20
852.5286386992
 11
269.8594826944
 21
852.6767817611
 12
269.8594826944
 22
852.3804854648
 13
269.8594826944
 23
852.3804854648
  0
SOLID
  5
42B
100
AcDbEntity
  8
0
100
AcDbTrace
 62
5
  6
CONTINUOUS
 10
269.8594826944
 20
852.3804854648
 11
265.1187419536
 21
852.2323400011
 12
265.7113345462
 22
852.5286386992
 13
265.7113345462
 23
852.5286386992
  0
SOLID
  5
42C
100
AcDbEntity
  8
0
100
AcDbTrace
 62
5
  6
CONTINUOUS
 10
260.2298530648
 20
852.5286386992
 11
260.5261493611
 21
852.2323400011
 12
257.7113345462
 22
852.0841891685
 13
257.7113345462
 23
852.0841891685
  0
SOLID
  5
42D
100
AcDbEntity
  8
0
100
AcDbTrace
 62
5
  6
CONTINUOUS
 10
260.0817049166
 20
852.9730715583
 11
260.2298530648
 21
852.5286386992
 12
257.7113345462
 22
852.0841891685
 13
257.7113345462
 23
852.0841891685
  0
SOLID
  5
42E
100
AcDbEntity
  8
0
100
AcDbTrace
 62
5
  6
CONTINUOUS
 10
260.0817049166
 20
852.9730715583
 11
257.7113345462
 21
852.0841891685
 12
257.4150382499
 22
852.9730715583
 13
257.4150382499
 23
852.9730715583
  0
SOLID
  5
42F
100
AcDbEntity
  8
0
100
AcDbTrace
 62
5
  6
CONTINUOUS
 10
257.7113345462
 20
852.0841891685
 11
260.5261493611
 21
852.2323400011
 12
260.9705938055
 22
851.9360413029
 13
260.9705938055
 23
851.9360413029
  0
SOLID
  5
430
100
AcDbEntity
  8
0
100
AcDbTrace
 62
5
  6
CONTINUOUS
 10
264.5261493611
 20
851.9360413029
 11
265.1187419536
 21
852.2323400011
 12
269.8594826944
 22
852.3804854648
 13
269.8594826944
 23
852.3804854648
  0
SOLID
  5
431
100
AcDbEntity
  8
0
100
AcDbTrace
 62
5
  6
CONTINUOUS
 10
264.5261493611
 20
851.9360413029
 11
269.8594826944
 21
852.3804854648
 12
269.8594826944
 22
851.9360413029
 13
269.8594826944
 23
851.9360413029
  0
SOLID
  5
432
100
AcDbEntity
  8
0
100
AcDbTrace
 62
5
  6
CONTINUOUS
 10
269.8594826944
 20
851.9360413029
 11
263.9335567685
 21
851.7878920245
 12
264.5261493611
 22
851.9360413029
 13
264.5261493611
 23
851.9360413029
  0
SOLID
  5
433
100
AcDbEntity
  8
0
100
AcDbTrace
 62
5
  6
CONTINUOUS
 10
267.3409641759
 20
851.7878920245
 11
263.3409641759
 21
851.6397426048
 12
263.9335567685
 22
851.7878920245
 13
263.9335567685
 23
851.7878920245
  0
SOLID
  5
434
100
AcDbEntity
  8
0
100
AcDbTrace
 62
5
  6
CONTINUOUS
 10
267.3409641759
 20
851.7878920245
 11
263.9335567685
 21
851.7878920245
 12
269.8594826944
 22
851.9360413029
 13
269.8594826944
 23
851.9360413029
  0
SOLID
  5
435
100
AcDbEntity
  8
0
100
AcDbTrace
 62
5
  6
CONTINUOUS
 10
267.3409641759
 20
851.7878920245
 11
269.8594826944
 21
851.9360413029
 12
270.0076308425
 22
851.6397426048
 13
270.0076308425
 23
851.6397426048
  0
SOLID
  5
436
100
AcDbEntity
  8
0
100
AcDbTrace
 62
5
  6
CONTINUOUS
 10
262.7483715833
 20
851.6397426048
 11
263.3409641759
 21
851.6397426048
 12
258.0076308425
 22
851.4915965759
 13
258.0076308425
 23
851.4915965759
  0
SOLID
  5
437
100
AcDbEntity
  8
0
100
AcDbTrace
 62
5
  6
CONTINUOUS
 10
262.0076308425
 20
851.6397426048
 11
262.7483715833
 21
851.6397426048
 12
258.0076308425
 22
851.4915965759
 13
258.0076308425
 23
851.4915965759
  0
SOLID
  5
438
100
AcDbEntity
  8
0
100
AcDbTrace
 62
5
  6
CONTINUOUS
 10
261.4150382499
 20
851.7878920245
 11
262.0076308425
 21
851.6397426048
 12
258.0076308425
 22
851.4915965759
 13
258.0076308425
 23
851.4915965759
  0
SOLID
  5
439
100
AcDbEntity
  8
0
100
AcDbTrace
 62
5
  6
CONTINUOUS
 10
260.9705938055
 20
851.9360413029
 11
261.4150382499
 21
851.7878920245
 12
258.0076308425
 22
851.4915965759
 13
258.0076308425
 23
851.4915965759
  0
SOLID
  5
43A
100
AcDbEntity
  8
0
100
AcDbTrace
 62
5
  6
CONTINUOUS
 10
260.9705938055
 20
851.9360413029
 11
258.0076308425
 21
851.4915965759
 12
257.7113345462
 22
852.0841891685
 13
257.7113345462
 23
852.0841891685
  0
SOLID
  5
43B
100
AcDbEntity
  8
0
100
AcDbTrace
 62
5
  6
CONTINUOUS
 10
266.6002234351
 20
851.1953002796
 11
258.0076308425
 21
851.4915965759
 12
263.3409641759
 22
851.6397426048
 13
263.3409641759
 23
851.6397426048
  0
SOLID
  5
43C
100
AcDbEntity
  8
0
100
AcDbTrace
 62
5
  6
CONTINUOUS
 10
263.3409641759
 20
851.6397426048
 11
267.3409641759
 21
851.7878920245
 12
266.6002234351
 22
851.1953002796
 13
266.6002234351
 23
851.1953002796
  0
SOLID
  5
43D
100
AcDbEntity
  8
0
100
AcDbTrace
 62
5
  6
CONTINUOUS
 10
266.6002234351
 20
851.1953002796
 11
258.6002234351
 21
850.7508617691
 12
258.0076308425
 22
851.4915965759
 13
258.0076308425
 23
851.4915965759
  0
SOLID
  5
43E
100
AcDbEntity
  8
0
100
AcDbTrace
 62
5
  6
CONTINUOUS
 10
258.6002234351
 20
850.7508617691
 11
266.6002234351
 21
851.1953002796
 12
266.0076308425
 22
850.7508617691
 13
266.0076308425
 23
850.7508617691
  0
SOLID
  5
43F
100
AcDbEntity
  8
0
100
AcDbTrace
 62
5
  6
CONTINUOUS
 10
270.0076308425
 20
851.6397426048
 11
267.489112324
 21
850.7508617691
 12
267.3409641759
 22
851.7878920245
 13
267.3409641759
 23
851.7878920245
  0
SOLID
  5
440
100
AcDbEntity
  8
0
100
AcDbTrace
 62
5
  6
CONTINUOUS
 10
267.489112324
 20
850.7508617691
 11
270.0076308425
 21
851.6397426048
 12
270.1557789907
 22
850.7508617691
 13
270.1557789907
 23
850.7508617691
  0
SOLID
  5
441
100
AcDbEntity
  8
0
100
AcDbTrace
 62
5
  6
CONTINUOUS
 10
266.0076308425
 20
850.7508617691
 11
265.4150382499
 21
850.4545595389
 12
259.3409641759
 22
850.3064113907
 13
259.3409641759
 23
850.3064113907
  0
SOLID
  5
442
100
AcDbEntity
  8
0
100
AcDbTrace
 62
5
  6
CONTINUOUS
 10
266.0076308425
 20
850.7508617691
 11
259.3409641759
 21
850.3064113907
 12
258.6002234351
 22
850.7508617691
 13
258.6002234351
 23
850.7508617691
  0
SOLID
  5
443
100
AcDbEntity
  8
0
100
AcDbTrace
 62
5
  6
CONTINUOUS
 10
259.3409641759
 20
850.3064113907
 11
265.4150382499
 21
850.4545595389
 12
264.8224456574
 22
850.1582632426
 13
264.8224456574
 23
850.1582632426
  0
SOLID
  5
444
100
AcDbEntity
  8
0
100
AcDbTrace
 62
5
  6
CONTINUOUS
 10
264.8224456574
 20
850.1582632426
 11
260.0817049166
 21
850.0101150944
 12
259.3409641759
 22
850.3064113907
 13
259.3409641759
 23
850.3064113907
  0
SOLID
  5
445
100
AcDbEntity
  8
0
100
AcDbTrace
 62
5
  6
CONTINUOUS
 10
270.1557789907
 20
850.7508617691
 11
268.0817049166
 21
850.0101150944
 12
267.489112324
 22
850.7508617691
 13
267.489112324
 23
850.7508617691
  0
SOLID
  5
446
100
AcDbEntity
  8
0
100
AcDbTrace
 62
5
  6
CONTINUOUS
 10
268.0817049166
 20
850.0101150944
 11
270.1557789907
 21
850.7508617691
 12
270.6002234351
 22
850.0101150944
 13
270.6002234351
 23
850.0101150944
  0
SOLID
  5
447
100
AcDbEntity
  8
0
100
AcDbTrace
 62
5
  6
CONTINUOUS
 10
261.1187419536
 20
849.861965763
 11
260.0817049166
 21
850.0101150944
 12
264.8224456574
 22
850.1582632426
 13
264.8224456574
 23
850.1582632426
  0
SOLID
  5
448
100
AcDbEntity
  8
0
100
AcDbTrace
 62
5
  6
CONTINUOUS
 10
261.1187419536
 20
849.861965763
 11
264.8224456574
 21
850.1582632426
 12
263.489112324
 22
849.861965763
 13
263.489112324
 23
849.861965763
  0
SOLID
  5
449
100
AcDbEntity
  8
0
100
AcDbTrace
 62
5
  6
CONTINUOUS
 10
263.489112324
 20
849.861965763
 11
262.1557789907
 21
849.7138187981
 12
261.1187419536
 22
849.861965763
 13
261.1187419536
 23
849.861965763
  0
SOLID
  5
44A
100
AcDbEntity
  8
0
100
AcDbTrace
 62
5
  6
CONTINUOUS
 10
276.9705938055
 20
864.6767783702
 11
278.1557789907
 21
864.8249299092
 12
278.8965197314
 22
864.6767783702
 13
278.8965197314
 23
864.6767783702
  0
SOLID
  5
44B
100
AcDbEntity
  8
0
100
AcDbTrace
 62
5
  6
CONTINUOUS
 10
278.8965197314
 20
864.6767783702
 11
279.6372604722
 21
864.6767783702
 12
275.9335567685
 22
864.5286290918
 13
275.9335567685
 23
864.5286290918
  0
SOLID
  5
44C
100
AcDbEntity
  8
0
100
AcDbTrace
 62
5
  6
CONTINUOUS
 10
278.8965197314
 20
864.6767783702
 11
275.9335567685
 21
864.5286290918
 12
276.9705938055
 22
864.6767783702
 13
276.9705938055
 23
864.6767783702
  0
SOLID
  5
44D
100
AcDbEntity
  8
0
100
AcDbTrace
 62
5
  6
CONTINUOUS
 10
275.9335567685
 20
864.5286290918
 11
279.6372604722
 21
864.6767783702
 12
280.3780012129
 22
864.5286290918
 13
280.3780012129
 23
864.5286290918
  0
SOLID
  5
44E
100
AcDbEntity
  8
0
100
AcDbTrace
 62
5
  6
CONTINUOUS
 10
280.3780012129
 20
864.5286290918
 11
281.1187419536
 21
864.2323373166
 12
275.0446678796
 22
864.0841891685
 13
275.0446678796
 23
864.0841891685
  0
SOLID
  5
44F
100
AcDbEntity
  8
0
100
AcDbTrace
 62
5
  6
CONTINUOUS
 10
280.3780012129
 20
864.5286290918
 11
275.0446678796
 21
864.0841891685
 12
275.9335567685
 22
864.5286290918
 13
275.9335567685
 23
864.5286290918
  0
SOLID
  5
450
100
AcDbEntity
  8
0
100
AcDbTrace
 62
5
  6
CONTINUOUS
 10
275.0446678796
 20
864.0841891685
 11
281.1187419536
 21
864.2323373166
 12
281.7113345462
 22
863.9360410203
 13
281.7113345462
 23
863.9360410203
  0
SOLID
  5
451
100
AcDbEntity
  8
0
100
AcDbTrace
 62
5
  6
CONTINUOUS
 10
281.7113345462
 20
863.9360410203
 11
274.452075287
 21
863.7878928722
 12
275.0446678796
 22
864.0841891685
 13
275.0446678796
 23
864.0841891685
  0
SOLID
  5
452
100
AcDbEntity
  8
0
100
AcDbTrace
 62
5
  6
CONTINUOUS
 10
274.452075287
 20
863.7878928722
 11
281.7113345462
 21
863.9360410203
 12
282.1557789907
 22
863.639744724
 13
282.1557789907
 23
863.639744724
  0
SOLID
  5
453
100
AcDbEntity
  8
0
100
AcDbTrace
 62
5
  6
CONTINUOUS
 10
282.1557789907
 20
863.639744724
 11
282.6002234351
 21
863.3434484277
 12
273.7113345462
 22
863.1953002796
 13
273.7113345462
 23
863.1953002796
  0
SOLID
  5
454
100
AcDbEntity
  8
0
100
AcDbTrace
 62
5
  6
CONTINUOUS
 10
282.1557789907
 20
863.639744724
 11
273.7113345462
 21
863.1953002796
 12
274.452075287
 22
863.7878928722
 13
274.452075287
 23
863.7878928722
  0
SOLID
  5
455
100
AcDbEntity
  8
0
100
AcDbTrace
 62
5
  6
CONTINUOUS
 10
273.7113345462
 20
863.1953002796
 11
282.6002234351
 21
863.3434484277
 12
283.0446678796
 22
862.8990039833
 13
283.0446678796
 23
862.8990039833
  0
SOLID
  5
456
100
AcDbEntity
  8
0
100
AcDbTrace
 62
5
  6
CONTINUOUS
 10
276.8224456574
 20
862.6027031659
 11
278.3039271388
 21
862.7508558352
 12
277.5631863981
 22
862.6027031659
 13
277.5631863981
 23
862.6027031659
  0
SOLID
  5
457
100
AcDbEntity
  8
0
100
AcDbTrace
 62
5
  6
CONTINUOUS
 10
278.8965197314
 20
862.6027031659
 11
278.3039271388
 21
862.7508558352
 12
283.0446678796
 22
862.8990039833
 13
283.0446678796
 23
862.8990039833
  0
SOLID
  5
458
100
AcDbEntity
  8
0
100
AcDbTrace
 62
5
  6
CONTINUOUS
 10
279.489112324
 20
862.4545527572
 11
278.8965197314
 21
862.6027031659
 12
283.0446678796
 22
862.8990039833
 13
283.0446678796
 23
862.8990039833
  0
SOLID
  5
459
100
AcDbEntity
  8
0
100
AcDbTrace
 62
5
  6
CONTINUOUS
 10
279.489112324
 20
862.4545527572
 11
283.0446678796
 21
862.8990039833
 12
283.3409641759
 22
862.4545527572
 13
283.3409641759
 23
862.4545527572
  0
SOLID
  5
45A
100
AcDbEntity
  8
0
100
AcDbTrace
 62
5
  6
CONTINUOUS
 10
278.3039271388
 20
862.7508558352
 11
276.8224456574
 21
862.6027031659
 12
273.2668901018
 22
862.3064034787
 13
273.2668901018
 23
862.3064034787
  0
SOLID
  5
45B
100
AcDbEntity
  8
0
100
AcDbTrace
 62
5
  6
CONTINUOUS
 10
273.7113345462
 20
863.1953002796
 11
283.0446678796
 21
862.8990039833
 12
278.3039271388
 22
862.7508558352
 13
278.3039271388
 23
862.7508558352
  0
SOLID
  5
45C
100
AcDbEntity
  8
0
100
AcDbTrace
 62
5
  6
CONTINUOUS
 10
278.3039271388
 20
862.7508558352
 11
273.2668901018
 21
862.3064034787
 12
273.7113345462
 22
863.1953002796
 13
273.7113345462
 23
863.1953002796
  0
SOLID
  5
45D
100
AcDbEntity
  8
0
100
AcDbTrace
 62
5
  6
CONTINUOUS
 10
273.2668901018
 20
862.3064034787
 11
276.8224456574
 21
862.6027031659
 12
276.3780012129
 22
862.3064034787
 13
276.3780012129
 23
862.3064034787
  0
SOLID
  5
45E
100
AcDbEntity
  8
0
100
AcDbTrace
 62
5
  6
CONTINUOUS
 10
283.3409641759
 20
862.4545527572
 11
280.0817049166
 21
862.3064034787
 12
279.489112324
 22
862.4545527572
 13
279.489112324
 23
862.4545527572
  0
SOLID
  5
45F
100
AcDbEntity
  8
0
100
AcDbTrace
 62
5
  6
CONTINUOUS
 10
280.3780012129
 20
862.0101150944
 11
280.0817049166
 21
862.3064034787
 12
283.3409641759
 22
862.4545527572
 13
283.3409641759
 23
862.4545527572
  0
SOLID
  5
460
100
AcDbEntity
  8
0
100
AcDbTrace
 62
5
  6
CONTINUOUS
 10
280.3780012129
 20
862.0101150944
 11
283.3409641759
 21
862.4545527572
 12
283.489112324
 22
861.8619714674
 13
283.489112324
 23
861.8619714674
  0
SOLID
  5
461
100
AcDbEntity
  8
0
100
AcDbTrace
 62
5
  6
CONTINUOUS
 10
283.489112324
 20
861.8619714674
 11
280.8224456574
 21
861.7138187981
 12
280.3780012129
 22
862.0101150944
 13
280.3780012129
 23
862.0101150944
  0
SOLID
  5
462
100
AcDbEntity
  8
0
100
AcDbTrace
 62
5
  6
CONTINUOUS
 10
275.9335567685
 20
862.1582632426
 11
275.6372604722
 21
861.8619714674
 12
272.8224456574
 22
861.5656729105
 13
272.8224456574
 23
861.5656729105
  0
SOLID
  5
463
100
AcDbEntity
  8
0
100
AcDbTrace
 62
5
  6
CONTINUOUS
 10
276.3780012129
 20
862.3064034787
 11
275.9335567685
 21
862.1582632426
 12
272.8224456574
 22
861.5656729105
 13
272.8224456574
 23
861.5656729105
  0
SOLID
  5
464
100
AcDbEntity
  8
0
100
AcDbTrace
 62
5
  6
CONTINUOUS
 10
276.3780012129
 20
862.3064034787
 11
272.8224456574
 21
861.5656729105
 12
273.2668901018
 22
862.3064034787
 13
273.2668901018
 23
862.3064034787
  0
SOLID
  5
465
100
AcDbEntity
  8
0
100
AcDbTrace
 62
5
  6
CONTINUOUS
 10
272.8224456574
 20
861.5656729105
 11
275.6372604722
 21
861.8619714674
 12
275.489112324
 22
861.5656729105
 13
275.489112324
 23
861.5656729105
  0
SOLID
  5
466
100
AcDbEntity
  8
0
100
AcDbTrace
 62
5
  6
CONTINUOUS
 10
280.9705938055
 20
861.2693732234
 11
280.8224456574
 21
861.7138187981
 12
283.489112324
 22
861.8619714674
 13
283.489112324
 23
861.8619714674
  0
SOLID
  5
467
100
AcDbEntity
  8
0
100
AcDbTrace
 62
5
  6
CONTINUOUS
 10
280.9705938055
 20
861.2693732234
 11
283.489112324
 21
861.8619714674
 12
283.7854086203
 22
861.2693732234
 13
283.7854086203
 23
861.2693732234
  0
SOLID
  5
468
100
AcDbEntity
  8
0
100
AcDbTrace
 62
5
  6
CONTINUOUS
 10
283.7854086203
 20
861.2693732234
 11
281.2668901018
 21
860.8249253881
 12
280.9705938055
 22
861.2693732234
 13
280.9705938055
 23
861.2693732234
  0
SOLID
  5
469
100
AcDbEntity
  8
0
100
AcDbTrace
 62
5
  6
CONTINUOUS
 10
281.2668901018
 20
860.8249253881
 11
283.7854086203
 21
861.2693732234
 12
283.9335567685
 22
860.6767817611
 13
283.9335567685
 23
860.6767817611
  0
SOLID
  5
46A
100
AcDbEntity
  8
0
100
AcDbTrace
 62
5
  6
CONTINUOUS
 10
275.3409641759
 20
861.2693732234
 11
275.3409641759
 21
860.8249253881
 12
272.8224456574
 22
860.5286336129
 13
272.8224456574
 23
860.5286336129
  0
SOLID
  5
46B
100
AcDbEntity
  8
0
100
AcDbTrace
 62
5
  6
CONTINUOUS
 10
275.489112324
 20
861.5656729105
 11
275.3409641759
 21
861.2693732234
 12
272.8224456574
 22
860.5286336129
 13
272.8224456574
 23
860.5286336129
  0
SOLID
  5
46C
100
AcDbEntity
  8
0
100
AcDbTrace
 62
5
  6
CONTINUOUS
 10
275.489112324
 20
861.5656729105
 11
272.8224456574
 21
860.5286336129
 12
272.8224456574
 22
861.5656729105
 13
272.8224456574
 23
861.5656729105
  0
SOLID
  5
46D
100
AcDbEntity
  8
0
100
AcDbTrace
 62
5
  6
CONTINUOUS
 10
272.8224456574
 20
860.5286336129
 11
275.3409641759
 21
860.8249253881
 12
275.3409641759
 22
860.3804933767
 13
275.3409641759
 23
860.3804933767
  0
SOLID
  5
46E
100
AcDbEntity
  8
0
100
AcDbTrace
 62
5
  6
CONTINUOUS
 10
283.9335567685
 20
860.6767817611
 11
281.4150382499
 21
860.3804933767
 12
281.2668901018
 22
860.8249253881
 13
281.2668901018
 23
860.8249253881
  0
SOLID
  5
46F
100
AcDbEntity
  8
0
100
AcDbTrace
 62
5
  6
CONTINUOUS
 10
275.3409641759
 20
860.3804933767
 11
272.8224456574
 21
860.0841936896
 12
272.8224456574
 22
860.5286336129
 13
272.8224456574
 23
860.5286336129
  0
SOLID
  5
470
100
AcDbEntity
  8
0
100
AcDbTrace
 62
5
  6
CONTINUOUS
 10
272.8224456574
 20
860.0841936896
 11
275.3409641759
 21
860.3804933767
 12
275.489112324
 22
860.0841936896
 13
275.489112324
 23
860.0841936896
  0
SOLID
  5
471
100
AcDbEntity
  8
0
100
AcDbTrace
 62
5
  6
CONTINUOUS
 10
275.489112324
 20
860.0841936896
 11
275.9335567685
 21
859.639744724
 12
272.8224456574
 22
859.4915965759
 13
272.8224456574
 23
859.4915965759
  0
SOLID
  5
472
100
AcDbEntity
  8
0
100
AcDbTrace
 62
5
  6
CONTINUOUS
 10
275.489112324
 20
860.0841936896
 11
272.8224456574
 21
859.4915965759
 12
272.8224456574
 22
860.0841936896
 13
272.8224456574
 23
860.0841936896
  0
SOLID
  5
473
100
AcDbEntity
  8
0
100
AcDbTrace
 62
5
  6
CONTINUOUS
 10
272.8224456574
 20
859.4915965759
 11
275.9335567685
 21
859.639744724
 12
276.5261493611
 22
859.3434472975
 13
276.5261493611
 23
859.3434472975
  0
SOLID
  5
474
100
AcDbEntity
  8
0
100
AcDbTrace
 62
5
  6
CONTINUOUS
 10
276.6742975092
 20
859.3434472975
 11
277.1187419536
 21
859.1953002796
 12
273.1187419536
 22
859.0471487406
 13
273.1187419536
 23
859.0471487406
  0
SOLID
  5
475
100
AcDbEntity
  8
0
100
AcDbTrace
 62
5
  6
CONTINUOUS
 10
276.5261493611
 20
859.3434472975
 11
276.6742975092
 21
859.3434472975
 12
273.1187419536
 22
859.0471487406
 13
273.1187419536
 23
859.0471487406
  0
SOLID
  5
476
100
AcDbEntity
  8
0
100
AcDbTrace
 62
5
  6
CONTINUOUS
 10
276.5261493611
 20
859.3434472975
 11
273.1187419536
 21
859.0471487406
 12
272.8224456574
 22
859.4915965759
 13
272.8224456574
 23
859.4915965759
  0
SOLID
  5
477
100
AcDbEntity
  8
0
100
AcDbTrace
 62
5
  6
CONTINUOUS
 10
273.1187419536
 20
859.0471487406
 11
277.1187419536
 21
859.1953002796
 12
277.7113345462
 22
859.0471487406
 13
277.7113345462
 23
859.0471487406
  0
SOLID
  5
478
100
AcDbEntity
  8
0
100
AcDbTrace
 62
5
  6
CONTINUOUS
 10
277.7113345462
 20
859.0471487406
 11
278.6002234351
 21
858.7508558352
 12
273.2668901018
 22
858.602707687
 13
273.2668901018
 23
858.602707687
  0
SOLID
  5
479
100
AcDbEntity
  8
0
100
AcDbTrace
 62
5
  6
CONTINUOUS
 10
277.7113345462
 20
859.0471487406
 11
273.2668901018
 21
858.602707687
 12
273.1187419536
 22
859.0471487406
 13
273.1187419536
 23
859.0471487406
  0
SOLID
  5
47A
100
AcDbEntity
  8
0
100
AcDbTrace
 62
5
  6
CONTINUOUS
 10
273.2668901018
 20
858.602707687
 11
278.6002234351
 21
858.7508558352
 12
279.7854086203
 22
858.4545595389
 13
279.7854086203
 23
858.4545595389
  0
SOLID
  5
47B
100
AcDbEntity
  8
0
100
AcDbTrace
 62
5
  6
CONTINUOUS
 10
279.7854086203
 20
858.4545595389
 11
273.5631863981
 21
858.1582677637
 12
273.2668901018
 22
858.602707687
 13
273.2668901018
 23
858.602707687
  0
SOLID
  5
47C
100
AcDbEntity
  8
0
100
AcDbTrace
 62
5
  6
CONTINUOUS
 10
273.5631863981
 20
858.1582677637
 11
279.7854086203
 21
858.4545595389
 12
280.6742975092
 22
858.1582677637
 13
280.6742975092
 23
858.1582677637
  0
SOLID
  5
47D
100
AcDbEntity
  8
0
100
AcDbTrace
 62
5
  6
CONTINUOUS
 10
280.6742975092
 20
858.1582677637
 11
274.0076308425
 21
857.8619692068
 12
273.5631863981
 22
858.1582677637
 13
273.5631863981
 23
858.1582677637
  0
SOLID
  5
47E
100
AcDbEntity
  8
0
100
AcDbTrace
 62
5
  6
CONTINUOUS
 10
274.0076308425
 20
857.8619692068
 11
280.6742975092
 21
858.1582677637
 12
281.5631863981
 22
857.8619692068
 13
281.5631863981
 23
857.8619692068
  0
SOLID
  5
47F
100
AcDbEntity
  8
0
100
AcDbTrace
 62
5
  6
CONTINUOUS
 10
281.5631863981
 20
857.8619692068
 11
274.452075287
 21
857.56567065
 12
274.0076308425
 22
857.8619692068
 13
274.0076308425
 23
857.8619692068
  0
SOLID
  5
480
100
AcDbEntity
  8
0
100
AcDbTrace
 62
5
  6
CONTINUOUS
 10
274.452075287
 20
857.56567065
 11
281.5631863981
 21
857.8619692068
 12
282.1557789907
 22
857.56567065
 13
282.1557789907
 23
857.56567065
  0
SOLID
  5
481
100
AcDbEntity
  8
0
100
AcDbTrace
 62
5
  6
CONTINUOUS
 10
282.1557789907
 20
857.56567065
 11
282.6002234351
 21
857.4175225018
 12
274.8965197314
 22
857.2693743537
 13
274.8965197314
 23
857.2693743537
  0
SOLID
  5
482
100
AcDbEntity
  8
0
100
AcDbTrace
 62
5
  6
CONTINUOUS
 10
282.1557789907
 20
857.56567065
 11
274.8965197314
 21
857.2693743537
 12
274.452075287
 22
857.56567065
 13
274.452075287
 23
857.56567065
  0
SOLID
  5
483
100
AcDbEntity
  8
0
100
AcDbTrace
 62
5
  6
CONTINUOUS
 10
274.8965197314
 20
857.2693743537
 11
282.6002234351
 21
857.4175225018
 12
283.0446678796
 22
857.1212262055
 13
283.0446678796
 23
857.1212262055
  0
SOLID
  5
484
100
AcDbEntity
  8
0
100
AcDbTrace
 62
5
  6
CONTINUOUS
 10
283.0446678796
 20
857.1212262055
 11
275.6372604722
 21
856.9730780574
 12
274.8965197314
 22
857.2693743537
 13
274.8965197314
 23
857.2693743537
  0
SOLID
  5
485
100
AcDbEntity
  8
0
100
AcDbTrace
 62
5
  6
CONTINUOUS
 10
276.3780012129
 20
856.6767744143
 11
275.6372604722
 21
856.9730780574
 12
283.0446678796
 22
857.1212262055
 13
283.0446678796
 23
857.1212262055
  0
SOLID
  5
486
100
AcDbEntity
  8
0
100
AcDbTrace
 62
5
  6
CONTINUOUS
 10
276.3780012129
 20
856.6767744143
 11
283.0446678796
 21
857.1212262055
 12
283.489112324
 22
856.6767744143
 13
283.489112324
 23
856.6767744143
  0
SOLID
  5
487
100
AcDbEntity
  8
0
100
AcDbTrace
 62
5
  6
CONTINUOUS
 10
283.489112324
 20
856.6767744143
 11
277.4150382499
 21
856.3804911162
 12
276.3780012129
 22
856.6767744143
 13
276.3780012129
 23
856.6767744143
  0
SOLID
  5
488
100
AcDbEntity
  8
0
100
AcDbTrace
 62
5
  6
CONTINUOUS
 10
277.4150382499
 20
856.3804911162
 11
283.489112324
 21
856.6767744143
 12
283.7854086203
 22
856.3804911162
 13
283.7854086203
 23
856.3804911162
  0
SOLID
  5
489
100
AcDbEntity
  8
0
100
AcDbTrace
 62
5
  6
CONTINUOUS
 10
283.7854086203
 20
856.3804911162
 11
278.6002234351
 21
856.0841891685
 12
277.4150382499
 22
856.3804911162
 13
277.4150382499
 23
856.3804911162
  0
SOLID
  5
48A
100
AcDbEntity
  8
0
100
AcDbTrace
 62
5
  6
CONTINUOUS
 10
278.6002234351
 20
856.0841891685
 11
283.7854086203
 21
856.3804911162
 12
284.0817049166
 22
855.9360410203
 13
284.0817049166
 23
855.9360410203
  0
SOLID
  5
48B
100
AcDbEntity
  8
0
100
AcDbTrace
 62
5
  6
CONTINUOUS
 10
284.0817049166
 20
855.9360410203
 11
279.489112324
 21
855.7878928722
 12
278.6002234351
 22
856.0841891685
 13
278.6002234351
 23
856.0841891685
  0
SOLID
  5
48C
100
AcDbEntity
  8
0
100
AcDbTrace
 62
5
  6
CONTINUOUS
 10
280.2298530648
 20
855.639744724
 11
279.489112324
 21
855.7878928722
 12
284.0817049166
 22
855.9360410203
 13
284.0817049166
 23
855.9360410203
  0
SOLID
  5
48D
100
AcDbEntity
  8
0
100
AcDbTrace
 62
5
  6
CONTINUOUS
 10
280.8224456574
 20
855.4915965759
 11
280.2298530648
 21
855.639744724
 12
284.0817049166
 22
855.9360410203
 13
284.0817049166
 23
855.9360410203
  0
SOLID
  5
48E
100
AcDbEntity
  8
0
100
AcDbTrace
 62
5
  6
CONTINUOUS
 10
280.8224456574
 20
855.4915965759
 11
284.0817049166
 21
855.9360410203
 12
284.2298530648
 22
855.3434484277
 13
284.2298530648
 23
855.3434484277
  0
SOLID
  5
48F
100
AcDbEntity
  8
0
100
AcDbTrace
 62
5
  6
CONTINUOUS
 10
284.2298530648
 20
855.3434484277
 11
281.1187419536
 21
855.1953002796
 12
280.8224456574
 22
855.4915965759
 13
280.8224456574
 23
855.4915965759
  0
SOLID
  5
490
100
AcDbEntity
  8
0
100
AcDbTrace
 62
5
  6
CONTINUOUS
 10
281.4150382499
 20
855.0471521315
 11
281.1187419536
 21
855.1953002796
 12
284.2298530648
 22
855.3434484277
 13
284.2298530648
 23
855.3434484277
  0
SOLID
  5
491
100
AcDbEntity
  8
0
100
AcDbTrace
 62
5
  6
CONTINUOUS
 10
281.4150382499
 20
855.0471521315
 11
284.2298530648
 21
855.3434484277
 12
284.3780012129
 22
854.8990039833
 13
284.3780012129
 23
854.8990039833
  0
SOLID
  5
492
100
AcDbEntity
  8
0
100
AcDbTrace
 62
5
  6
CONTINUOUS
 10
284.3780012129
 20
854.8990039833
 11
281.7113345462
 21
854.7508484883
 12
281.4150382499
 22
855.0471521315
 13
281.4150382499
 23
855.0471521315
  0
SOLID
  5
493
100
AcDbEntity
  8
0
100
AcDbTrace
 62
5
  6
CONTINUOUS
 10
281.8594826944
 20
854.3064113907
 11
281.7113345462
 21
854.7508484883
 12
284.3780012129
 22
854.8990039833
 13
284.3780012129
 23
854.8990039833
  0
SOLID
  5
494
100
AcDbEntity
  8
0
100
AcDbTrace
 62
5
  6
CONTINUOUS
 10
281.8594826944
 20
854.3064113907
 11
284.3780012129
 21
854.8990039833
 12
284.5261493611
 22
854.1582632426
 13
284.5261493611
 23
854.1582632426
  0
SOLID
  5
495
100
AcDbEntity
  8
0
100
AcDbTrace
 62
5
  6
CONTINUOUS
 10
272.5261493611
 20
854.4545595389
 11
275.0446678796
 21
854.7508484883
 12
275.1928160277
 22
854.0101167898
 13
275.1928160277
 23
854.0101167898
  0
SOLID
  5
496
100
AcDbEntity
  8
0
100
AcDbTrace
 62
5
  6
CONTINUOUS
 10
284.5261493611
 20
854.1582632426
 11
282.0076308425
 21
854.0101167898
 12
281.8594826944
 22
854.3064113907
 13
281.8594826944
 23
854.3064113907
  0
SOLID
  5
497
100
AcDbEntity
  8
0
100
AcDbTrace
 62
5
  6
CONTINUOUS
 10
281.8594826944
 20
853.5656689545
 11
282.0076308425
 21
854.0101167898
 12
284.5261493611
 22
854.1582632426
 13
284.5261493611
 23
854.1582632426
  0
SOLID
  5
498
100
AcDbEntity
  8
0
100
AcDbTrace
 62
5
  6
CONTINUOUS
 10
281.8594826944
 20
853.5656689545
 11
284.5261493611
 21
854.1582632426
 12
284.3780012129
 22
853.5656689545
 13
284.3780012129
 23
853.5656689545
  0
SOLID
  5
499
100
AcDbEntity
  8
0
100
AcDbTrace
 62
5
  6
CONTINUOUS
 10
275.1928160277
 20
854.0101167898
 11
275.3409641759
 21
853.4175225018
 12
272.6742975092
 22
853.2693743537
 13
272.6742975092
 23
853.2693743537
  0
SOLID
  5
49A
100
AcDbEntity
  8
0
100
AcDbTrace
 62
5
  6
CONTINUOUS
 10
275.1928160277
 20
854.0101167898
 11
272.6742975092
 21
853.2693743537
 12
272.5261493611
 22
854.4545595389
 13
272.5261493611
 23
854.4545595389
  0
SOLID
  5
49B
100
AcDbEntity
  8
0
100
AcDbTrace
 62
5
  6
CONTINUOUS
 10
284.3780012129
 20
853.5656689545
 11
281.7113345462
 21
853.1212262055
 12
281.8594826944
 22
853.5656689545
 13
281.8594826944
 23
853.5656689545
  0
SOLID
  5
49C
100
AcDbEntity
  8
0
100
AcDbTrace
 62
5
  6
CONTINUOUS
 10
272.6742975092
 20
853.2693743537
 11
275.3409641759
 21
853.4175225018
 12
275.6372604722
 22
852.9730715583
 13
275.6372604722
 23
852.9730715583
  0
SOLID
  5
49D
100
AcDbEntity
  8
0
100
AcDbTrace
 62
5
  6
CONTINUOUS
 10
281.7113345462
 20
853.1212262055
 11
284.3780012129
 21
853.5656689545
 12
284.2298530648
 22
852.9730715583
 13
284.2298530648
 23
852.9730715583
  0
SOLID
  5
49E
100
AcDbEntity
  8
0
100
AcDbTrace
 62
5
  6
CONTINUOUS
 10
284.2298530648
 20
852.9730715583
 11
281.4150382499
 21
852.6767817611
 12
281.7113345462
 22
853.1212262055
 13
281.7113345462
 23
853.1212262055
  0
SOLID
  5
49F
100
AcDbEntity
  8
0
100
AcDbTrace
 62
5
  6
CONTINUOUS
 10
281.4150382499
 20
852.6767817611
 11
284.2298530648
 21
852.9730715583
 12
284.0817049166
 22
852.5286386992
 13
284.0817049166
 23
852.5286386992
  0
SOLID
  5
4A0
100
AcDbEntity
  8
0
100
AcDbTrace
 62
5
  6
CONTINUOUS
 10
275.6372604722
 20
852.9730715583
 11
276.0817049166
 21
852.5286386992
 12
273.1187419536
 22
852.3804894208
 13
273.1187419536
 23
852.3804894208
  0
SOLID
  5
4A1
100
AcDbEntity
  8
0
100
AcDbTrace
 62
5
  6
CONTINUOUS
 10
275.6372604722
 20
852.9730715583
 11
273.1187419536
 21
852.3804894208
 12
272.6742975092
 22
853.2693743537
 13
272.6742975092
 23
853.2693743537
  0
SOLID
  5
4A2
100
AcDbEntity
  8
0
100
AcDbTrace
 62
5
  6
CONTINUOUS
 10
284.0817049166
 20
852.5286386992
 11
281.1187419536
 21
852.3804894208
 12
281.4150382499
 22
852.6767817611
 13
281.4150382499
 23
852.6767817611
  0
SOLID
  5
4A3
100
AcDbEntity
  8
0
100
AcDbTrace
 62
5
  6
CONTINUOUS
 10
273.1187419536
 20
852.3804894208
 11
276.0817049166
 21
852.5286386992
 12
276.5261493611
 22
852.0841905813
 13
276.5261493611
 23
852.0841905813
  0
SOLID
  5
4A4
100
AcDbEntity
  8
0
100
AcDbTrace
 62
5
  6
CONTINUOUS
 10
280.6742975092
 20
852.0841905813
 11
281.1187419536
 21
852.3804894208
 12
284.0817049166
 22
852.5286386992
 13
284.0817049166
 23
852.5286386992
  0
SOLID
  5
4A5
100
AcDbEntity
  8
0
100
AcDbTrace
 62
5
  6
CONTINUOUS
 10
280.0817049166
 20
851.9360413029
 11
280.6742975092
 21
852.0841905813
 12
284.0817049166
 22
852.5286386992
 13
284.0817049166
 23
852.5286386992
  0
SOLID
  5
4A6
100
AcDbEntity
  8
0
100
AcDbTrace
 62
5
  6
CONTINUOUS
 10
280.0817049166
 20
851.9360413029
 11
284.0817049166
 21
852.5286386992
 12
283.7854086203
 22
851.9360413029
 13
283.7854086203
 23
851.9360413029
  0
SOLID
  5
4A7
100
AcDbEntity
  8
0
100
AcDbTrace
 62
5
  6
CONTINUOUS
 10
283.7854086203
 20
851.9360413029
 11
279.489112324
 21
851.7878920245
 12
280.0817049166
 22
851.9360413029
 13
280.0817049166
 23
851.9360413029
  0
SOLID
  5
4A8
100
AcDbEntity
  8
0
100
AcDbTrace
 62
5
  6
CONTINUOUS
 10
278.6002234351
 20
851.7878920245
 11
279.489112324
 21
851.7878920245
 12
273.7113345462
 22
851.4915965759
 13
273.7113345462
 23
851.4915965759
  0
SOLID
  5
4A9
100
AcDbEntity
  8
0
100
AcDbTrace
 62
5
  6
CONTINUOUS
 10
277.8594826944
 20
851.7878920245
 11
278.6002234351
 21
851.7878920245
 12
273.7113345462
 22
851.4915965759
 13
273.7113345462
 23
851.4915965759
  0
SOLID
  5
4AA
100
AcDbEntity
  8
0
100
AcDbTrace
 62
5
  6
CONTINUOUS
 10
277.2668901018
 20
851.9360413029
 11
277.8594826944
 21
851.7878920245
 12
273.7113345462
 22
851.4915965759
 13
273.7113345462
 23
851.4915965759
  0
SOLID
  5
4AB
100
AcDbEntity
  8
0
100
AcDbTrace
 62
5
  6
CONTINUOUS
 10
276.5261493611
 20
852.0841905813
 11
277.2668901018
 21
851.9360413029
 12
273.7113345462
 22
851.4915965759
 13
273.7113345462
 23
851.4915965759
  0
SOLID
  5
4AC
100
AcDbEntity
  8
0
100
AcDbTrace
 62
5
  6
CONTINUOUS
 10
276.5261493611
 20
852.0841905813
 11
273.7113345462
 21
851.4915965759
 12
273.1187419536
 22
852.3804894208
 13
273.1187419536
 23
852.3804894208
  0
SOLID
  5
4AD
100
AcDbEntity
  8
0
100
AcDbTrace
 62
5
  6
CONTINUOUS
 10
273.7113345462
 20
851.4915965759
 11
279.489112324
 21
851.7878920245
 12
283.7854086203
 22
851.9360413029
 13
283.7854086203
 23
851.9360413029
  0
SOLID
  5
4AE
100
AcDbEntity
  8
0
100
AcDbTrace
 62
5
  6
CONTINUOUS
 10
273.7113345462
 20
851.4915965759
 11
283.7854086203
 21
851.9360413029
 12
283.3409641759
 22
851.3434484277
 13
283.3409641759
 23
851.3434484277
  0
SOLID
  5
4AF
100
AcDbEntity
  8
0
100
AcDbTrace
 62
5
  6
CONTINUOUS
 10
283.3409641759
 20
851.3434484277
 11
274.3039271388
 21
850.8990111182
 12
273.7113345462
 22
851.4915965759
 13
273.7113345462
 23
851.4915965759
  0
SOLID
  5
4B0
100
AcDbEntity
  8
0
100
AcDbTrace
 62
5
  6
CONTINUOUS
 10
274.3039271388
 20
850.8990111182
 11
283.3409641759
 21
851.3434484277
 12
282.8965197314
 22
850.8990111182
 13
282.8965197314
 23
850.8990111182
  0
SOLID
  5
4B1
100
AcDbEntity
  8
0
100
AcDbTrace
 62
5
  6
CONTINUOUS
 10
282.8965197314
 20
850.8990111182
 11
282.3039271388
 21
850.602707687
 12
275.1928160277
 22
850.3064137572
 13
275.1928160277
 23
850.3064137572
  0
SOLID
  5
4B2
100
AcDbEntity
  8
0
100
AcDbTrace
 62
5
  6
CONTINUOUS
 10
282.8965197314
 20
850.8990111182
 11
275.1928160277
 21
850.3064137572
 12
274.3039271388
 22
850.8990111182
 13
274.3039271388
 23
850.8990111182
  0
SOLID
  5
4B3
100
AcDbEntity
  8
0
100
AcDbTrace
 62
5
  6
CONTINUOUS
 10
275.1928160277
 20
850.3064137572
 11
282.3039271388
 21
850.602707687
 12
281.7113345462
 22
850.3064137572
 13
281.7113345462
 23
850.3064137572
  0
SOLID
  5
4B4
100
AcDbEntity
  8
0
100
AcDbTrace
 62
5
  6
CONTINUOUS
 10
281.7113345462
 20
850.3064137572
 11
276.0817049166
 21
850.0101150944
 12
275.1928160277
 22
850.3064137572
 13
275.1928160277
 23
850.3064137572
  0
SOLID
  5
4B5
100
AcDbEntity
  8
0
100
AcDbTrace
 62
5
  6
CONTINUOUS
 10
276.0817049166
 20
850.0101150944
 11
281.7113345462
 21
850.3064137572
 12
280.9705938055
 22
850.0101150944
 13
280.9705938055
 23
850.0101150944
  0
SOLID
  5
4B6
100
AcDbEntity
  8
0
100
AcDbTrace
 62
5
  6
CONTINUOUS
 10
280.9705938055
 20
850.0101150944
 11
277.2668901018
 21
849.861965763
 12
276.0817049166
 22
850.0101150944
 13
276.0817049166
 23
850.0101150944
  0
SOLID
  5
4B7
100
AcDbEntity
  8
0
100
AcDbTrace
 62
5
  6
CONTINUOUS
 10
279.489112324
 20
849.861965763
 11
277.2668901018
 21
849.861965763
 12
280.9705938055
 22
850.0101150944
 13
280.9705938055
 23
850.0101150944
  0
SOLID
  5
4B8
100
AcDbEntity
  8
0
100
AcDbTrace
 62
5
  6
CONTINUOUS
 10
279.489112324
 20
849.861965763
 11
280.9705938055
 21
850.0101150944
 12
280.2298530648
 22
849.861965763
 13
280.2298530648
 23
849.861965763
  0
SOLID
  5
4B9
100
AcDbEntity
  8
0
100
AcDbTrace
 62
5
  6
CONTINUOUS
 10
279.489112324
 20
849.861965763
 11
278.6002234351
 21
849.7138187981
 12
277.2668901018
 22
849.861965763
 13
277.2668901018
 23
849.861965763
  0
SOLID
  5
4BA
100
AcDbEntity
  8
0
100
AcDbTrace
 62
5
  6
CONTINUOUS
 10
297.1187419536
 20
870.0101150944
 11
294.6002234351
 21
865.7138187981
 12
285.8594826944
 22
856.9730752317
 13
285.8594826944
 23
856.9730752317
  0
SOLID
  5
4BB
100
AcDbEntity
  8
0
100
AcDbTrace
 62
5
  6
CONTINUOUS
 10
297.1187419536
 20
870.0101150944
 11
285.8594826944
 21
856.9730752317
 12
295.1928160277
 22
870.0101150944
 13
295.1928160277
 23
870.0101150944
  0
SOLID
  5
4BC
100
AcDbEntity
  8
0
100
AcDbTrace
 62
5
  6
CONTINUOUS
 10
285.8594826944
 20
856.9730752317
 11
294.6002234351
 21
865.7138187981
 12
288.2298530648
 22
856.9730752317
 13
288.2298530648
 23
856.9730752317
  0
SOLID
  5
4BD
100
AcDbEntity
  8
0
100
AcDbTrace
 62
5
  6
CONTINUOUS
 10
294.6002234351
 20
856.9730752317
 11
294.6002234351
 21
865.7138187981
 12
297.1187419536
 22
870.0101150944
 13
297.1187419536
 23
870.0101150944
  0
SOLID
  5
4BE
100
AcDbEntity
  8
0
100
AcDbTrace
 62
5
  6
CONTINUOUS
 10
294.6002234351
 20
856.9730752317
 11
297.1187419536
 21
870.0101150944
 12
297.1187419536
 22
856.9730752317
 13
297.1187419536
 23
856.9730752317
  0
SOLID
  5
4BF
100
AcDbEntity
  8
0
100
AcDbTrace
 62
5
  6
CONTINUOUS
 10
297.1187419536
 20
856.9730752317
 11
299.7854086203
 21
856.9730752317
 12
285.8594826944
 22
854.7508549874
 13
285.8594826944
 23
854.7508549874
  0
SOLID
  5
4C0
100
AcDbEntity
  8
0
100
AcDbTrace
 62
5
  6
CONTINUOUS
 10
294.6002234351
 20
856.9730752317
 11
297.1187419536
 21
856.9730752317
 12
285.8594826944
 22
854.7508549874
 13
285.8594826944
 23
854.7508549874
  0
SOLID
  5
4C1
100
AcDbEntity
  8
0
100
AcDbTrace
 62
5
  6
CONTINUOUS
 10
288.2298530648
 20
856.9730752317
 11
294.6002234351
 21
856.9730752317
 12
285.8594826944
 22
854.7508549874
 13
285.8594826944
 23
854.7508549874
  0
SOLID
  5
4C2
100
AcDbEntity
  8
0
100
AcDbTrace
 62
5
  6
CONTINUOUS
 10
288.2298530648
 20
856.9730752317
 11
285.8594826944
 21
854.7508549874
 12
285.8594826944
 22
856.9730752317
 13
285.8594826944
 23
856.9730752317
  0
SOLID
  5
4C3
100
AcDbEntity
  8
0
100
AcDbTrace
 62
5
  6
CONTINUOUS
 10
294.6002234351
 20
854.7508549874
 11
285.8594826944
 21
854.7508549874
 12
299.7854086203
 22
856.9730752317
 13
299.7854086203
 23
856.9730752317
  0
SOLID
  5
4C4
100
AcDbEntity
  8
0
100
AcDbTrace
 62
5
  6
CONTINUOUS
 10
297.1187419536
 20
854.7508549874
 11
294.6002234351
 21
854.7508549874
 12
299.7854086203
 22
856.9730752317
 13
299.7854086203
 23
856.9730752317
  0
SOLID
  5
4C5
100
AcDbEntity
  8
0
100
AcDbTrace
 62
5
  6
CONTINUOUS
 10
297.1187419536
 20
854.7508549874
 11
299.7854086203
 21
856.9730752317
 12
299.7854086203
 22
854.7508549874
 13
299.7854086203
 23
854.7508549874
  0
SOLID
  5
4C6
100
AcDbEntity
  8
0
100
AcDbTrace
 62
5
  6
CONTINUOUS
 10
297.1187419536
 20
854.7508549874
 11
294.6002234351
 21
850.0101150944
 12
294.6002234351
 22
854.7508549874
 13
294.6002234351
 23
854.7508549874
  0
SOLID
  5
4C7
100
AcDbEntity
  8
0
100
AcDbTrace
 62
5
  6
CONTINUOUS
 10
294.6002234351
 20
850.0101150944
 11
297.1187419536
 21
854.7508549874
 12
297.1187419536
 22
850.0101150944
 13
297.1187419536
 23
850.0101150944
  0
SOLID
  5
4C8
100
AcDbEntity
  8
0
100
AcDbTrace
 62
5
  6
CONTINUOUS
 10
307.6372604722
 20
869.8619624251
 11
308.6742975092
 21
870.0101150944
 12
309.4150382499
 22
869.8619624251
 13
309.4150382499
 23
869.8619624251
  0
SOLID
  5
4C9
100
AcDbEntity
  8
0
100
AcDbTrace
 62
5
  6
CONTINUOUS
 10
309.4150382499
 20
869.8619624251
 11
306.7483715833
 21
869.7138210587
 12
307.6372604722
 22
869.8619624251
 13
307.6372604722
 23
869.8619624251
  0
SOLID
  5
4CA
100
AcDbEntity
  8
0
100
AcDbTrace
 62
5
  6
CONTINUOUS
 10
306.7483715833
 20
869.7138210587
 11
309.4150382499
 21
869.8619624251
 12
310.1557789907
 22
869.7138210587
 13
310.1557789907
 23
869.7138210587
  0
SOLID
  5
4CB
100
AcDbEntity
  8
0
100
AcDbTrace
 62
5
  6
CONTINUOUS
 10
310.1557789907
 20
869.7138210587
 11
310.8965197314
 21
869.56567065
 12
305.8594826944
 22
869.2693720931
 13
305.8594826944
 23
869.2693720931
  0
SOLID
  5
4CC
100
AcDbEntity
  8
0
100
AcDbTrace
 62
5
  6
CONTINUOUS
 10
310.1557789907
 20
869.7138210587
 11
305.8594826944
 21
869.2693720931
 12
306.7483715833
 22
869.7138210587
 13
306.7483715833
 23
869.7138210587
  0
SOLID
  5
4CD
100
AcDbEntity
  8
0
100
AcDbTrace
 62
5
  6
CONTINUOUS
 10
305.8594826944
 20
869.2693720931
 11
310.8965197314
 21
869.56567065
 12
311.489112324
 22
869.2693720931
 13
311.489112324
 23
869.2693720931
  0
SOLID
  5
4CE
100
AcDbEntity
  8
0
100
AcDbTrace
 62
5
  6
CONTINUOUS
 10
311.489112324
 20
869.2693720931
 11
312.0817049166
 21
868.9730780574
 12
305.1187419536
 22
868.8249299092
 13
305.1187419536
 23
868.8249299092
  0
SOLID
  5
4CF
100
AcDbEntity
  8
0
100
AcDbTrace
 62
5
  6
CONTINUOUS
 10
311.489112324
 20
869.2693720931
 11
305.1187419536
 21
868.8249299092
 12
305.8594826944
 22
869.2693720931
 13
305.8594826944
 23
869.2693720931
  0
SOLID
  5
4D0
100
AcDbEntity
  8
0
100
AcDbTrace
 62
5
  6
CONTINUOUS
 10
305.1187419536
 20
868.8249299092
 11
312.0817049166
 21
868.9730780574
 12
312.6742975092
 22
868.5286336129
 13
312.6742975092
 23
868.5286336129
  0
SOLID
  5
4D1
100
AcDbEntity
  8
0
100
AcDbTrace
 62
5
  6
CONTINUOUS
 10
312.6742975092
 20
868.5286336129
 11
304.3780012129
 21
868.2323373166
 12
305.1187419536
 22
868.8249299092
 13
305.1187419536
 23
868.8249299092
  0
SOLID
  5
4D2
100
AcDbEntity
  8
0
100
AcDbTrace
 62
5
  6
CONTINUOUS
 10
308.6742975092
 20
867.936047802
 11
304.3780012129
 21
868.2323373166
 12
312.6742975092
 22
868.5286336129
 13
312.6742975092
 23
868.5286336129
  0
SOLID
  5
4D3
100
AcDbEntity
  8
0
100
AcDbTrace
 62
5
  6
CONTINUOUS
 10
308.6742975092
 20
867.936047802
 11
312.6742975092
 21
868.5286336129
 12
313.1187419536
 22
867.936047802
 13
313.1187419536
 23
867.936047802
  0
SOLID
  5
4D4
100
AcDbEntity
  8
0
100
AcDbTrace
 62
5
  6
CONTINUOUS
 10
313.1187419536
 20
867.936047802
 11
309.4150382499
 21
867.7878849602
 12
308.6742975092
 22
867.936047802
 13
308.6742975092
 23
867.936047802
  0
SOLID
  5
4D5
100
AcDbEntity
  8
0
100
AcDbTrace
 62
5
  6
CONTINUOUS
 10
310.1557789907
 20
867.4915988365
 11
309.4150382499
 21
867.7878849602
 12
313.1187419536
 22
867.936047802
 13
313.1187419536
 23
867.936047802
  0
SOLID
  5
4D6
100
AcDbEntity
  8
0
100
AcDbTrace
 62
5
  6
CONTINUOUS
 10
310.1557789907
 20
867.4915988365
 11
313.1187419536
 21
867.936047802
 12
313.4150382499
 22
867.4915988365
 13
313.4150382499
 23
867.4915988365
  0
SOLID
  5
4D7
100
AcDbEntity
  8
0
100
AcDbTrace
 62
5
  6
CONTINUOUS
 10
307.7854086203
 20
867.7878849602
 11
307.1928160277
 21
867.4915988365
 12
303.7854086203
 22
867.3434484277
 13
303.7854086203
 23
867.3434484277
  0
SOLID
  5
4D8
100
AcDbEntity
  8
0
100
AcDbTrace
 62
5
  6
CONTINUOUS
 10
308.6742975092
 20
867.936047802
 11
307.7854086203
 21
867.7878849602
 12
303.7854086203
 22
867.3434484277
 13
303.7854086203
 23
867.3434484277
  0
SOLID
  5
4D9
100
AcDbEntity
  8
0
100
AcDbTrace
 62
5
  6
CONTINUOUS
 10
308.6742975092
 20
867.936047802
 11
303.7854086203
 21
867.3434484277
 12
304.3780012129
 22
868.2323373166
 13
304.3780012129
 23
868.2323373166
  0
SOLID
  5
4DA
100
AcDbEntity
  8
0
100
AcDbTrace
 62
5
  6
CONTINUOUS
 10
303.7854086203
 20
867.3434484277
 11
307.1928160277
 21
867.4915988365
 12
306.452075287
 22
867.0471521315
 13
306.452075287
 23
867.0471521315
  0
SOLID
  5
4DB
100
AcDbEntity
  8
0
100
AcDbTrace
 62
5
  6
CONTINUOUS
 10
313.4150382499
 20
867.4915988365
 11
310.8965197314
 21
866.8990039833
 12
310.1557789907
 22
867.4915988365
 13
310.1557789907
 23
867.4915988365
  0
SOLID
  5
4DC
100
AcDbEntity
  8
0
100
AcDbTrace
 62
5
  6
CONTINUOUS
 10
310.8965197314
 20
866.8990039833
 11
313.4150382499
 21
867.4915988365
 12
313.8594826944
 22
866.7508558352
 13
313.8594826944
 23
866.7508558352
  0
SOLID
  5
4DD
100
AcDbEntity
  8
0
100
AcDbTrace
 62
5
  6
CONTINUOUS
 10
306.452075287
 20
867.0471521315
 11
303.3409641759
 21
866.4545595389
 12
303.7854086203
 22
867.3434484277
 13
303.7854086203
 23
867.3434484277
  0
SOLID
  5
4DE
100
AcDbEntity
  8
0
100
AcDbTrace
 62
5
  6
CONTINUOUS
 10
303.3409641759
 20
866.4545595389
 11
306.452075287
 21
867.0471521315
 12
306.0076308425
 22
866.4545595389
 13
306.0076308425
 23
866.4545595389
  0
SOLID
  5
4DF
100
AcDbEntity
  8
0
100
AcDbTrace
 62
5
  6
CONTINUOUS
 10
313.8594826944
 20
866.7508558352
 11
311.489112324
 21
866.3064113907
 12
310.8965197314
 22
866.8990039833
 13
310.8965197314
 23
866.8990039833
  0
SOLID
  5
4E0
100
AcDbEntity
  8
0
100
AcDbTrace
 62
5
  6
CONTINUOUS
 10
311.489112324
 20
866.3064113907
 11
313.8594826944
 21
866.7508558352
 12
314.1557789907
 22
866.1582632426
 13
314.1557789907
 23
866.1582632426
  0
SOLID
  5
4E1
100
AcDbEntity
  8
0
100
AcDbTrace
 62
5
  6
CONTINUOUS
 10
314.1557789907
 20
866.1582632426
 11
311.7854086203
 21
865.8619669463
 12
311.489112324
 22
866.3064113907
 13
311.489112324
 23
866.3064113907
  0
SOLID
  5
4E2
100
AcDbEntity
  8
0
100
AcDbTrace
 62
5
  6
CONTINUOUS
 10
306.0076308425
 20
866.4545595389
 11
305.7113345462
 21
866.0101150944
 12
302.8965197314
 22
865.56567065
 13
302.8965197314
 23
865.56567065
  0
SOLID
  5
4E3
100
AcDbEntity
  8
0
100
AcDbTrace
 62
5
  6
CONTINUOUS
 10
306.0076308425
 20
866.4545595389
 11
302.8965197314
 21
865.56567065
 12
303.3409641759
 22
866.4545595389
 13
303.3409641759
 23
866.4545595389
  0
SOLID
  5
4E4
100
AcDbEntity
  8
0
100
AcDbTrace
 62
5
  6
CONTINUOUS
 10
302.8965197314
 20
865.56567065
 11
305.7113345462
 21
866.0101150944
 12
305.4150382499
 22
865.4175225018
 13
305.4150382499
 23
865.4175225018
  0
SOLID
  5
4E5
100
AcDbEntity
  8
0
100
AcDbTrace
 62
5
  6
CONTINUOUS
 10
311.9335567685
 20
865.2693777445
 11
311.7854086203
 21
865.8619669463
 12
314.1557789907
 22
866.1582632426
 13
314.1557789907
 23
866.1582632426
  0
SOLID
  5
4E6
100
AcDbEntity
  8
0
100
AcDbTrace
 62
5
  6
CONTINUOUS
 10
311.9335567685
 20
865.2693777445
 11
314.1557789907
 21
866.1582632426
 12
314.452075287
 22
865.2693777445
 13
314.452075287
 23
865.2693777445
  0
SOLID
  5
4E7
100
AcDbEntity
  8
0
100
AcDbTrace
 62
5
  6
CONTINUOUS
 10
314.452075287
 20
865.2693777445
 11
312.2298530648
 21
864.5286245707
 12
311.9335567685
 22
865.2693777445
 13
311.9335567685
 23
865.2693777445
  0
SOLID
  5
4E8
100
AcDbEntity
  8
0
100
AcDbTrace
 62
5
  6
CONTINUOUS
 10
312.2298530648
 20
864.5286245707
 11
314.452075287
 21
865.2693777445
 12
314.7483715833
 22
864.5286245707
 13
314.7483715833
 23
864.5286245707
  0
SOLID
  5
4E9
100
AcDbEntity
  8
0
100
AcDbTrace
 62
5
  6
CONTINUOUS
 10
305.4150382499
 20
865.4175225018
 11
305.2668901018
 21
864.6767817611
 12
302.6002234351
 22
864.3804854648
 13
302.6002234351
 23
864.3804854648
  0
SOLID
  5
4EA
100
AcDbEntity
  8
0
100
AcDbTrace
 62
5
  6
CONTINUOUS
 10
305.4150382499
 20
865.4175225018
 11
302.6002234351
 21
864.3804854648
 12
302.8965197314
 22
865.56567065
 13
302.8965197314
 23
865.56567065
  0
SOLID
  5
4EB
100
AcDbEntity
  8
0
100
AcDbTrace
 62
5
  6
CONTINUOUS
 10
302.6002234351
 20
864.3804854648
 11
305.2668901018
 21
864.6767817611
 12
305.1187419536
 22
863.9360410203
 13
305.1187419536
 23
863.9360410203
  0
SOLID
  5
4EC
100
AcDbEntity
  8
0
100
AcDbTrace
 62
5
  6
CONTINUOUS
 10
314.7483715833
 20
864.5286245707
 11
312.3780012129
 21
863.7878928722
 12
312.2298530648
 22
864.5286245707
 13
312.2298530648
 23
864.5286245707
  0
SOLID
  5
4ED
100
AcDbEntity
  8
0
100
AcDbTrace
 62
5
  6
CONTINUOUS
 10
312.3780012129
 20
863.7878928722
 11
314.7483715833
 21
864.5286245707
 12
314.8965197314
 22
863.4915965759
 13
314.8965197314
 23
863.4915965759
  0
SOLID
  5
4EE
100
AcDbEntity
  8
0
100
AcDbTrace
 62
5
  6
CONTINUOUS
 10
305.1187419536
 20
863.9360410203
 11
302.452075287
 21
863.0471566526
 12
302.6002234351
 22
864.3804854648
 13
302.6002234351
 23
864.3804854648
  0
SOLID
  5
4EF
100
AcDbEntity
  8
0
100
AcDbTrace
 62
5
  6
CONTINUOUS
 10
302.452075287
 20
863.0471566526
 11
305.1187419536
 21
863.9360410203
 12
304.9705938055
 22
863.0471566526
 13
304.9705938055
 23
863.0471566526
  0
SOLID
  5
4F0
100
AcDbEntity
  8
0
100
AcDbTrace
 62
5
  6
CONTINUOUS
 10
314.8965197314
 20
863.4915965759
 11
312.3780012129
 21
863.0471566526
 12
312.3780012129
 22
863.7878928722
 13
312.3780012129
 23
863.7878928722
  0
SOLID
  5
4F1
100
AcDbEntity
  8
0
100
AcDbTrace
 62
5
  6
CONTINUOUS
 10
312.3780012129
 20
863.0471566526
 11
314.8965197314
 21
863.4915965759
 12
315.0446678796
 22
862.4545595389
 13
315.0446678796
 23
862.4545595389
  0
SOLID
  5
4F2
100
AcDbEntity
  8
0
100
AcDbTrace
 62
5
  6
CONTINUOUS
 10
315.0446678796
 20
862.4545595389
 11
312.5261493611
 21
862.010117355
 12
312.3780012129
 22
863.0471566526
 13
312.3780012129
 23
863.0471566526
  0
SOLID
  5
4F3
100
AcDbEntity
  8
0
100
AcDbTrace
 62
5
  6
CONTINUOUS
 10
304.9705938055
 20
863.0471566526
 11
304.8224456574
 21
862.010117355
 12
302.3039271388
 22
861.4175225018
 13
302.3039271388
 23
861.4175225018
  0
SOLID
  5
4F4
100
AcDbEntity
  8
0
100
AcDbTrace
 62
5
  6
CONTINUOUS
 10
304.9705938055
 20
863.0471566526
 11
302.3039271388
 21
861.4175225018
 12
302.452075287
 22
863.0471566526
 13
302.452075287
 23
863.0471566526
  0
SOLID
  5
4F5
100
AcDbEntity
  8
0
100
AcDbTrace
 62
5
  6
CONTINUOUS
 10
312.5261493611
 20
862.010117355
 11
315.0446678796
 21
862.4545595389
 12
315.0446678796
 22
861.1212262055
 13
315.0446678796
 23
861.1212262055
  0
SOLID
  5
4F6
100
AcDbEntity
  8
0
100
AcDbTrace
 62
5
  6
CONTINUOUS
 10
302.3039271388
 20
861.4175225018
 11
304.8224456574
 21
862.010117355
 12
304.8224456574
 22
860.9730780574
 13
304.8224456574
 23
860.9730780574
  0
SOLID
  5
4F7
100
AcDbEntity
  8
0
100
AcDbTrace
 62
5
  6
CONTINUOUS
 10
315.0446678796
 20
861.1212262055
 11
312.5261493611
 21
860.9730780574
 12
312.5261493611
 22
862.010117355
 13
312.5261493611
 23
862.010117355
  0
SOLID
  5
4F8
100
AcDbEntity
  8
0
100
AcDbTrace
 62
5
  6
CONTINUOUS
 10
304.8224456574
 20
860.9730780574
 11
302.3039271388
 21
859.787896263
 12
302.3039271388
 22
861.4175225018
 13
302.3039271388
 23
861.4175225018
  0
SOLID
  5
4F9
100
AcDbEntity
  8
0
100
AcDbTrace
 62
5
  6
CONTINUOUS
 10
302.3039271388
 20
859.787896263
 11
304.8224456574
 21
860.9730780574
 12
304.8224456574
 22
859.787896263
 13
304.8224456574
 23
859.787896263
  0
SOLID
  5
4FA
100
AcDbEntity
  8
0
100
AcDbTrace
 62
5
  6
CONTINUOUS
 10
312.6742975092
 20
859.787896263
 11
312.5261493611
 21
860.9730780574
 12
315.0446678796
 22
861.1212262055
 13
315.0446678796
 23
861.1212262055
  0
SOLID
  5
4FB
100
AcDbEntity
  8
0
100
AcDbTrace
 62
5
  6
CONTINUOUS
 10
312.6742975092
 20
859.787896263
 11
315.0446678796
 21
861.1212262055
 12
315.1928160277
 22
859.787896263
 13
315.1928160277
 23
859.787896263
  0
SOLID
  5
4FC
100
AcDbEntity
  8
0
100
AcDbTrace
 62
5
  6
CONTINUOUS
 10
315.1928160277
 20
859.787896263
 11
312.5261493611
 21
858.6027144687
 12
312.6742975092
 22
859.787896263
 13
312.6742975092
 23
859.787896263
  0
SOLID
  5
4FD
100
AcDbEntity
  8
0
100
AcDbTrace
 62
5
  6
CONTINUOUS
 10
304.8224456574
 20
859.787896263
 11
304.8224456574
 21
858.6027144687
 12
302.3039271388
 22
858.4545595389
 13
302.3039271388
 23
858.4545595389
  0
SOLID
  5
4FE
100
AcDbEntity
  8
0
100
AcDbTrace
 62
5
  6
CONTINUOUS
 10
304.8224456574
 20
859.787896263
 11
302.3039271388
 21
858.4545595389
 12
302.3039271388
 22
859.787896263
 13
302.3039271388
 23
859.787896263
  0
SOLID
  5
4FF
100
AcDbEntity
  8
0
100
AcDbTrace
 62
5
  6
CONTINUOUS
 10
312.5261493611
 20
858.6027144687
 11
315.1928160277
 21
859.787896263
 12
315.0446678796
 22
858.1582632426
 13
315.0446678796
 23
858.1582632426
  0
SOLID
  5
500
100
AcDbEntity
  8
0
100
AcDbTrace
 62
5
  6
CONTINUOUS
 10
302.3039271388
 20
858.4545595389
 11
304.8224456574
 21
858.6027144687
 12
304.8224456574
 22
857.5656751711
 13
304.8224456574
 23
857.5656751711
  0
SOLID
  5
501
100
AcDbEntity
  8
0
100
AcDbTrace
 62
5
  6
CONTINUOUS
 10
315.0446678796
 20
858.1582632426
 11
312.5261493611
 21
857.5656751711
 12
312.5261493611
 22
858.6027144687
 13
312.5261493611
 23
858.6027144687
  0
SOLID
  5
502
100
AcDbEntity
  8
0
100
AcDbTrace
 62
5
  6
CONTINUOUS
 10
304.8224456574
 20
857.5656751711
 11
302.3039271388
 21
857.1212262055
 12
302.3039271388
 22
858.4545595389
 13
302.3039271388
 23
858.4545595389
  0
SOLID
  5
503
100
AcDbEntity
  8
0
100
AcDbTrace
 62
5
  6
CONTINUOUS
 10
312.5261493611
 20
857.5656751711
 11
315.0446678796
 21
858.1582632426
 12
314.8965197314
 22
856.6767817611
 13
314.8965197314
 23
856.6767817611
  0
SOLID
  5
504
100
AcDbEntity
  8
0
100
AcDbTrace
 62
5
  6
CONTINUOUS
 10
302.3039271388
 20
857.1212262055
 11
304.8224456574
 21
857.5656751711
 12
304.9705938055
 22
856.5286358735
 13
304.9705938055
 23
856.5286358735
  0
SOLID
  5
505
100
AcDbEntity
  8
0
100
AcDbTrace
 62
5
  6
CONTINUOUS
 10
314.8965197314
 20
856.6767817611
 11
312.3780012129
 21
856.5286358735
 12
312.5261493611
 22
857.5656751711
 13
312.5261493611
 23
857.5656751711
  0
SOLID
  5
506
100
AcDbEntity
  8
0
100
AcDbTrace
 62
5
  6
CONTINUOUS
 10
304.9705938055
 20
856.5286358735
 11
302.452075287
 21
856.0841891685
 12
302.3039271388
 22
857.1212262055
 13
302.3039271388
 23
857.1212262055
  0
SOLID
  5
507
100
AcDbEntity
  8
0
100
AcDbTrace
 62
5
  6
CONTINUOUS
 10
302.452075287
 20
856.0841891685
 11
304.9705938055
 21
856.5286358735
 12
304.9705938055
 22
855.6397396378
 13
304.9705938055
 23
855.6397396378
  0
SOLID
  5
508
100
AcDbEntity
  8
0
100
AcDbTrace
 62
5
  6
CONTINUOUS
 10
312.3780012129
 20
855.6397396378
 11
312.3780012129
 21
856.5286358735
 12
314.8965197314
 22
856.6767817611
 13
314.8965197314
 23
856.6767817611
  0
SOLID
  5
509
100
AcDbEntity
  8
0
100
AcDbTrace
 62
5
  6
CONTINUOUS
 10
312.3780012129
 20
855.6397396378
 11
314.8965197314
 21
856.6767817611
 12
314.7483715833
 22
855.3434484277
 13
314.7483715833
 23
855.3434484277
  0
SOLID
  5
50A
100
AcDbEntity
  8
0
100
AcDbTrace
 62
5
  6
CONTINUOUS
 10
304.9705938055
 20
855.6397396378
 11
302.7483715833
 21
854.8990056787
 12
302.452075287
 22
856.0841891685
 13
302.452075287
 23
856.0841891685
  0
SOLID
  5
50B
100
AcDbEntity
  8
0
100
AcDbTrace
 62
5
  6
CONTINUOUS
 10
302.7483715833
 20
854.8990056787
 11
304.9705938055
 21
855.6397396378
 12
305.2668901018
 22
854.8990056787
 13
305.2668901018
 23
854.8990056787
  0
SOLID
  5
50C
100
AcDbEntity
  8
0
100
AcDbTrace
 62
5
  6
CONTINUOUS
 10
314.7483715833
 20
855.3434484277
 11
312.2298530648
 21
854.8990056787
 12
312.3780012129
 22
855.6397396378
 13
312.3780012129
 23
855.6397396378
  0
SOLID
  5
50D
100
AcDbEntity
  8
0
100
AcDbTrace
 62
5
  6
CONTINUOUS
 10
311.9335567685
 20
854.3064147816
 11
312.2298530648
 21
854.8990056787
 12
314.7483715833
 22
855.3434484277
 13
314.7483715833
 23
855.3434484277
  0
SOLID
  5
50E
100
AcDbEntity
  8
0
100
AcDbTrace
 62
5
  6
CONTINUOUS
 10
311.9335567685
 20
854.3064147816
 11
314.7483715833
 21
855.3434484277
 12
314.452075287
 22
854.1582632426
 13
314.452075287
 23
854.1582632426
  0
SOLID
  5
50F
100
AcDbEntity
  8
0
100
AcDbTrace
 62
5
  6
CONTINUOUS
 10
305.2668901018
 20
854.8990056787
 11
305.4150382499
 21
854.3064147816
 12
303.0446678796
 22
854.0101150944
 13
303.0446678796
 23
854.0101150944
  0
SOLID
  5
510
100
AcDbEntity
  8
0
100
AcDbTrace
 62
5
  6
CONTINUOUS
 10
305.2668901018
 20
854.8990056787
 11
303.0446678796
 21
854.0101150944
 12
302.7483715833
 22
854.8990056787
 13
302.7483715833
 23
854.8990056787
  0
SOLID
  5
511
100
AcDbEntity
  8
0
100
AcDbTrace
 62
5
  6
CONTINUOUS
 10
303.0446678796
 20
854.0101150944
 11
305.4150382499
 21
854.3064147816
 12
305.5631863981
 22
853.7138238844
 13
305.5631863981
 23
853.7138238844
  0
SOLID
  5
512
100
AcDbEntity
  8
0
100
AcDbTrace
 62
5
  6
CONTINUOUS
 10
314.452075287
 20
854.1582632426
 11
311.7854086203
 21
853.7138238844
 12
311.9335567685
 22
854.3064147816
 13
311.9335567685
 23
854.3064147816
  0
SOLID
  5
513
100
AcDbEntity
  8
0
100
AcDbTrace
 62
5
  6
CONTINUOUS
 10
305.5631863981
 20
853.7138238844
 11
305.8594826944
 21
853.269375484
 12
303.3409641759
 22
853.1212329872
 13
303.3409641759
 23
853.1212329872
  0
SOLID
  5
514
100
AcDbEntity
  8
0
100
AcDbTrace
 62
5
  6
CONTINUOUS
 10
305.5631863981
 20
853.7138238844
 11
303.3409641759
 21
853.1212329872
 12
303.0446678796
 22
854.0101150944
 13
303.0446678796
 23
854.0101150944
  0
SOLID
  5
515
100
AcDbEntity
  8
0
100
AcDbTrace
 62
5
  6
CONTINUOUS
 10
311.489112324
 20
853.269375484
 11
311.7854086203
 21
853.7138238844
 12
314.452075287
 22
854.1582632426
 13
314.452075287
 23
854.1582632426
  0
SOLID
  5
516
100
AcDbEntity
  8
0
100
AcDbTrace
 62
5
  6
CONTINUOUS
 10
311.489112324
 20
853.269375484
 11
314.452075287
 21
854.1582632426
 12
314.0076308425
 22
853.1212329872
 13
314.0076308425
 23
853.1212329872
  0
SOLID
  5
517
100
AcDbEntity
  8
0
100
AcDbTrace
 62
5
  6
CONTINUOUS
 10
314.0076308425
 20
853.1212329872
 11
310.8965197314
 21
852.6767817611
 12
311.489112324
 22
853.269375484
 13
311.489112324
 23
853.269375484
  0
SOLID
  5
518
100
AcDbEntity
  8
0
100
AcDbTrace
 62
5
  6
CONTINUOUS
 10
303.3409641759
 20
853.1212329872
 11
305.8594826944
 21
853.269375484
 12
306.452075287
 22
852.5286336129
 13
306.452075287
 23
852.5286336129
  0
SOLID
  5
519
100
AcDbEntity
  8
0
100
AcDbTrace
 62
5
  6
CONTINUOUS
 10
306.452075287
 20
852.5286336129
 11
303.7854086203
 21
852.3804854648
 12
303.3409641759
 22
853.1212329872
 13
303.3409641759
 23
853.1212329872
  0
SOLID
  5
51A
100
AcDbEntity
  8
0
100
AcDbTrace
 62
5
  6
CONTINUOUS
 10
310.8965197314
 20
852.6767817611
 11
314.0076308425
 21
853.1212329872
 12
313.5631863981
 22
852.2323373166
 13
313.5631863981
 23
852.2323373166
  0
SOLID
  5
51B
100
AcDbEntity
  8
0
100
AcDbTrace
 62
5
  6
CONTINUOUS
 10
303.7854086203
 20
852.3804854648
 11
306.452075287
 21
852.5286336129
 12
307.1928160277
 22
852.0841935483
 13
307.1928160277
 23
852.0841935483
  0
SOLID
  5
51C
100
AcDbEntity
  8
0
100
AcDbTrace
 62
5
  6
CONTINUOUS
 10
313.5631863981
 20
852.2323373166
 11
310.1557789907
 21
852.0841935483
 12
310.8965197314
 22
852.6767817611
 13
310.8965197314
 23
852.6767817611
  0
SOLID
  5
51D
100
AcDbEntity
  8
0
100
AcDbTrace
 62
5
  6
CONTINUOUS
 10
308.6742975092
 20
851.7878879272
 11
309.4150382499
 21
851.7878879272
 12
304.2298530648
 22
851.639744724
 13
304.2298530648
 23
851.639744724
  0
SOLID
  5
51E
100
AcDbEntity
  8
0
100
AcDbTrace
 62
5
  6
CONTINUOUS
 10
307.9335567685
 20
851.7878879272
 11
308.6742975092
 21
851.7878879272
 12
304.2298530648
 22
851.639744724
 13
304.2298530648
 23
851.639744724
  0
SOLID
  5
51F
100
AcDbEntity
  8
0
100
AcDbTrace
 62
5
  6
CONTINUOUS
 10
307.1928160277
 20
852.0841935483
 11
307.9335567685
 21
851.7878879272
 12
304.2298530648
 22
851.639744724
 13
304.2298530648
 23
851.639744724
  0
SOLID
  5
520
100
AcDbEntity
  8
0
100
AcDbTrace
 62
5
  6
CONTINUOUS
 10
307.1928160277
 20
852.0841935483
 11
304.2298530648
 21
851.639744724
 12
303.7854086203
 22
852.3804854648
 13
303.7854086203
 23
852.3804854648
  0
SOLID
  5
521
100
AcDbEntity
  8
0
100
AcDbTrace
 62
5
  6
CONTINUOUS
 10
309.4150382499
 20
851.7878879272
 11
310.1557789907
 21
852.0841935483
 12
313.5631863981
 22
852.2323373166
 13
313.5631863981
 23
852.2323373166
  0
SOLID
  5
522
100
AcDbEntity
  8
0
100
AcDbTrace
 62
5
  6
CONTINUOUS
 10
312.9705938055
 20
851.3434484277
 11
304.2298530648
 21
851.639744724
 12
309.4150382499
 22
851.7878879272
 13
309.4150382499
 23
851.7878879272
  0
SOLID
  5
523
100
AcDbEntity
  8
0
100
AcDbTrace
 62
5
  6
CONTINUOUS
 10
309.4150382499
 20
851.7878879272
 11
313.5631863981
 21
852.2323373166
 12
312.9705938055
 22
851.3434484277
 13
312.9705938055
 23
851.3434484277
  0
SOLID
  5
524
100
AcDbEntity
  8
0
100
AcDbTrace
 62
5
  6
CONTINUOUS
 10
312.9705938055
 20
851.3434484277
 11
304.6742975092
 21
851.1953002796
 12
304.2298530648
 22
851.639744724
 13
304.2298530648
 23
851.639744724
  0
SOLID
  5
525
100
AcDbEntity
  8
0
100
AcDbTrace
 62
5
  6
CONTINUOUS
 10
305.1187419536
 20
850.7508487003
 11
304.6742975092
 21
851.1953002796
 12
312.9705938055
 22
851.3434484277
 13
312.9705938055
 23
851.3434484277
  0
SOLID
  5
526
100
AcDbEntity
  8
0
100
AcDbTrace
 62
5
  6
CONTINUOUS
 10
305.1187419536
 20
850.7508487003
 11
312.9705938055
 21
851.3434484277
 12
312.2298530648
 22
850.7508487003
 13
312.2298530648
 23
850.7508487003
  0
SOLID
  5
527
100
AcDbEntity
  8
0
100
AcDbTrace
 62
5
  6
CONTINUOUS
 10
312.2298530648
 20
850.7508487003
 11
305.5631863981
 21
850.4545595389
 12
305.1187419536
 22
850.7508487003
 13
305.1187419536
 23
850.7508487003
  0
SOLID
  5
528
100
AcDbEntity
  8
0
100
AcDbTrace
 62
5
  6
CONTINUOUS
 10
305.5631863981
 20
850.4545595389
 11
312.2298530648
 21
850.7508487003
 12
311.489112324
 22
850.3064113907
 13
311.489112324
 23
850.3064113907
  0
SOLID
  5
529
100
AcDbEntity
  8
0
100
AcDbTrace
 62
5
  6
CONTINUOUS
 10
311.489112324
 20
850.3064113907
 11
306.1557789907
 21
850.1582632426
 12
305.5631863981
 22
850.4545595389
 13
305.5631863981
 23
850.4545595389
  0
SOLID
  5
52A
100
AcDbEntity
  8
0
100
AcDbTrace
 62
5
  6
CONTINUOUS
 10
306.7483715833
 20
850.0101150944
 11
306.1557789907
 21
850.1582632426
 12
311.489112324
 22
850.3064113907
 13
311.489112324
 23
850.3064113907
  0
SOLID
  5
52B
100
AcDbEntity
  8
0
100
AcDbTrace
 62
5
  6
CONTINUOUS
 10
306.7483715833
 20
850.0101150944
 11
311.489112324
 21
850.3064113907
 12
310.6002234351
 22
850.0101150944
 13
310.6002234351
 23
850.0101150944
  0
SOLID
  5
52C
100
AcDbEntity
  8
0
100
AcDbTrace
 62
5
  6
CONTINUOUS
 10
310.6002234351
 20
850.0101150944
 11
307.3409641759
 21
849.8619724299
 12
306.7483715833
 22
850.0101150944
 13
306.7483715833
 23
850.0101150944
  0
SOLID
  5
52D
100
AcDbEntity
  8
0
100
AcDbTrace
 62
5
  6
CONTINUOUS
 10
307.9335567685
 20
849.8619724299
 11
307.3409641759
 21
849.8619724299
 12
310.6002234351
 22
850.0101150944
 13
310.6002234351
 23
850.0101150944
  0
SOLID
  5
52E
100
AcDbEntity
  8
0
100
AcDbTrace
 62
5
  6
CONTINUOUS
 10
307.9335567685
 20
849.8619724299
 11
310.6002234351
 21
850.0101150944
 12
309.7113345462
 22
849.8619724299
 13
309.7113345462
 23
849.8619724299
  0
SOLID
  5
52F
100
AcDbEntity
  8
0
100
AcDbTrace
 62
5
  6
CONTINUOUS
 10
309.7113345462
 20
849.8619724299
 11
308.6742975092
 21
849.7138187981
 12
307.9335567685
 22
849.8619724299
 13
307.9335567685
 23
849.8619724299
  0
LINE
  5
530
100
AcDbEntity
  8
0
100
AcDbLine
 62
7
  6
CONTINUOUS
 10
0.0
 20
0.0
 11
500.0
 21
0.0
  0
LINE
  5
531
100
AcDbEntity
  8
0
100
AcDbLine
 62
7
  6
CONTINUOUS
 10
91.1572665399
 20
160.5790309598
 11
400.1572665399
 21
160.5790309598
  0
LINE
  5
532
100
AcDbEntity
  8
0
100
AcDbLine
 62
7
  6
CONTINUOUS
 10
0.0
 20
0.0
 11
0.0
 21
1000.0
  0
LINE
  5
533
100
AcDbEntity
  8
0
100
AcDbLine
 62
7
  6
CONTINUOUS
 10
500.0
 20
0.0
 11
500.0
 21
1000.0
  0
LINE
  5
534
100
AcDbEntity
  8
0
100
AcDbLine
 62
7
  6
CONTINUOUS
 10
0.0
 20
1000.0
 11
500.0
 21
1000.0
  0
LINE
  5
535
100
AcDbEntity
  8
0
100
AcDbLine
 62
7
  6
CONTINUOUS
 10
428.1572665399
 20
255.3766770225
 11
78.1572665399
 21
255.3766770225
  0
LWPOLYLINE
  5
536
100
AcDbEntity
  8
DIMENSIONS
100
AcDbPolyline
 62
5
  6
CONTINUOUS
 90
5
 70
0
 10
237.0143952546
 20
970.1727430556
 10
237.3120298032
 20
970.3512731481
 10
237.3120298032
 20
970.8870081019
 10
237.0143952546
 20
971.244140625
 10
236.3001302083
 20
971.244140625
  0
LINE
  5
537
100
AcDbEntity
  8
0
100
AcDbLine
 62
7
  6
CONTINUOUS
 10
409.1572665399
 20
271.3766770225
 11
78.1572665399
 21
271.3766770225
  0
LINE
  5
538
100
AcDbEntity
  8
0
100
AcDbLine
 62
2
  6
CONTINUOUS
 10
161.2072665399
 20
939.3766770225
 11
177.2072665399
 21
955.3766770225
  0
LWPOLYLINE
  5
539
100
AcDbEntity
  8
0
100
AcDbPolyline
 62
7
  6
CONTINUOUS
 90
3
 70
0
 43
0.5
 10
51.2514829282
 20
892.7267071759
 10
52.2514829282
 20
896.2267071759
 10
53.2514829282
 20
892.7267071759
  0
LINE
  5
53A
100
AcDbEntity
  8
0
100
AcDbLine
 62
2
  6
CONTINUOUS
 10
104.2072665399
 20
763.3766770225
 11
123.2072665399
 21
782.3766770225
  0
LINE
  5
53B
100
AcDbEntity
  8
0
100
AcDbLine
 62
2
  6
CONTINUOUS
 10
280.2072665399
 20
939.3766770225
 11
296.2072665399
 21
955.3766770225
  0
LWPOLYLINE
  5
53C
100
AcDbEntity
  8
DIMENSIONS
100
AcDbPolyline
 62
5
  6
CONTINUOUS
 90
3
 70
0
 10
66.9965639468
 20
861.2516637731
 10
66.9965639468
 20
860.0016637731
 10
65.0322627315
 20
860.5373987269
  0
LWPOLYLINE
  5
53D
100
AcDbEntity
  8
DIMENSIONS
100
AcDbPolyline
 62
5
  6
CONTINUOUS
 90
8
 70
0
 10
67.5322627315
 20
858.2159288194
 10
67.5322627315
 20
858.9302662037
 10
67.1751302083
 20
859.2873987269
 10
66.4608289931
 20
859.2873987269
 10
66.1036964699
 20
858.9302662037
 10
66.1036964699
 20
858.2159288194
 10
65.0322627315
 20
858.2159288194
 10
65.0322627315
 20
859.2873987269
  0
LINE
  5
53E
100
AcDbEntity
  8
0
100
AcDbLine
 62
7
  6
CONTINUOUS
 10
78.1572665399
 20
255.3766770225
 11
78.1572665399
 21
271.3766770225
  0
LINE
  5
53F
100
AcDbEntity
  8
ACHSEN
100
AcDbLine
 62
7
  6
CONTINUOUS
 10
78.1572665399
 20
271.3766770225
 11
78.1572665399
 21
782.3766770225
  0
LINE
  5
540
100
AcDbEntity
  8
0
100
AcDbLine
 62
7
  6
CONTINUOUS
 10
78.1572665399
 20
782.3766770225
 11
78.1572665399
 21
936.3766770225
  0
LINE
  5
541
100
AcDbEntity
  8
ACHSEN
100
AcDbLine
 62
7
  6
CONTINUOUS
 10
78.1572665399
 20
936.3766770225
 11
78.1572665399
 21
939.3766770225
  0
LINE
  5
542
100
AcDbEntity
  8
0
100
AcDbLine
 62
7
  6
CONTINUOUS
 10
78.1572665399
 20
939.3766770225
 11
78.1572665399
 21
955.3766770225
  0
LINE
  5
543
100
AcDbEntity
  8
0
100
AcDbLine
 62
7
  6
CONTINUOUS
 10
91.1572665399
 20
763.3766770225
 11
91.1572665399
 21
782.3766770225
  0
LINE
  5
544
100
AcDbEntity
  8
0
100
AcDbLine
 62
2
  6
CONTINUOUS
 10
223.2072665399
 20
763.3766770225
 11
242.2072665399
 21
782.3766770225
  0
LINE
  5
545
100
AcDbEntity
  8
0
100
AcDbLine
 62
2
  6
CONTINUOUS
 10
399.2072665399
 20
939.3766770225
 11
415.2072665399
 21
955.3766770225
  0
LINE
  5
546
100
AcDbEntity
  8
0
100
AcDbLine
 62
2
  6
CONTINUOUS
 10
342.2072665399
 20
763.3766770225
 11
361.2072665399
 21
782.3766770225
  0
LINE
  5
547
100
AcDbEntity
  8
0
100
AcDbLine
 62
2
  6
CONTINUOUS
 10
409.1572665399
 20
711.3266770225
 11
428.1572665399
 21
730.3266770225
  0
LWPOLYLINE
  5
548
100
AcDbEntity
  8
DIMENSIONS
100
AcDbPolyline
 62
5
  6
CONTINUOUS
 90
3
 70
0
 10
65.7465639468
 20
856.7873987269
 10
65.0322627315
 20
857.5016637731
 10
67.5322627315
 20
857.5016637731
  0
LWPOLYLINE
  5
549
100
AcDbEntity
  8
DIMENSIONS
100
AcDbPolyline
 62
5
  6
CONTINUOUS
 90
3
 70
0
 10
65.7465639468
 20
944.1802662037
 10
65.0322627315
 20
944.89453125
 10
67.5322627315
 20
944.89453125
  0
LWPOLYLINE
  5
54A
100
AcDbEntity
  8
0
100
AcDbPolyline
 62
7
  6
CONTINUOUS
 90
3
 70
0
 43
0.5
 10
452.0630063657
 20
892.7267071759
 10
453.0630063657
 20
896.2267071759
 10
454.0630063657
 20
892.7267071759
  0
LINE
  5
54B
100
AcDbEntity
  8
0
100
AcDbLine
 62
2
  6
CONTINUOUS
 10
78.1572665399
 20
261.3266770225
 11
88.2072665399
 21
271.3766770225
  0
LINE
  5
54C
100
AcDbEntity
  8
0
100
AcDbLine
 62
2
  6
CONTINUOUS
 10
409.1572665399
 20
592.3266770225
 11
428.1572665399
 21
611.3266770225
  0
LWPOLYLINE
  5
54D
100
AcDbEntity
  8
DIMENSIONS
100
AcDbPolyline
 62
5
  6
CONTINUOUS
 90
10
 70
0
 10
67.5322627315
 20
945.9659288194
 10
66.8179976852
 20
946.6802662037
 10
66.1036964699
 20
946.8587962963
 10
65.3893952546
 20
946.8587962963
 10
65.0322627315
 20
946.5016637731
 10
65.0322627315
 20
945.9659288194
 10
65.3893952546
 20
945.6087962963
 10
66.1036964699
 20
945.6087962963
 10
66.4608289931
 20
945.9659288194
 10
66.4608289931
 20
946.7398003472
  0
LINE
  5
54E
100
AcDbEntity
  8
ACHSEN
100
AcDbLine
 62
7
  6
CONTINUOUS
 10
400.1572665399
 20
812.3766770225
 11
400.1572665399
 21
906.3766770225
  0
LINE
  5
54F
100
AcDbEntity
  8
0
100
AcDbLine
 62
7
  6
CONTINUOUS
 10
409.1572665399
 20
271.3766770225
 11
409.1572665399
 21
763.3766770225
  0
LINE
  5
550
100
AcDbEntity
  8
0
100
AcDbLine
 62
7
  6
CONTINUOUS
 10
409.1572665399
 20
763.3766770225
 11
91.1572665399
 21
763.3766770225
  0
LINE
  5
551
100
AcDbEntity
  8
0
100
AcDbLine
 62
7
  6
CONTINUOUS
 10
428.1572665399
 20
255.3766770225
 11
428.1572665399
 21
782.3766770225
  0
LINE
  5
552
100
AcDbEntity
  8
KOERPER
100
AcDbLine
 62
7
  6
CONTINUOUS
 10
428.1572665399
 20
782.3766770225
 11
428.1572665399
 21
939.3766770225
  0
LINE
  5
553
100
AcDbEntity
  8
0
100
AcDbLine
 62
7
  6
CONTINUOUS
 10
428.1572665399
 20
939.3766770225
 11
428.1572665399
 21
955.3766770225
  0
LINE
  5
554
100
AcDbEntity
  8
0
100
AcDbLine
 62
7
  6
CONTINUOUS
 10
428.1572665399
 20
782.3766770225
 11
91.1572665399
 21
782.3766770225
  0
LINE
  5
555
100
AcDbEntity
  8
ACHSEN
100
AcDbLine
 62
7
  6
CONTINUOUS
 10
78.1572665399
 20
782.3766770225
 11
91.1572665399
 21
782.3766770225
  0
LINE
  5
556
100
AcDbEntity
  8
0
100
AcDbLine
 62
2
  6
CONTINUOUS
 10
191.2072665399
 20
255.3766770225
 11
207.2072665399
 21
271.3766770225
  0
LINE
  5
557
100
AcDbEntity
  8
0
100
AcDbLine
 62
2
  6
CONTINUOUS
 10
409.1572665399
 20
473.3266770225
 11
428.1572665399
 21
492.3266770225
  0
LINE
  5
558
100
AcDbEntity
  8
DIMENSIONS
100
AcDbLine
 62
5
  6
CONTINUOUS
 10
67.5322627315
 20
860.8349971065
 11
66.2822627315
 21
860.8349971065
  0
LINE
  5
559
100
AcDbEntity
  8
0
100
AcDbLine
 62
2
  6
CONTINUOUS
 10
310.2072665399
 20
255.3766770225
 11
326.2072665399
 21
271.3766770225
  0
LINE
  5
55A
100
AcDbEntity
  8
0
100
AcDbLine
 62
2
  6
CONTINUOUS
 10
409.1572665399
 20
354.3266770225
 11
428.1572665399
 21
373.3266770225
  0
LINE
  5
55B
100
AcDbEntity
  8
DEFAULT_1
100
AcDbLine
 62
7
  6
CENTER
 10
450.6880372707
 20
880.3766770225
 11
446.6880372707
 21
880.3766770225
  0
LINE
  5
55C
100
AcDbEntity
  8
DEFAULT_1
100
AcDbLine
 62
9
  6
CENTER
 10
446.6880372707
 20
880.3766770225
 11
59.6264958091
 21
880.3766770225
  0
LINE
  5
55D
100
AcDbEntity
  8
DEFAULT_1
100
AcDbLine
 62
7
  6
CENTER
 10
59.6264958091
 20
880.3766770225
 11
55.6264958091
 21
880.3766770225
  0
LWPOLYLINE
  5
55E
100
AcDbEntity
  8
0
100
AcDbPolyline
 62
7
  6
CONTINUOUS
 90
2
 70
0
 43
0.5
 10
51.5848162616
 20
893.7267071759
 10
52.9181495949
 20
893.7267071759
  0
LWPOLYLINE
  5
55F
100
AcDbEntity
  8
0
100
AcDbPolyline
 62
7
  6
CONTINUOUS
 90
2
 70
0
 43
0.5
 10
452.3963396991
 20
893.7267071759
 10
453.7296730324
 20
893.7267071759
  0
LINE
  5
560
100
AcDbEntity
  8
ACHSEN
100
AcDbLine
 62
7
  6
CONTINUOUS
 10
78.1572665399
 20
936.3766770225
 11
400.1572665399
 21
936.3766770225
  0
LINE
  5
561
100
AcDbEntity
  8
0
100
AcDbLine
 62
7
  6
CONTINUOUS
 10
428.1572665399
 20
939.3766770225
 11
78.1572665399
 21
939.3766770225
  0
LINE
  5
562
100
AcDbEntity
  8
0
100
AcDbLine
 62
7
  6
CONTINUOUS
 10
428.1572665399
 20
955.3766770225
 11
78.1572665399
 21
955.3766770225
  0
LWPOLYLINE
  5
563
100
AcDbEntity
  8
DIMENSIONS
100
AcDbPolyline
 62
5
  6
CONTINUOUS
 90
7
 70
0
 10
241.3001302083
 20
968.744140625
 10
240.0501302083
 20
968.744140625
 10
241.3001302083
 20
970.5298755787
 10
241.3001302083
 20
970.8870081019
 10
240.9429976852
 20
971.244140625
 10
240.4072627315
 20
971.244140625
 10
240.0501302083
 20
970.7084056713
  0
LWPOLYLINE
  5
564
100
AcDbEntity
  8
DIMENSIONS
100
AcDbPolyline
 62
5
  6
CONTINUOUS
 90
7
 70
0
 10
239.3358289931
 20
968.744140625
 10
238.0858289931
 20
968.744140625
 10
239.3358289931
 20
970.5298755787
 10
239.3358289931
 20
970.8870081019
 10
238.9786964699
 20
971.244140625
 10
238.4429976852
 20
971.244140625
 10
238.0858289931
 20
970.7084056713
  0
LWPOLYLINE
  5
565
100
AcDbEntity
  8
DIMENSIONS
100
AcDbPolyline
 62
5
  6
CONTINUOUS
 90
6
 70
0
 10
236.3001302083
 20
968.744140625
 10
237.1929976852
 20
968.744140625
 10
237.3715639468
 20
968.9227430556
 10
237.3715639468
 20
969.8155381944
 10
237.0143952546
 20
970.1727430556
 10
236.6572627315
 20
970.1727430556
  0
LWPOLYLINE
  5
566
100
AcDbEntity
  8
DIMENSIONS
100
AcDbPolyline
 62
5
  6
CONTINUOUS
 90
8
 70
0
 10
55.6226490162
 20
173.1861798322
 10
55.6226490162
 20
173.900462963
 10
55.2655164931
 20
174.2575954861
 10
54.5512152778
 20
174.2575954861
 10
54.1940827546
 20
173.900462963
 10
54.1940827546
 20
173.1861798322
 10
53.1226490162
 20
173.1861798322
 10
53.1226490162
 20
174.2575954861
  0
LWPOLYLINE
  5
567
100
AcDbEntity
  8
DIMENSIONS
100
AcDbPolyline
 62
5
  6
CONTINUOUS
 90
3
 70
0
 10
60.0422092014
 20
162.4897099248
 10
60.0422092014
 20
161.2397099248
 10
58.0779079861
 20
161.775426794
  0
LINE
  5
568
100
AcDbEntity
  8
0
100
AcDbLine
 62
7
  6
CONTINUOUS
 10
78.1572665399
 20
174.5790309598
 11
78.1572665399
 21
171.5790309598
  0
LINE
  5
569
100
AcDbEntity
  8
ACHSEN
100
AcDbLine
 62
7
  6
CONTINUOUS
 10
78.1572665399
 20
167.5790309598
 11
78.1572665399
 21
160.5790309598
  0
LINE
  5
56A
100
AcDbEntity
  8
KOERPER
100
AcDbLine
 62
7
  6
CONTINUOUS
 10
78.1572665399
 20
101.0668589835
 11
78.1572665399
 21
160.5790309598
  0
LWPOLYLINE
  5
56B
100
AcDbEntity
  8
DIMENSIONS
100
AcDbPolyline
 62
5
  6
CONTINUOUS
 90
4
 70
0
 10
81.1751302083
 20
188.191478588
 10
81.1751302083
 20
188.9057617188
 10
81.5322627315
 20
189.2628942419
 10
82.0679976852
 20
189.2628942419
  0
LINE
  5
56C
100
AcDbEntity
  8
ACHSEN
100
AcDbLine
 62
7
  6
CONTINUOUS
 10
86.1572665399
 20
171.5790309598
 11
86.1572665399
 21
167.5790309598
  0
LINE
  5
56D
100
AcDbEntity
  8
ACHSEN
100
AcDbLine
 62
7
  6
CONTINUOUS
 10
91.1572665399
 20
100.5906750389
 11
91.1572665399
 21
160.5790309598
  0
LINE
  5
56E
100
AcDbEntity
  8
0
100
AcDbLine
 62
2
  6
CONTINUOUS
 10
147.183018044
 20
171.5790309598
 11
152.183018044
 21
176.5790309598
  0
LINE
  5
56F
100
AcDbEntity
  8
0
100
AcDbLine
 62
2
  6
CONTINUOUS
 10
384.7307810969
 20
83.7415150185
 11
414.1877565008
 21
90.0271462146
  0
LINE
  5
570
100
AcDbEntity
  8
0
100
AcDbLine
 62
2
  6
CONTINUOUS
 10
220.2599411209
 20
171.5790309598
 11
225.2599411209
 21
176.5790309598
  0
LWPOLYLINE
  5
571
100
AcDbEntity
  8
0
100
AcDbPolyline
 62
5
  6
CONTINUOUS
 90
2
 70
0
 43
0.5
 10
253.4905960648
 20
79.9815176505
 10
254.8239293981
 20
79.9815176505
  0
LWPOLYLINE
  5
572
100
AcDbEntity
  8
0
100
AcDbPolyline
 62
5
  6
CONTINUOUS
 90
2
 70
0
 43
0.5
 10
258.9905960648
 20
79.9815176505
 10
260.3239293981
 20
79.9815176505
  0
LWPOLYLINE
  5
573
100
AcDbEntity
  8
0
100
AcDbPolyline
 62
5
  6
CONTINUOUS
 90
2
 70
0
 43
0.5
 10
256.1572627315
 20
80.2315176505
 10
257.6572627315
 20
80.2315176505
  0
LINE
  5
574
100
AcDbEntity
  8
0
100
AcDbLine
 62
2
  6
CONTINUOUS
 10
139.10061764
 20
99.5358621408
 11
157.9250714849
 21
96.4976418692
  0
LINE
  5
575
100
AcDbEntity
  8
0
100
AcDbLine
 62
2
  6
CONTINUOUS
 10
157.9250714849
 20
96.4976418692
 11
176.4401711145
 21
93.2750640478
  0
LWPOLYLINE
  5
576
100
AcDbEntity
  8
DIMENSIONS
100
AcDbPolyline
 62
5
  6
CONTINUOUS
 90
13
 70
0
 10
81.5322627315
 20
189.2628942419
 10
81.2941623264
 20
189.441478588
 10
81.2941623264
 20
189.9771954572
 10
81.5322627315
 20
190.3343279803
 10
82.0679976852
 20
190.3343279803
 10
82.3060619213
 20
189.9771954572
 10
82.3060619213
 20
189.441478588
 10
82.0679976852
 20
189.2628942419
 10
82.4251302083
 20
188.9057617188
 10
82.4251302083
 20
188.191478588
 10
82.0679976852
 20
187.8343279803
 10
81.5322627315
 20
187.8343279803
 10
81.1751302083
 20
188.191478588
  0
LINE
  5
577
100
AcDbEntity
  8
0
100
AcDbLine
 62
2
  6
CONTINUOUS
 10
356.4533389545
 20
83.7829178135
 11
384.7307810969
 21
83.7415150185
  0
LINE
  5
578
100
AcDbEntity
  8
0
100
AcDbLine
 62
2
  6
CONTINUOUS
 10
226.5387379616
 20
88.9029161802
 11
277.7260453794
 21
87.9981023606
  0
LINE
  5
579
100
AcDbEntity
  8
0
100
AcDbLine
 62
2
  6
CONTINUOUS
 10
78.1572665399
 20
101.0668589835
 11
94.9430019526
 21
100.4520053142
  0
LINE
  5
57A
100
AcDbEntity
  8
0
100
AcDbLine
 62
2
  6
CONTINUOUS
 10
277.7260453794
 20
87.9981023606
 11
328.4427257057
 21
86.1296448149
  0
LINE
  5
57B
100
AcDbEntity
  8
0
100
AcDbLine
 62
2
  6
CONTINUOUS
 10
119.2768172511
 20
101.0700668473
 11
139.10061764
 21
99.5358621408
  0
LINE
  5
57C
100
AcDbEntity
  8
0
100
AcDbLine
 62
2
  6
CONTINUOUS
 10
328.4427257057
 20
86.1296448149
 11
356.4533389545
 21
83.7829178135
  0
LINE
  5
57D
100
AcDbEntity
  8
0
100
AcDbLine
 62
2
  6
CONTINUOUS
 10
176.4401711145
 20
93.2750640478
 11
226.5387379616
 21
88.9029161802
  0
LINE
  5
57E
100
AcDbEntity
  8
0
100
AcDbLine
 62
2
  6
CONTINUOUS
 10
94.9430019526
 20
100.4520053142
 11
119.2768172511
 21
101.0700668473
  0
LINE
  5
57F
100
AcDbEntity
  8
0
100
AcDbLine
 62
2
  6
CONTINUOUS
 10
293.3368641978
 20
171.5790309598
 11
298.3368641978
 21
176.5790309598
  0
LWPOLYLINE
  5
580
100
AcDbEntity
  8
0
100
AcDbPolyline
 62
5
  6
CONTINUOUS
 90
3
 70
0
 43
0.5
 10
253.1572627315
 20
78.9815176505
 10
254.1572627315
 20
82.4815176505
 10
255.1572627315
 20
78.9815176505
  0
LWPOLYLINE
  5
581
100
AcDbEntity
  8
0
100
AcDbPolyline
 62
5
  6
CONTINUOUS
 90
3
 70
0
 43
0.5
 10
258.6572627315
 20
78.9815176505
 10
259.6572627315
 20
82.4815176505
 10
260.6572627315
 20
78.9815176505
  0
LINE
  5
582
100
AcDbEntity
  8
0
100
AcDbLine
 62
7
  6
CONTINUOUS
 10
428.1572665399
 20
160.5790309598
 11
400.1572665399
 21
160.5790309598
  0
LINE
  5
583
100
AcDbEntity
  8
ACHSEN
100
AcDbLine
 62
7
  6
CONTINUOUS
 10
78.1572665399
 20
160.5790309598
 11
91.1572665399
 21
160.5790309598
  0
LINE
  5
584
100
AcDbEntity
  8
DIMENSIONS
100
AcDbLine
 62
5
  6
CONTINUOUS
 10
60.5779079861
 20
162.0730432581
 11
59.3279079861
 21
162.0730432581
  0
LINE
  5
585
100
AcDbEntity
  8
ACHSEN
100
AcDbLine
 62
7
  6
CONTINUOUS
 10
86.1572665399
 20
167.5790309598
 11
78.1572665399
 21
167.5790309598
  0
LINE
  5
586
100
AcDbEntity
  8
0
100
AcDbLine
 62
7
  6
CONTINUOUS
 10
400.1572665399
 20
171.5790309598
 11
78.1572665399
 21
171.5790309598
  0
LINE
  5
587
100
AcDbEntity
  8
0
100
AcDbLine
 62
7
  6
CONTINUOUS
 10
428.1572665399
 20
176.5790309598
 11
80.1572665399
 21
176.5790309598
  0
LINE
  5
588
100
AcDbEntity
  8
0
100
AcDbLine
 62
2
  6
CONTINUOUS
 10
366.4137872747
 20
171.5790309598
 11
371.4137872747
 21
176.5790309598
  0
LINE
  5
589
100
AcDbEntity
  8
0
100
AcDbLine
 62
2
  6
CONTINUOUS
 10
414.1877565008
 20
90.0271462146
 11
428.1572665399
 21
97.8521351812
  0
LINE
  5
58A
100
AcDbEntity
  8
0
100
AcDbLine
 62
7
  6
CONTINUOUS
 10
400.1572665399
 20
171.5790309598
 11
400.1572665399
 21
160.5790309598
  0
LINE
  5
58B
100
AcDbEntity
  8
0
100
AcDbLine
 62
7
  6
CONTINUOUS
 10
428.1572665399
 20
176.5790309598
 11
428.1572665399
 21
160.5790309598
  0
LINE
  5
58C
100
AcDbEntity
  8
KOERPER
100
AcDbLine
 62
7
  6
CONTINUOUS
 10
428.1572665399
 20
97.8521351812
 11
428.1572665399
 21
160.5790309598
  0
ARC
  5
58D
100
AcDbEntity
  8
ACHSEN
100
AcDbCircle
 62
7
  6
CONTINUOUS
 10
400.1572665399
 20
921.3766770225
 40
15.0
100
AcDbArc
 50
270.0
 51
90.0
  0
ARC
  5
58E
100
AcDbEntity
  8
ACHSEN
100
AcDbCircle
 62
7
  6
CONTINUOUS
 10
400.1572665399
 20
797.3766770225
 40
15.0
100
AcDbArc
 50
270.0
 51
90.0
  0
ARC
  5
58F
100
AcDbEntity
  8
0
100
AcDbCircle
 62
7
  6
CONTINUOUS
 10
80.1572665399
 20
174.5790309598
 40
2.0
100
AcDbArc
 50
90.0
 51
180.0
  0
ENDSEC
  0
SECTION
  2
OBJECTS
  0
DICTIONARY
  5
C
100
AcDbDictionary
280
0
281
1
  3
ACAD_GROUP
350
D
  3
ACAD_MLINESTYLE
350
17
  3
ACAD_LAYOUT
350
1A
  3
ACAD_PLOTSETTINGS
350
19
  3
ACAD_PLOTSTYLENAME
350
E
  0
DICTIONARY
  5
D
102
{ACAD_REACTORS
330
C
102
}
100
AcDbDictionary
280
0
281
1
  0
ACDBDICTIONARYWDFLT
  5
E
102
{ACAD_REACTORS
330
C
102
}
100
AcDbDictionary
281
1
  3
Normal
350
F
100
AcDbDictionaryWithDefault
340
F
  0
DICTIONARY
  5
17
102
{ACAD_REACTORS
330
C
102
}
100
AcDbDictionary
280
0
281
1
  3
Standard
350
18
  0
DICTIONARY
  5
19
102
{ACAD_REACTORS
330
C
102
}
100
AcDbDictionary
281
1
  0
DICTIONARY
  5
1A
102
{ACAD_REACTORS
330
C
102
}
100
AcDbDictionary
281
1
  3
Layout1
350
1E
  3
Model
350
22
  0
ACDBPLACEHOLDER
  5
F
102
{ACAD_REACTORS
330
E
102
}
  0
MLINESTYLE
  5
18
102
{ACAD_REACTORS
330
17
102
}
100
AcDbMlineStyle
  2
STANDARD
 70
0
  3

 62
256
 51
90.0
 52
90.0
 71
2
 49
0.5
 62
256
  6
BYLAYER
 49
-0.5
 62
256
  6
BYLAYER
  0
LAYOUT
  5
1E
102
{ACAD_REACTORS
330
1A
102
}
100
AcDbPlotSettings
  1

  2

  4

  6

 40
0.0
 41
0.0
 42
0.0
 43
0.0
 44
0.0
 45
0.0
 46
0.0
 47
0.0
 48
0.0
 49
0.0
140
0.0
141
0.0
142
1.0
143
1.0
 70
0
 72
0
 73
0
 74
0
  7

 75
0
147
1.0
148
0.0
149
0.0
100
AcDbLayout
  1
Layout1
 70
0
 71
0
 10
0.0
 20
0.0
 11
0.0
 21
0.0
 12
0.0
 22
0.0
 32
0.0
 14
0.0
 24
0.0
 34
0.0
 15
0.0
 25
0.0
 35
0.0
146
0.0
 13
0.0
 23
0.0
 33
0.0
 16
0.0
 26
0.0
 36
0.0
 17
0.0
 27
0.0
 37
0.0
 76
0
330
1B
331
0
345
0
346
0
  0
LAYOUT
  5
22
102
{ACAD_REACTORS
330
1A
102
}
100
AcDbPlotSettings
  1

  2

  4

  6

 40
0.0
 41
0.0
 42
0.0
 43
0.0
 44
0.0
 45
0.0
 46
0.0
 47
0.0
 48
0.0
 49
0.0
140
0.0
141
0.0
142
1.0
143
1.0
 70
1024
 72
0
 73
0
 74
0
  7

 75
0
147
1.0
148
0.0
149
0.0
100
AcDbLayout
  1
Model
 70
0
 71
0
 10
0.0
 20
0.0
 11
0.0
 21
0.0
 12
0.0
 22
0.0
 32
0.0
 14
0.0
 24
0.0
 34
0.0
 15
0.0
 25
0.0
 35
0.0
146
0.0
 13
0.0
 23
0.0
 33
0.0
 16
0.0
 26
0.0
 36
0.0
 17
0.0
 27
0.0
 37
0.0
 76
0
330
1F
331
0
345
0
346
0
  0
ENDSEC
  0
EOF
